osu file format v14

[General]
AudioFilename: audio.mp3
AudioLeadIn: 0
PreviewTime: 61998
Countdown: 0
SampleSet: None
StackLeniency: 0.7
Mode: 0
LetterboxInBreaks: 0
WidescreenStoryboard: 1

[Editor]
Bookmarks: 21466,35189,41892,44126,62636,82743,100615
DistanceSpacing: 0.8
BeatDivisor: 4
GridSize: 16
TimelineZoom: 1

[Metadata]
Title:Hachigatsu no Yoru
TitleUnicode:八月の夜
Artist:Silent Siren
ArtistUnicode:Silent Siren
Creator:ImmaPartyCookie
Version:Normal
Source:
Tags:jpop sylphi underflow mrsergio yoshida sumire umemura hinako yamauchi aina kurosaka yukako 吉田菫 梅村妃奈子 山内あいな 黒坂優香子
BeatmapID:1956042
BeatmapSetID:932378

[Difficulty]
HPDrainRate:3
CircleSize:4
OverallDifficulty:4
ApproachRate:5
SliderMultiplier:1.2
SliderTickRate:1

[Events]
//Background and Video events
0,0,"hachigatsu.jpg",0,0
//Break Periods
2,59964,61436
//Storyboard Layer 0 (Background)
//Storyboard Layer 1 (Fail)
//Storyboard Layer 2 (Pass)
//Storyboard Layer 3 (Foreground)
//Storyboard Sound Samples

[TimingPoints]
1041,319.148936170213,4,2,1,70,1,0
62636,-100,4,2,1,70,0,1
100615,-100,4,2,1,70,0,0

[Colours]
Combo1 : 44,123,211
Combo2 : 216,112,112
Combo3 : 251,210,115
Combo4 : 55,234,185

[HitObjects]
81,67,721,5,10,0:3:0:0:
81,67,1041,2,0,B|143:51|143:51|205:68,1,120,6|8,0:0|0:0,0:0:0:0:
242,81,1519,1,0,0:0:0:0:
287,66,1679,2,0,B|340:51|340:51|402:67,1,120,2|8,0:0|0:0,0:0:0:0:
454,148,2317,6,0,L|450:218,1,60,2|0,0:0|0:0,0:0:0:0:
407,229,2636,2,0,L|413:296,1,60,8|0,0:0|0:0,0:0:0:0:
433,331,2955,2,0,P|386:323|304:356,1,120,2|8,0:0|0:0,0:0:0:0:
222,343,3594,6,0,B|161:350|161:350|106:327,1,120,2|8,0:0|0:0,0:0:0:0:
111,279,4072,1,0,0:0:0:0:
110,230,4232,2,0,B|164:207|164:207|225:214,1,120,2|8,0:0|0:0,0:0:0:0:
320,207,4870,6,0,P|326:172|325:139,1,60,2|0,0:0|0:0,0:0:0:0:
288,117,5189,2,0,P|281:89|279:53,1,60,8|0,0:0|0:0,0:0:0:0:
316,27,5509,2,0,P|368:19|443:31,1,120,2|8,0:0|0:0,0:0:0:0:
463,119,6147,6,0,P|482:183|456:253,1,120,2|8,0:0|0:0,0:0:0:0:
432,263,6626,2,0,L|308:281,1,120,0|0,0:0|0:0,0:0:0:0:
284,318,7104,1,8,0:0:0:0:
200,365,7423,6,0,P|187:324|218:242,1,120,2|8,0:0|0:0,0:0:0:0:
242,218,7902,2,0,P|272:179|255:96,1,120,0|0,0:0|0:0,0:0:0:0:
239,71,8381,1,8,0:0:0:0:
143,62,8700,6,0,B|111:140|111:140|125:246,2,180,2|0|8,0:0|0:0|0:0,0:0:0:0:
234,33,9977,2,0,P|319:9|406:56,1,180,2|0,0:0|0:0,0:0:0:0:
429,83,10615,2,0,L|436:156,1,60,10|10,0:0|0:0,0:0:0:0:
477,164,10934,2,0,L|471:241,1,60,2|2,0:0|0:0,0:0:0:0:
470,271,11253,6,0,P|418:261|351:271,1,120,6|8,0:0|0:0,0:0:0:0:
309,293,11732,1,0,0:0:0:0:
265,312,11892,2,0,P|206:321|147:311,1,120,2|8,0:0|0:0,0:0:0:0:
78,244,12530,6,0,P|64:193|64:163,1,60,2|0,0:0|0:0,0:0:0:0:
100,155,12849,2,0,P|106:121|100:83,1,60,8|0,0:0|0:0,0:0:0:0:
74,57,13168,1,2,0:0:0:0:
164,24,13487,1,8,0:0:0:0:
254,54,13806,6,0,B|310:41|310:41|391:55,1,120,2|8,0:0|0:0,0:0:0:0:
373,99,14285,1,0,0:0:0:0:
371,147,14445,2,0,B|315:160|315:160|234:146,1,120,2|8,0:0|0:0,0:0:0:0:
160,126,15083,6,0,P|151:165|151:189,1,60,2|0,0:0|0:0,0:0:0:0:
185,218,15402,2,0,P|199:259|201:288,1,60,8|0,0:0|0:0,0:0:0:0:
172,314,15721,1,2,0:0:0:0:
264,339,16041,1,8,0:0:0:0:
342,283,16360,6,0,P|330:244|379:167,1,120,2|8,0:0|0:0,0:0:0:0:
400,146,16838,2,0,P|431:96|421:38,1,120,0|0,0:0|0:0,0:0:0:0:
387,4,17317,1,8,0:0:0:0:
329,80,17636,6,0,B|264:68|264:68|194:81,1,120,2|8,0:0|0:0,0:0:0:0:
164,91,18115,2,0,B|100:110|100:110|43:87,1,120,0|0,0:0|0:0,0:0:0:0:
5,74,18594,2,0,L|13:147,1,60,8|0,0:0|0:0,0:0:0:0:
43,169,18913,6,0,P|72:227|63:302,1,120,2|8,0:0|0:0,0:0:0:0:
166,275,19551,2,0,P|165:215|193:163,1,120,2|8,0:0|0:0,0:0:0:0:
239,149,20030,1,0,0:0:0:0:
285,161,20189,2,0,L|421:144,1,120,2|8,0:0|0:0,0:0:0:0:
458,225,20828,2,0,P|441:266|418:296,1,60,2|0,0:0|0:0,0:0:0:0:
385,266,21147,2,0,P|346:266|312:285,1,60,10|10,0:0|0:0,0:0:0:0:
283,294,21466,5,6,0:0:0:0:
205,351,21785,2,0,P|158:379|78:368,1,120,8|2,0:0|0:0,0:0:0:0:
9,331,22423,1,8,0:0:0:0:
67,254,22743,2,0,L|64:193,1,60,2|0,0:0|0:0,0:0:0:0:
99,161,23062,2,0,L|96:93,1,60,8|0,0:0|0:0,0:0:0:0:
116,57,23381,2,0,P|180:63|256:41,1,120,2|8,0:0|0:0,0:0:0:0:
327,30,24019,6,0,L|322:177,1,120,2|8,0:0|0:0,0:0:0:0:
359,181,24498,1,0,0:0:0:0:
402,202,24658,2,0,L|394:350,1,120,2|8,0:0|0:0,0:0:0:0:
299,319,25296,2,0,P|247:308|226:308,1,60,2|2,0:0|0:0,0:0:0:0:
195,324,25615,2,0,P|154:337|132:341,1,60,8|0,0:0|0:0,0:0:0:0:
92,323,25934,2,0,L|83:190,1,120,2|8,0:0|0:0,0:0:0:0:
148,131,26572,6,0,P|202:112|264:112,1,120,2|8,0:0|0:0,0:0:0:0:
348,159,27211,2,0,P|406:173|465:142,1,120,2|8,0:0|0:0,0:0:0:0:
454,100,27689,1,0,0:0:0:0:
445,52,27849,2,0,P|387:38|328:69,1,120,2|8,0:0|0:0,0:0:0:0:
257,120,28487,2,0,P|199:134|140:103,1,120,2|8,0:0|0:0,0:0:0:0:
60,65,29126,6,0,B|36:117|36:117|52:205,1,120,2|8,0:0|0:0,0:0:0:0:
90,198,29604,1,0,0:0:0:0:
133,217,29764,2,0,B|144:278|144:278|120:330,1,120,2|8,0:0|0:0,0:0:0:0:
90,368,30243,1,2,0:0:0:0:
424,332,31360,5,12,0:0:0:0:
424,332,31679,6,0,B|436:268|436:268|411:208,1,120,6|10,0:0|0:0,0:0:0:0:
329,173,32317,2,0,B|307:122|307:122|329:59,1,120,2|10,0:0|0:0,0:0:0:0:
235,37,32955,2,0,L|116:47,1,120,2|10,0:0|0:0,0:0:0:0:
87,139,33594,2,0,L|206:129,1,120,2|10,0:0|0:0,0:0:0:0:
295,164,34232,5,2,0:0:0:0:
226,231,34551,2,0,L|234:303,1,60,10|0,0:0|0:0,0:0:0:0:
266,325,34870,1,2,0:0:0:0:
355,291,35189,2,0,L|363:219,1,60,10|0,0:0|0:0,0:0:0:0:
395,197,35508,1,2,0:0:0:0:
309,152,35828,1,10,0:0:0:0:
357,69,36147,1,2,0:0:0:0:
267,35,36466,1,10,0:0:0:0:
183,82,36785,6,0,L|197:220,2,120,2|10|2,0:0|0:0|0:0,0:0:0:0:
96,40,37743,1,10,0:0:0:0:
62,129,38062,2,0,L|48:267,2,120,2|10|2,0:0|0:0|0:0,0:0:0:0:
96,40,39020,1,10,0:0:0:0:
190,55,39338,6,0,L|337:42,1,120,2|10,0:0|0:0,0:0:0:0:
401,73,39977,2,0,L|396:132,1,60,2|0,0:0|0:0,0:0:0:0:
351,150,40296,2,0,L|357:217,1,60,10|0,0:0|0:0,0:0:0:0:
393,239,40615,2,0,P|329:230|267:260,2,120,2|10|2,0:0|0:0|0:0,0:0:0:0:
341,319,41572,2,0,P|292:326|263:317,1,60,8|8,0:0|0:0,0:0:0:0:
235,313,41892,6,0,P|181:304|103:338,1,120,6|0,0:0|0:0,0:0:0:0:
80,351,42370,2,0,L|65:215,1,120,8|2,0:0|0:0,0:0:0:0:
92,191,42849,1,8,0:0:0:0:
49,104,43168,6,0,P|111:80|165:106,1,120,2|2,0:0|0:0,0:0:0:0:
197,126,43647,2,0,P|252:145|305:121,1,120,8|0,0:0|0:0,0:0:0:0:
346,94,44126,1,8,0:0:0:0:
441,96,44445,6,0,L|430:165,1,60,2|2,0:0|0:0,0:0:0:0:
385,168,44764,2,0,L|393:236,1,60,0|8,0:0|0:0,0:0:0:0:
433,251,45083,2,0,L|426:318,1,60,0|2,0:0|0:0,0:0:0:0:
387,338,45402,1,8,0:0:0:0:
324,265,45721,6,0,L|256:260,1,60,2|2,0:0|0:0,0:0:0:0:
235,299,46041,2,0,L|170:310,1,60,2|8,0:0|0:0,0:0:0:0:
154,265,46360,2,0,L|93:258,1,60,0|2,0:0|0:0,0:0:0:0:
52,281,46679,1,8,0:0:0:0:
41,185,46998,6,0,P|28:142|53:69,1,120,2|0,0:0|0:0,0:0:0:0:
87,42,47477,2,0,B|131:33|131:33|169:44|169:44|229:35,1,120,8|2,0:0|0:0,0:0:0:0:
251,32,47955,1,8,0:0:0:0:
347,30,48275,6,0,B|318:100|381:89|350:167,1,120,2|0,0:0|0:0,0:0:0:0:
322,178,48753,2,0,P|273:166|208:186,1,120,8|2,0:0|0:0,0:0:0:0:
170,216,49232,1,8,0:0:0:0:
75,200,49551,6,0,L|82:263,1,60,2|2,0:0|0:0,0:0:0:0:
121,286,49870,2,0,L|118:354,1,60,0|8,0:0|0:0,0:0:0:0:
166,350,50189,2,0,P|210:335|305:348,1,120,0|8,0:0|0:0,0:0:0:0:
366,292,50828,6,0,L|359:229,1,60,2|2,0:0|0:0,0:0:0:0:
320,206,51147,2,0,L|323:138,1,60,2|8,0:0|0:0,0:0:0:0:
357,113,51466,1,0,0:0:0:0:
290,44,51785,1,12,0:0:0:0:
211,99,52104,6,0,P|149:91|108:53,1,120,2|2,0:0|0:0,0:0:0:0:
69,24,52583,2,0,L|79:217,1,180,8|8,0:0|0:0,0:0:0:0:
127,286,53381,6,0,P|163:272|241:293,1,120,2|0,0:0|0:0,0:0:0:0:
277,320,53860,2,0,L|257:136,1,180,8|8,0:0|0:0,0:0:0:0:
224,50,54658,6,0,L|309:37,1,60,2|2,0:0|0:0,0:0:0:0:
328,58,54977,2,0,L|400:73,1,60,0|8,0:0|0:0,0:0:0:0:
433,57,55296,1,0,0:0:0:0:
381,137,55615,1,8,0:0:0:0:
457,194,55934,6,0,L|452:257,1,60,2|2,0:0|0:0,0:0:0:0:
405,266,56253,2,0,L|411:328,1,60,0|8,0:0|0:0,0:0:0:0:
446,357,56572,1,0,0:0:0:0:
352,378,56892,1,8,0:0:0:0:
278,316,57211,6,0,P|227:302|148:332,1,120,2|2,0:0|0:0,0:0:0:0:
124,346,57689,2,0,P|94:303|97:232,1,120,8|2,0:0|0:0,0:0:0:0:
121,197,58168,1,8,0:0:0:0:
190,131,58487,6,0,B|208:183|208:183|195:266,1,120,2|0,0:0|0:0,0:0:0:0:
184,293,58966,1,8,0:0:0:0:
184,293,59126,2,0,L|255:278,1,60,2|0,0:0|0:0,0:0:0:0:
289,290,59445,2,0,L|351:295,1,60,8|0,0:0|0:0,0:0:0:0:
396,282,59764,1,6,0:0:0:0:
89,53,62636,6,0,L|97:179,1,120,12|0,0:0|0:0,0:0:0:0:
176,226,63275,1,8,0:0:0:0:
134,312,63594,2,0,P|189:328|247:296,1,120,2|8,0:0|0:0,0:0:0:0:
317,241,64232,2,0,P|357:229|434:256,1,120,2|8,0:0|0:0,0:0:0:0:
465,162,64870,6,0,L|453:38,1,120,2|8,0:0|0:0,0:0:0:0:
411,18,65349,1,0,0:0:0:0:
411,18,65509,2,0,L|278:28,1,120,2|8,0:0|0:0,0:0:0:0:
196,42,66147,6,0,L|76:33,1,120,2|8,0:0|0:0,0:0:0:0:
33,55,66626,1,0,0:0:0:0:
33,55,66786,2,0,L|21:174,1,120,2|8,0:0|0:0,0:0:0:0:
113,200,67423,6,0,P|151:240|239:258,1,120,2|8,0:0|0:0,0:0:0:0:
304,236,68062,2,0,L|425:232,1,120,2|8,0:0|0:0,0:0:0:0:
461,201,68541,1,0,0:0:0:0:
461,201,68700,6,0,P|419:156|411:90,1,120,2|8,0:0|0:0,0:0:0:0:
417,52,69179,2,0,P|376:87|295:90,1,120,0|0,0:0|0:0,0:0:0:0:
265,84,69658,1,8,0:0:0:0:
194,19,69977,6,0,P|167:57|170:134,1,120,2|8,0:0|0:0,0:0:0:0:
238,192,70615,2,0,P|258:228|238:306,1,120,2|8,0:0|0:0,0:0:0:0:
207,335,71094,1,0,0:0:0:0:
207,335,71253,6,0,L|126:328,1,60,2|0,0:0|0:0,0:0:0:0:
110,298,71572,2,0,L|40:293,1,60,8|0,0:0|0:0,0:0:0:0:
16,258,71892,2,0,P|11:210|47:147,1,120,2|10,0:0|0:0,0:0:0:0:
133,111,72530,6,0,L|262:91,1,120,6|8,0:0|0:0,0:0:0:0:
297,106,73009,1,0,0:0:0:0:
340,124,73168,2,0,L|467:134,1,120,2|8,0:0|0:0,0:0:0:0:
397,206,73806,6,0,P|361:240|344:330,1,120,2|8,0:0|0:0,0:0:0:0:
271,239,74445,2,0,P|258:194|178:158,1,120,2|8,0:0|0:0,0:0:0:0:
185,252,75083,6,0,L|194:331,1,60,2|0,0:0|0:0,0:0:0:0:
178,357,75402,1,8,0:0:0:0:
87,325,75721,2,0,L|96:246,1,60,2|0,0:0|0:3,0:0:0:0:
80,220,76040,1,8,0:0:0:0:
160,167,76360,6,0,P|236:146|290:157,1,120,2|8,0:0|0:0,0:0:0:0:
335,227,76998,2,0,P|383:246|452:233,1,120,2|8,0:0|0:0,0:0:0:0:
391,157,77636,6,0,B|410:100|410:100|396:31,1,120,2|8,0:0|0:0,0:0:0:0:
353,22,78115,2,0,P|297:41|237:26,1,120,0|0,0:0|0:0,0:0:0:0:
193,8,78594,1,8,0:0:0:0:
108,53,78913,6,0,P|121:113|99:195,1,120,2|8,0:0|0:0,0:0:0:0:
82,208,79392,2,0,P|137:186|216:207,1,120,0|0,0:0|0:0,0:0:0:0:
238,217,79870,2,0,L|231:283,1,60,8|0,0:0|0:0,0:0:0:0:
196,315,80189,6,0,P|250:299|330:326,1,120,2|8,0:0|0:0,0:0:0:0:
353,334,80668,1,0,0:0:0:0:
353,334,80828,2,0,L|346:269,1,60,2|0,0:0|0:0,0:0:0:0:
376,237,81147,2,0,L|381:175,1,60,8|0,0:0|0:0,0:0:0:0:
358,134,81466,1,2,0:0:0:0:
398,46,81785,1,8,0:0:0:0:
302,56,82104,1,8,0:0:0:0:
264,144,82423,1,2,0:0:0:0:
216,60,82743,6,0,P|146:60|76:90,1,120,6|8,0:0|0:0,0:0:0:0:
60,164,83381,2,0,L|65:237,1,60,2|0,0:0|0:0,0:0:0:0:
110,235,83700,2,0,L|110:314,1,60,8|0,0:0|0:0,0:0:0:0:
79,332,84019,1,2,0:0:0:0:
172,352,84338,1,8,0:0:0:0:
253,301,84658,6,0,L|336:313,1,60,2|0,0:0|0:0,0:0:0:0:
338,269,84977,2,0,L|408:261,1,60,8|0,0:0|0:0,0:0:0:0:
435,232,85296,1,2,0:0:0:0:
371,159,85615,1,8,0:0:0:0:
443,96,85934,1,2,0:0:0:0:
379,24,86253,1,8,0:0:0:0:
291,63,86572,6,0,P|240:69|166:45,1,120,2|8,0:0|0:0,0:0:0:0:
83,81,87211,2,0,L|85:160,1,60,2|0,0:0|0:0,0:0:0:0:
131,152,87530,2,0,L|120:228,1,60,8|0,0:0|0:0,0:0:0:0:
89,246,87849,6,0,P|138:232|211:250,1,120,2|8,0:0|0:0,0:0:0:0:
270,315,88487,2,0,L|284:253,1,60,2|0,0:0|0:0,0:0:0:0:
326,235,88806,2,0,L|322:171,1,60,8|0,0:0|0:0,0:0:0:0:
288,140,89126,1,2,0:0:0:0:
347,64,89445,1,8,0:0:0:0:
435,99,89764,6,0,L|448:161,1,60,2|0,0:0|0:0,0:0:0:0:
414,192,90083,2,0,L|410:257,1,60,8|0,0:0|0:0,0:0:0:0:
447,282,90402,1,2,0:0:0:0:
367,335,90721,1,8,0:0:0:0:
274,308,91041,1,2,0:0:0:0:
184,343,91360,1,8,0:0:0:0:
94,308,91679,2,0,P|62:268|77:179,1,120,2|12,0:0|0:0,0:0:0:0:
154,174,92317,2,0,P|186:214|171:303,1,120,8|2,0:0|0:0,0:0:0:0:
165,374,92955,5,6,0:0:0:0:
246,323,93275,1,8,0:0:0:0:
338,350,93594,1,6,0:0:0:0:
413,291,93913,1,8,0:0:0:0:
331,239,94232,1,6,0:0:0:0:
407,180,94551,1,8,0:0:0:0:
339,111,94870,6,0,L|266:102,1,60,6|0,0:0|0:0,0:0:0:0:
243,135,95189,2,0,L|170:145,1,60,8|0,0:0|0:0,0:0:0:0:
141,119,95509,1,6,0:0:0:0:
48,143,95828,1,8,0:0:0:0:
124,201,96147,6,0,L|132:267,1,60,6|0,0:0|0:0,0:0:0:0:
175,279,96466,2,0,L|167:357,1,60,8|0,0:0|0:0,0:0:0:0:
128,365,96785,2,0,P|171:348|260:364,1,120,6|8,0:0|0:0,0:0:0:0:
336,332,97423,2,0,L|347:272,1,60,6|0,0:0|0:0,0:0:0:0:
302,254,97743,2,0,L|298:195,1,60,8|0,0:0|0:0,0:0:0:0:
263,160,98062,6,0,P|325:160|377:105,1,120,6|8,0:0|0:0,0:0:0:0:
290,67,98700,2,0,L|211:81,1,60,6|0,0:0|0:0,0:0:0:0:
192,48,99019,2,0,L|121:64,1,60,8|0,0:0|0:0,0:0:0:0:
85,54,99338,1,6,0:0:0:0:
51,144,99658,1,12,0:0:0:0:
142,173,99977,6,0,L|136:247,1,60,12|0,0:0|0:0,0:0:0:0:
177,259,100296,2,0,L|181:323,1,60,12|8,0:0|0:0,0:0:0:0:
148,354,100615,1,12,0:0:0:0:
