osu file format v14

[General]
AudioFilename: audio.mp3
AudioLeadIn: 0
PreviewTime: 61998
Countdown: 0
SampleSet: Soft
StackLeniency: 0.7
Mode: 0
LetterboxInBreaks: 0
WidescreenStoryboard: 1

[Editor]
Bookmarks: 21466,41892,44126,62636,82743,100615
DistanceSpacing: 1
BeatDivisor: 4
GridSize: 16
TimelineZoom: 1

[Metadata]
Title:Hachigatsu no Yoru
TitleUnicode:八月の夜
Artist:Silent Siren
ArtistUnicode:Silent Siren
Creator:ImmaPartyCookie
Version:Night
Source:
Tags:jpop sylphi underflow mrsergio yoshida sumire umemura hinako yamauchi aina kurosaka yukako 吉田菫 梅村妃奈子 山内あいな 黒坂優香子
BeatmapID:1946681
BeatmapSetID:932378

[Difficulty]
HPDrainRate:6
CircleSize:4.5
OverallDifficulty:7
ApproachRate:9.4
SliderMultiplier:1.8
SliderTickRate:1

[Events]
//Background and Video events
0,0,"hachigatsu.jpg",0,0
//Break Periods
//Storyboard Layer 0 (Background)
//Storyboard Layer 1 (Fail)
//Storyboard Layer 2 (Pass)
//Storyboard Layer 3 (Foreground)
//Storyboard Sound Samples

[TimingPoints]
1041,319.148936170213,4,2,1,70,1,0
21466,-133.333333333333,4,2,1,70,0,0
62636,-83.3333333333333,4,2,1,70,0,1
100615,-83.3333333333333,4,2,1,70,0,0

[Colours]
Combo1 : 44,123,211
Combo2 : 216,112,112
Combo3 : 251,210,115
Combo4 : 55,234,185

[HitObjects]
74,140,721,5,10,0:3:0:0:
73,147,1041,6,0,B|138:144|138:144|188:167|188:167|269:159,1,180,6|8,0:0|0:0,0:0:0:0:
332,96,1519,1,0,0:0:0:0:
359,199,1679,2,0,P|341:238|275:270,1,90,2|2,0:0|0:0,0:0:0:0:
208,89,1998,2,0,L|200:-9,1,90,8|0,0:0|0:0,0:0:0:0:
370,113,2317,5,2,0:0:0:0:
242,175,2477,1,0,0:0:0:0:
291,54,2636,1,8,0:0:0:0:
343,228,2796,1,0,0:0:0:0:
405,91,2955,2,0,P|448:80|503:78,1,90,2|2,0:0|0:0,0:0:0:0:
329,28,3275,2,0,P|247:29|192:49,1,135,8|0,0:0|0:0,0:0:0:0:
152,107,3594,6,0,P|163:160|148:300,1,180,2|8,0:0|0:0,0:0:0:0:
61,346,4072,1,0,0:0:0:0:
234,278,4232,2,0,P|276:264|329:270,1,90,2|2,0:0|0:0,0:0:0:0:
471,328,4551,2,0,P|415:348|366:324,1,90,8|0,0:0|0:0,0:0:0:0:
456,143,4870,5,2,0:0:0:0:
421,267,5030,1,0,0:0:0:0:
328,89,5189,1,8,0:0:0:0:
349,218,5349,1,0,0:0:0:0:
432,123,5509,5,2,0:0:0:0:
402,250,5669,1,2,0:0:0:0:
311,78,5828,1,8,0:0:0:0:
330,201,5988,1,2,0:0:0:0:
485,62,6147,6,0,B|405:39|405:39|306:69,1,180,2|8,0:0|0:0,0:0:0:0:
209,132,6626,1,0,0:0:0:0:
83,199,6785,2,0,P|82:157|89:101,1,90,2|2,0:0|0:0,0:0:0:0:
221,171,7104,2,0,P|229:209|216:280,1,90,8|0,0:0|0:0,0:0:0:0:
109,336,7423,5,2,0:0:0:0:
243,365,7583,1,0,0:0:0:0:
357,288,7743,2,0,P|364:251|359:168,1,90,8|0,0:0|0:0,0:0:0:0:
228,30,8062,5,2,0:0:0:0:
173,117,8221,1,2,0:0:0:0:
188,227,8381,2,0,P|238:238|314:223,1,90,8|0,0:0|0:0,0:0:0:0:
460,110,8700,5,2,0:0:0:0:
323,93,8860,1,2,0:0:0:0:
364,205,9019,1,8,0:0:0:0:
397,26,9179,2,0,B|295:22|348:88|212:66,1,180,2|0,0:0|0:0,0:0:0:0:
99,136,9658,2,0,P|90:107|96:41,1,90,8|2,0:0|0:0,0:0:0:0:
292,169,9977,6,0,P|261:201|194:218,1,90,2|0,0:0|0:0,0:0:0:0:
171,86,10296,2,0,P|202:54|269:37,1,90,8|0,0:0|0:0,0:0:0:0:
372,78,10615,5,10,0:0:0:0:
406,107,10695,1,10,0:0:0:0:
423,148,10775,1,10,0:0:0:0:
415,191,10854,1,10,0:0:0:0:
395,231,10934,5,2,0:0:0:0:
385,251,11014,1,2,0:0:0:0:
379,272,11094,1,2,0:0:0:0:
384,293,11173,1,2,0:0:0:0:
409,327,11253,6,0,B|374:339|346:321|346:321|327:361|296:380|264:377|226:357,1,180,6|8,0:0|0:0,0:0:0:0:
139,289,11732,1,0,0:0:0:0:
256,212,11892,2,0,P|279:270|263:325,1,90,2|2,0:0|0:0,0:0:0:0:
108,248,12211,2,0,L|115:150,1,90,8|0,0:0|0:0,0:0:0:0:
309,99,12530,5,2,0:0:0:0:
168,50,12689,1,0,0:0:0:0:
265,172,12849,1,8,0:0:0:0:
238,16,13009,1,0,0:0:0:0:
181,153,13168,2,0,P|129:156|66:175,1,90,2|2,0:0|0:0,0:0:0:0:
293,84,13487,2,0,P|354:87|431:60,1,135,8|0,0:0|0:0,0:0:0:0:
493,21,13806,6,0,B|506:72|506:72|482:211,1,180,2|8,0:0|0:0,0:0:0:0:
377,272,14285,1,0,0:0:0:0:
283,171,14445,2,0,P|241:159|187:166,1,90,2|2,0:0|0:0,0:0:0:0:
164,292,14764,2,0,P|212:307|262:301,1,90,8|0,0:0|0:0,0:0:0:0:
393,85,15083,5,2,0:0:0:0:
376,215,15243,1,0,0:0:0:0:
269,38,15402,1,8,0:0:0:0:
233,168,15562,1,0,0:0:0:0:
367,78,15721,5,2,0:0:0:0:
350,208,15881,1,2,0:0:0:0:
243,31,16041,1,8,0:0:0:0:
207,161,16200,1,2,0:0:0:0:
105,85,16360,6,0,P|97:163|106:270,1,180,2|8,0:0|0:0,0:0:0:0:
223,194,16838,1,0,0:0:0:0:
56,326,16998,2,0,P|107:343|154:331,1,90,2|2,0:0|0:0,0:0:0:0:
266,281,17317,2,0,P|215:264|168:276,1,90,8|0,0:0|0:0,0:0:0:0:
351,355,17636,5,2,0:0:0:0:
343,199,17796,1,0,0:0:0:0:
376,328,17955,2,0,P|431:326|489:302,1,90,8|0,0:0|0:0,0:0:0:0:
451,136,18275,5,2,0:0:0:0:
269,186,18435,1,2,0:0:0:0:
424,161,18594,2,0,P|422:216|398:274,1,90,8|0,0:0|0:0,0:0:0:0:
298,297,18913,6,0,B|233:289|233:289|186:304|186:304|95:288,1,180,2|8,0:0|0:0,0:0:0:0:
48,216,19392,1,0,0:0:0:0:
11,103,19551,2,0,P|10:83|39:12,1,90,2|2,0:0|0:0,0:0:0:0:
119,176,19870,2,0,P|123:215|105:273,1,90,8|0,0:0|0:0,0:0:0:0:
92,69,20189,6,0,L|194:57,1,90,2|0,0:0|0:0,0:0:0:0:
295,175,20509,2,0,L|193:187,1,90,8|0,0:0|0:0,0:0:0:0:
274,8,20828,2,0,L|259:113,1,90,2|0,0:0|0:0,0:0:0:0:
122,165,21147,1,10,0:0:0:0:
127,200,21227,1,10,0:0:0:0:
132,235,21306,1,10,0:0:0:0:
137,270,21386,1,10,0:0:0:0:
141,300,21466,5,6,0:0:0:0:
216,254,21626,1,0,0:0:0:0:
293,294,21785,1,8,0:0:0:0:
361,238,21945,1,0,0:0:0:0:
436,281,22104,2,0,P|453:228|454:204,1,67.5000025749208,2|2,0:0|0:0,0:0:0:0:
399,147,22423,2,0,P|389:106|390:70,1,67.5000025749208,8|0,0:0|0:0,0:0:0:0:
322,141,22743,2,0,L|241:146,2,67.5000025749208,2|0|8,0:0|0:0|0:0,0:0:0:0:
322,141,23381,5,2,0:0:0:0:
330,222,23541,1,2,0:0:0:0:
257,255,23700,1,8,0:0:0:0:
202,194,23860,1,2,0:0:0:0:
243,124,24019,6,0,L|222:-14,1,135.000005149842,2|8,0:0|0:0,0:0:0:0:
104,52,24498,1,0,0:0:0:0:
104,52,24658,2,0,L|100:189,1,135.000005149842,2|8,0:0|0:0,0:0:0:0:
198,242,25136,1,2,0:0:0:0:
336,175,25296,2,0,P|276:149|252:147,1,67.5000025749208,2|2,0:0|0:0,0:0:0:0:
273,317,25615,2,0,P|308:312|350:285,1,67.5000025749208,8|0,0:0|0:0,0:0:0:0:
419,223,25934,1,2,0:0:0:0:
399,35,26253,5,8,0:0:0:0:
331,91,26413,1,0,0:0:0:0:
402,141,26572,2,0,P|419:182|417:222,1,67.5000025749208,2|0,0:0|0:0,0:0:0:0:
261,155,26892,2,0,P|279:128|307:108,1,67.5000025749208,8|0,0:0|0:0,0:0:0:0:
348,258,27211,2,0,P|315:255|284:241,1,67.5000025749208,2|2,0:0|0:0,0:0:0:0:
207,205,27530,2,0,P|170:192|127:196,1,67.5000025749208,8|0,0:0|0:0,0:0:0:0:
63,224,27849,6,0,L|75:367,2,135.000005149842,2|8|2,0:0|0:0|0:0,0:0:0:0:
129,167,28647,1,2,0:0:0:0:
45,128,28806,1,8,0:0:0:0:
117,78,28966,1,2,0:0:0:0:
206,117,29126,6,0,P|205:167|273:237,1,135.000005149842,2|8,0:0|0:0,0:0:0:0:
352,185,29604,1,0,0:0:0:0:
352,185,29764,2,0,P|353:135|285:65,1,135.000005149842,2|8,0:0|0:0,0:0:0:0:
268,152,30243,1,2,0:0:0:0:
268,152,30402,6,0,B|216:152|216:152|176:172|176:172|123:173,2,135.000005149842,2|0|2,0:0|0:0|0:0,0:0:0:0:
345,212,31200,1,2,0:0:0:0:
290,289,31360,1,12,0:0:0:0:
293,289,31679,6,0,P|350:303|435:261,1,135.000005149842,6|10,0:0|0:0,0:0:0:0:
480,168,32158,1,0,0:0:0:0:
357,98,32317,2,0,L|361:182,1,67.5000025749208,2|0,0:0|0:0,0:0:0:0:
260,160,32636,2,0,L|251:236,1,67.5000025749208,10|0,0:0|0:0,0:0:0:0:
100,266,32955,1,2,0:0:0:0:
174,187,33115,1,0,0:0:0:0:
179,303,33275,6,0,P|153:338|108:356,1,67.5000025749208,10|0,0:0|0:0,0:0:0:0:
241,334,33594,2,0,P|284:339|322:368,1,67.5000025749208,2|0,0:0|0:0,0:0:0:0:
243,260,33913,2,0,P|225:219|232:172,1,67.5000025749208,10|0,0:0|0:0,0:0:0:0:
334,72,34232,6,0,L|295:222,1,135.000005149842,2|10,0:0|0:0,0:0:0:0:
207,203,34711,1,0,0:0:0:0:
207,203,34870,2,0,L|173:72,1,135.000005149842,2|10,0:0|0:0,0:0:0:0:
76,39,35349,1,0,0:0:0:0:
25,120,35509,6,0,P|25:175|37:203,1,67.5000025749208,2|0,0:0|0:0,0:0:0:0:
117,235,35828,2,0,P|124:202|120:168,1,67.5000025749208,10|0,0:0|0:0,0:0:0:0:
45,312,36147,2,0,P|81:326|123:323,1,67.5000025749208,2|0,0:0|0:0,0:0:0:0:
244,293,36466,2,0,P|209:268|163:263,1,67.5000025749208,10|0,0:0|0:0,0:0:0:0:
328,326,36785,6,0,L|317:233,1,67.5000025749208,2|0,0:0|0:0,0:0:0:0:
418,241,37104,2,0,L|429:148,1,67.5000025749208,10|0,0:0|0:0,0:0:0:0:
324,322,37423,2,0,L|313:229,1,67.5000025749208,2|0,0:0|0:0,0:0:0:0:
199,166,37743,1,10,0:0:0:0:
221,271,37902,1,0,0:0:0:0:
382,166,38062,6,0,L|298:147,1,67.5000025749208,2|0,0:0|0:0,0:0:0:0:
304,44,38381,2,0,L|220:63,1,67.5000025749208,10|0,0:0|0:0,0:0:0:0:
378,170,38700,2,0,L|294:151,1,67.5000025749208,2|0,0:0|0:0,0:0:0:0:
244,276,39019,2,0,L|310:257,1,67.5000025749208,10|0,0:0|0:0,0:0:0:0:
453,339,39338,6,0,B|380:315|380:315|300:335,1,135.000005149842,2|10,0:0|0:0,0:0:0:0:
223,364,39817,1,0,0:0:0:0:
81,252,39977,1,2,0:0:0:0:
117,350,40136,1,0,0:0:0:0:
238,211,40296,1,10,0:0:0:0:
237,308,40455,1,0,0:0:0:0:
144,188,40615,6,0,P|129:147|126:109,1,67.5000025749208,2|0,0:0|0:0,0:0:0:0:
255,50,40934,2,0,P|240:91|237:129,1,67.5000025749208,10|0,0:0|0:0,0:0:0:0:
347,182,41253,1,2,0:0:0:0:
322,96,41413,1,8,0:0:0:0:
436,40,41572,1,8,0:0:0:0:
416,133,41732,1,8,0:0:0:0:
476,234,41892,5,6,0:0:0:0:
476,234,42051,2,0,P|404:230|384:238,1,67.5000025749208,2|0,0:0|0:0,0:0:0:0:
331,320,42370,2,0,L|302:160,1,135.000005149842,8|2,0:0|0:0,0:0:0:0:
351,102,42849,1,8,0:0:0:0:
351,102,43009,1,2,0:0:0:0:
247,37,43168,5,2,0:0:0:0:
160,82,43328,2,0,L|166:175,1,67.5000025749208,2|2,0:0|0:0,0:0:0:0:
81,45,43647,1,8,0:0:0:0:
83,179,43806,5,0,0:0:0:0:
214,80,43966,1,0,0:0:0:0:
115,209,44126,5,8,0:0:0:0:
202,123,44285,1,0,0:0:0:0:
135,249,44445,5,2,0:0:0:0:
201,168,44604,1,2,0:0:0:0:
140,294,44764,5,0,0:0:0:0:
211,211,44923,1,8,0:0:0:0:
228,345,45083,5,0,0:0:0:0:
254,276,45243,1,2,0:0:0:0:
185,249,45402,1,8,0:0:0:0:
159,319,45562,1,0,0:0:0:0:
47,197,45721,1,2,0:0:0:0:
90,293,45881,1,2,0:0:0:0:
116,223,46041,1,2,0:0:0:0:
21,266,46200,2,0,P|32:308|21:402,1,135.000005149842,8|2,0:0|0:0,0:0:0:0:
114,344,46679,2,0,P|141:324|199:314,1,67.5000025749208,8|0,0:0|0:0,0:0:0:0:
281,338,46998,5,2,0:0:0:0:
281,338,47158,2,0,P|286:298|296:258,1,67.5000025749208,2|0,0:0|0:0,0:0:0:0:
401,251,47477,2,0,P|397:194|371:100,1,135.000005149842,8|2,0:0|0:0,0:0:0:0:
287,72,47955,1,8,0:0:0:0:
288,72,48115,1,0,0:0:0:0:
162,138,48275,5,2,0:0:0:0:
236,212,48434,2,0,L|319:200,1,67.5000025749208,2|0,0:0|0:0,0:0:0:0:
198,313,48753,1,8,0:0:0:0:
65,276,48913,5,0,0:0:0:0:
180,184,49072,1,2,0:0:0:0:
48,234,49232,5,8,0:0:0:0:
156,159,49392,1,0,0:0:0:0:
46,189,49551,5,2,0:0:0:0:
137,131,49711,1,2,0:0:0:0:
58,146,49870,5,0,0:0:0:0:
127,99,50030,1,8,0:0:0:0:
242,251,50189,1,0,0:0:0:0:
283,133,50349,2,0,B|256:147|211:157|212:107|173:108|125:130,1,135.000005149842,2|2,0:0|0:0,0:0:0:0:
46,60,50828,1,2,0:0:0:0:
46,60,50987,2,0,P|56:117|57:152,1,67.5000025749208,2|2,0:0|0:0,0:0:0:0:
137,308,51306,2,0,P|174:265|169:173,1,135.000005149842,8|0,0:0|0:0,0:0:0:0:
27,121,51785,1,12,0:0:0:0:
106,233,51945,1,0,0:0:0:0:
255,111,52104,5,2,0:0:0:0:
255,111,52264,2,0,P|241:154|236:194,1,67.5000025749208,2|0,0:0|0:0,0:0:0:0:
339,262,52583,2,0,B|403:249|398:311|495:264,1,135.000005149842,8|0,0:0|0:0,0:0:0:0:
442,189,53062,1,8,0:0:0:0:
442,189,53221,1,0,0:0:0:0:
331,52,53381,5,2,0:0:0:0:
256,108,53541,2,0,L|263:183,1,67.5000025749208,2|0,0:0|0:0,0:0:0:0:
172,67,53860,1,8,0:0:0:0:
69,206,54018,5,0,0:0:0:0:
139,160,54178,1,2,0:0:0:0:
86,247,54337,5,8,0:0:0:0:
146,181,54497,1,0,0:0:0:0:
118,278,54657,5,2,0:0:0:0:
160,199,54817,1,2,0:0:0:0:
159,296,54975,5,2,0:0:0:0:
179,211,55136,1,8,0:0:0:0:
76,109,55296,5,0,0:0:0:0:
101,39,55455,1,2,0:0:0:0:
171,64,55615,1,8,0:0:0:0:
145,134,55775,1,0,0:0:0:0:
309,114,55934,1,2,0:0:0:0:
240,89,56094,1,2,0:0:0:0:
283,184,56253,1,0,0:0:0:0:
216,161,56413,2,0,P|208:214|220:299,1,135.000005149842,8|2,0:0|0:0,0:0:0:0:
263,372,56892,2,0,P|221:333|176:327,1,101.250003862381,8|2,0:0|0:0,0:0:0:0:
145,332,57211,5,2,0:0:0:0:
99,162,57370,2,0,P|90:201|90:237,2,67.5000025749208,0|2|8,0:0|0:0|0:0,0:0:0:0:
241,239,57849,1,0,0:0:0:0:
188,293,58009,1,2,0:0:0:0:
162,211,58168,1,8,0:0:0:0:
259,312,58328,1,0,0:0:0:0:
417,254,58487,1,2,0:0:0:0:
417,254,58647,6,0,B|343:246|381:306|270:292,1,135.000005149842,2|8,0:0|0:0,0:0:0:0:
291,143,59126,2,0,P|299:197|296:231,1,67.5000025749208,2|0,0:0|0:0,0:0:0:0:
195,88,59445,2,0,P|184:134|186:172,1,67.5000025749208,8|0,0:0|0:0,0:0:0:0:
276,36,59764,1,6,0:0:0:0:
256,192,60083,12,2,61519,0:0:0:0:
258,33,61679,5,10,0:0:0:0:
235,57,61758,1,10,0:0:0:0:
229,90,61838,1,10,0:0:0:0:
241,121,61918,1,10,0:0:0:0:
267,140,61998,5,2,0:0:0:0:
294,160,62078,1,2,0:0:0:0:
306,191,62158,1,2,0:0:0:0:
300,224,62238,1,2,0:0:0:0:
278,249,62317,1,2,0:0:0:0:
278,249,62636,6,0,P|330:257|384:197,1,107.999996704102,12|0,0:0|0:0,0:0:0:0:
442,143,62955,1,2,0:0:0:0:
327,83,63115,2,0,P|301:121|318:193,1,107.999996704102,2|8,0:0|0:0,0:0:0:0:
436,227,63434,1,0,0:0:0:0:
348,349,63594,6,0,P|259:333|200:346,1,107.999996704102,2|0,0:0|0:0,0:0:0:0:
138,183,63913,2,0,P|191:171|268:177,1,107.999996704102,8|0,0:0|0:0,0:0:0:0:
103,351,64232,1,2,0:0:0:0:
81,237,64392,1,2,0:0:0:0:
223,350,64551,1,8,0:0:0:0:
222,242,64711,1,0,0:0:0:0:
53,197,64870,6,0,P|40:142|37:82,1,107.999996704102,2|0,0:0|0:0,0:0:0:0:
134,18,65189,1,8,0:0:0:0:
260,48,65349,1,0,0:0:0:0:
244,253,65509,6,0,P|170:232|118:195,1,107.999996704102,2|2,0:0|0:0,0:0:0:0:
129,82,65828,1,8,0:0:0:0:
236,8,65987,1,0,0:0:0:0:
427,89,66147,6,0,P|445:151|435:204,1,107.999996704102,2|0,0:0|0:0,0:0:0:0:
306,196,66466,2,0,P|300:142|318:91,1,107.999996704102,8|0,0:0|0:0,0:0:0:0:
374,323,66785,2,0,L|259:347,1,107.999996704102,2|2,0:0|0:0,0:0:0:0:
181,237,67104,2,0,L|296:213,1,107.999996704102,8|0,0:0|0:0,0:0:0:0:
40,271,67423,5,2,0:0:0:0:
124,166,67583,1,0,0:0:0:0:
228,253,67743,1,8,0:0:0:0:
121,142,67902,1,0,0:0:0:0:
43,254,68062,1,2,0:0:0:0:
147,317,68222,2,0,P|142:269|124:202,1,107.999996704102,2|8,0:0|0:0,0:0:0:0:
244,195,68541,1,0,0:0:0:0:
159,108,68700,5,2,0:0:0:0:
243,213,68860,1,0,0:0:0:0:
347,126,69020,1,8,0:0:0:0:
251,3,69179,2,0,B|200:137|298:81|230:244,1,215.999993408203,2|2,0:0|0:0,0:0:0:0:
331,177,69658,1,8,0:0:0:0:
159,164,69818,1,0,0:0:0:0:
280,334,69977,5,2,0:0:0:0:
251,235,70136,1,0,0:0:0:0:
78,283,70296,2,0,P|116:318|202:306,1,107.999996704102,8|0,0:0|0:0,0:0:0:0:
154,110,70615,2,0,P|104:125|72:205,1,107.999996704102,2|2,0:0|0:0,0:0:0:0:
260,265,70934,1,8,0:0:0:0:
260,265,71094,2,0,B|271:214|246:167|217:146,1,107.999996704102,0|2,0:0|0:0,0:0:0:0:
76,244,71413,6,0,L|202:223,1,107.999996704102,0|8,0:0|0:0,0:0:0:0:
311,327,71732,1,0,0:0:0:0:
196,337,71892,1,2,0:0:0:0:
302,214,72051,1,2,0:0:0:0:
474,270,72211,1,10,0:0:0:0:
447,273,72291,1,10,0:0:0:0:
421,268,72370,1,10,0:0:0:0:
399,252,72450,1,10,0:0:0:0:
384,232,72530,6,0,P|374:177|374:120,1,107.999996704102,6|0,0:0|0:0,0:0:0:0:
457,157,72849,1,8,0:0:0:0:
330,45,73009,1,0,0:0:0:0:
443,31,73168,1,2,0:0:0:0:
258,131,73328,2,0,P|208:146|154:140,1,107.999996704102,2|8,0:0|0:0,0:0:0:0:
56,52,73647,1,0,0:0:0:0:
116,217,73806,6,0,P|121:333|97:387,1,107.999996704102,2|0,0:0|0:0,0:0:0:0:
281,354,74126,2,0,P|276:238|300:184,1,107.999996704102,8|0,0:0|0:0,0:0:0:0:
457,171,74445,1,2,0:0:0:0:
339,299,74604,1,2,0:0:0:0:
325,180,74764,1,8,0:0:0:0:
459,287,74923,1,0,0:0:0:0:
352,147,75083,6,0,P|350:91|315:16,1,107.999996704102,2|0,0:0|0:0,0:0:0:0:
181,21,75402,1,8,0:0:0:0:
54,108,75562,1,0,0:0:0:0:
241,224,75721,6,0,P|267:174|274:92,1,107.999996704102,2|2,0:0|0:0,0:0:0:0:
155,29,76040,1,8,0:0:0:0:
22,87,76200,1,0,0:3:0:0:
165,235,76360,5,2,0:0:0:0:
131,131,76519,1,0,0:0:0:0:
36,290,76679,1,8,0:0:0:0:
61,191,76838,1,0,0:0:0:0:
163,318,76998,6,0,P|205:335|285:322,1,107.999996704102,2|2,0:0|0:0,0:0:0:0:
341,211,77317,2,0,P|299:194|219:207,1,107.999996704102,8|0,0:0|0:0,0:0:0:0:
355,288,77636,5,2,0:0:0:0:
475,189,77796,1,0,0:0:0:0:
352,95,77955,1,8,0:0:0:0:
498,191,78115,1,0,0:0:0:0:
354,296,78275,1,2,0:0:0:0:
284,200,78435,2,0,P|337:188|391:188,1,107.999996704102,2|8,0:0|0:0,0:0:0:0:
276,44,78753,1,0,0:0:0:0:
152,141,78913,5,2,0:0:0:0:
257,26,79072,1,0,0:0:0:0:
334,177,79232,1,8,0:0:0:0:
247,273,79392,2,0,B|284:148|203:180|257:31,1,215.999993408203,2|2,0:0|0:0,0:0:0:0:
340,120,79870,1,8,0:0:0:0:
171,225,80030,1,0,0:0:0:0:
381,215,80189,5,2,0:0:0:0:
304,324,80349,1,0,0:0:0:0:
240,201,80509,1,8,0:0:0:0:
433,149,80668,2,0,P|459:211|430:285,1,107.999996704102,0|2,0:0|0:0,0:0:0:0:
190,264,80987,2,0,P|164:202|193:128,1,107.999996704102,2|8,0:0|0:0,0:0:0:0:
292,61,81306,1,0,0:0:0:0:
328,218,81466,6,0,L|308:340,1,107.999996704102,2|0,0:0|0:0,0:0:0:0:
172,165,81785,2,0,L|150:46,1,107.999996704102,8|0,0:0|0:0,0:0:0:0:
260,92,82104,1,8,0:0:0:0:
312,77,82184,1,8,0:0:0:0:
363,60,82264,2,8,L|354:140,1,53.9999983520508,8|0,0:0|0:0,0:0:0:0:
288,216,82423,1,2,0:0:0:0:
236,231,82503,1,2,0:0:0:0:
184,246,82583,1,2,0:0:0:0:
132,264,82663,1,2,0:0:0:0:
80,281,82743,6,0,P|54:215|66:157,1,107.999996704102,6|0,0:0|0:0,0:0:0:0:
175,72,83062,2,0,P|143:155|95:168,1,107.999996704102,8|0,0:0|0:0,0:0:0:0:
34,40,83381,1,2,0:0:0:0:
252,28,83541,1,2,0:0:0:0:
14,36,83700,1,8,0:0:0:0:
113,238,83860,1,0,0:0:0:0:
160,90,84019,6,0,P|101:88|42:132,1,107.999996704102,2|0,0:0|0:0,0:0:0:0:
204,155,84338,2,0,P|263:157|322:113,1,107.999996704102,8|0,0:0|0:0,0:0:0:0:
449,32,84658,5,2,0:0:0:0:
453,174,84817,1,2,0:0:0:0:
435,64,84977,5,8,0:0:0:0:
411,207,85136,1,0,0:0:0:0:
409,89,85296,5,2,0:0:0:0:
360,226,85455,1,0,0:0:0:0:
375,101,85615,5,8,0:0:0:0:
306,227,85774,1,0,0:0:0:0:
178,41,85934,5,2,0:0:0:0:
298,136,86094,1,2,0:0:0:0:
144,205,86253,1,8,0:0:0:0:
326,137,86413,1,0,0:0:0:0:
72,45,86572,2,0,P|81:115|72:169,1,107.999996704102,2|0,0:0|0:0,0:0:0:0:
174,348,86892,2,0,P|162:295|161:222,1,107.999996704102,8|0,0:0|0:0,0:0:0:0:
315,193,87211,5,2,0:0:0:0:
264,315,87370,1,2,0:0:0:0:
360,179,87530,1,8,0:0:0:0:
162,135,87689,1,0,0:0:0:0:
397,163,87849,6,0,P|431:151|526:164,1,107.999996704102,2|0,0:0|0:0,0:0:0:0:
462,332,88168,2,0,P|428:344|333:331,1,107.999996704102,8|0,0:0|0:0,0:0:0:0:
257,172,88487,1,2,0:0:0:0:
410,251,88647,1,2,0:0:0:0:
234,146,88806,1,8,0:0:0:0:
221,348,88966,1,0,0:0:0:0:
339,216,89126,6,0,P|345:166|319:94,1,107.999996704102,2|0,0:0|0:0,0:0:0:0:
165,89,89445,2,0,P|149:140|155:193,1,107.999996704102,8|0,0:0|0:0,0:0:0:0:
294,244,89764,5,2,0:0:0:0:
378,254,89923,1,2,0:0:0:0:
242,261,90083,5,8,0:0:0:0:
356,282,90242,1,0,0:0:0:0:
191,278,90402,5,2,0:0:0:0:
334,311,90561,1,0,0:0:0:0:
140,295,90721,5,8,0:0:0:0:
312,339,90880,1,0,0:0:0:0:
229,129,91041,5,2,0:0:0:0:
451,146,91200,2,0,B|339:102|342:204|206:131,1,215.999993408203,2|2,0:0|0:0,0:0:0:0:
297,83,91679,2,0,P|316:36|303:-40,1,107.999996704102,2|0,0:0|0:0,0:0:0:0:
386,208,91998,2,0,P|367:255|380:331,1,107.999996704102,12|0,0:0|0:0,0:0:0:0:
241,268,92317,5,8,0:0:0:0:
189,250,92397,1,8,0:0:0:0:
134,252,92477,1,8,0:0:0:0:
86,275,92556,1,8,0:0:0:0:
60,322,92636,5,2,0:0:0:0:
77,270,92716,1,2,0:0:0:0:
65,217,92796,1,2,0:0:0:0:
17,191,92876,1,2,0:0:0:0:
69,199,92955,6,0,P|123:198|199:154,1,107.999996704102,6|0,0:0|0:0,0:0:0:0:
231,30,93275,2,0,P|232:84|276:160,1,107.999996704102,8|0,0:0|0:0,0:0:0:0:
389,193,93594,2,0,P|335:194|259:238,1,107.999996704102,6|0,0:0|0:0,0:0:0:0:
228,349,93913,2,0,P|227:295|183:219,1,107.999996704102,8|0,0:0|0:0,0:0:0:0:
35,249,94232,2,0,P|82:275|170:275,1,107.999996704102,6|0,0:0|0:0,0:0:0:0:
220,130,94551,2,0,P|173:157|129:233,1,107.999996704102,8|0,0:0|0:0,0:0:0:0:
305,328,94870,5,6,0:0:0:0:
443,285,95030,1,0,0:0:0:0:
321,296,95189,5,8,0:0:0:0:
430,196,95349,1,0,0:0:0:0:
323,260,95508,5,6,0:0:0:0:
378,124,95668,1,0,0:0:0:0:
311,227,95827,5,8,0:0:0:0:
299,83,95987,1,0,0:0:0:0:
106,241,96147,5,6,0:0:0:0:
228,167,96306,1,0,0:0:0:0:
65,61,96466,1,8,0:0:0:0:
261,158,96626,1,0,0:0:0:0:
161,343,96785,6,0,L|144:225,1,107.999996704102,6|0,0:0|0:0,0:0:0:0:
301,159,97104,2,0,L|292:278,1,107.999996704102,8|0,0:0|0:0,0:0:0:0:
200,151,97423,1,6,0:0:0:0:
313,38,97583,1,0,0:0:0:0:
428,120,97743,6,0,B|431:176|431:176|420:216|420:216|421:288,1,161.999995056153,8|0,0:0|0:0,0:0:0:0:
463,314,98062,2,0,P|400:295|351:311,1,107.999996704102,6|0,0:0|0:0,0:0:0:0:
213,336,98381,2,0,P|264:314|293:268,1,107.999996704102,8|0,0:0|0:0,0:0:0:0:
326,119,98700,5,6,0:0:0:0:
353,224,98860,1,0,0:0:0:0:
219,119,99019,1,8,0:0:0:0:
213,258,99179,1,0,0:0:0:0:
98,182,99338,1,6,0:0:0:0:
52,351,99498,6,0,P|38:322|47:230,1,107.999996704102,0|12,0:0|0:0,0:0:0:0:
138,53,99817,1,0,0:0:0:0:
269,201,99977,2,0,P|283:230|274:322,1,107.999996704102,12|0,0:0|0:0,0:0:0:0:
147,252,100296,1,12,0:0:0:0:
123,203,100376,1,8,0:0:0:0:
140,152,100455,1,8,0:0:0:0:
116,103,100535,1,8,0:0:0:0:
138,53,100615,5,12,0:0:0:0:
