osu file format v14

[General]
AudioFilename: audio.mp3
AudioLeadIn: 0
PreviewTime: -1
Countdown: 0
SampleSet: None
StackLeniency: 0.7
Mode: 0
LetterboxInBreaks: 0
WidescreenStoryboard: 1

[Editor]
Bookmarks: 21782,31675,41888,45080,62314,82739,89761,92952
DistanceSpacing: 2
BeatDivisor: 4
GridSize: 4
TimelineZoom: 1

[Metadata]
Title:Hachigatsu no Yoru
TitleUnicode:八月の夜
Artist:Silent Siren
ArtistUnicode:Silent Siren
Creator:Herbayse
Version:Insane
Source:
Tags:jpop Yoshida Sumire Umemura Hinako Yamauchi Aina Kurosaka Yukako 吉田菫 梅村妃奈子 山内あいな 黒坂優香子
BeatmapID:1154645
BeatmapSetID:544690

[Difficulty]
HPDrainRate:6
CircleSize:4
OverallDifficulty:8
ApproachRate:9
SliderMultiplier:1.6
SliderTickRate:1

[Events]
//Background and Video events
//Break Periods
//Storyboard Layer 0 (Background)
//Storyboard Layer 1 (Fail)
//Storyboard Layer 2 (Pass)
//Storyboard Layer 3 (Foreground)
//Storyboard Sound Samples

[TimingPoints]
-239,319.148936170213,4,1,0,100,1,0
718,-200,4,1,0,100,0,0
1037,-100,4,1,0,100,0,0
21782,-111.111111111111,4,1,0,100,0,0
31675,-100,4,1,0,100,0,0
59761,-200,4,1,0,100,0,0
62314,-200,4,1,0,100,0,0
62633,-90.9090909090909,4,1,0,100,0,1
82739,-100,4,1,0,100,0,0
92952,-90.9090909090909,4,1,0,100,0,0

[HitObjects]
373,124,718,6,0,P|382:156|370:196,1,60
355,215,1037,2,0,B|296:215|296:215|259:233|259:233|197:233,1,160
132,132,1516,1,0,0:0:0:0:
87,242,1675,2,0,P|83:288|87:340,1,80
201,352,1995,2,0,P|251:347|292:351,1,80
388,296,2314,6,0,P|422:218|383:138,1,160
312,66,2792,1,0,0:0:0:0:
223,147,2952,2,0,P|217:199|224:242,2,80
120,209,3431,1,0,0:0:0:0:
190,305,3590,6,0,B|212:317|246:308|246:308|277:315|277:315|316:308|350:315,1,160
437,234,4069,1,0,0:0:0:0:
361,140,4229,2,0,P|317:135|268:139,1,80
130,191,4548,2,0,P|174:196|223:192,1,80
359,250,4867,2,0,P|315:245|266:249,1,80
128,301,5186,2,0,P|172:306|221:302,1,80
291,167,5505,5,0,0:0:0:0:
348,316,5665,1,0,0:0:0:0:
398,164,5824,1,0,0:0:0:0:
270,260,5984,1,0,0:0:0:0:
429,260,6143,2,0,P|494:194|489:122,1,160
358,41,6622,1,0,0:0:0:0:
229,136,6782,2,0,P|233:213|292:264,1,160
147,332,7261,6,0,P|143:283|150:246,1,80
293,185,7580,2,0,P|297:234|290:271,1,80
186,142,7899,1,0,0:0:0:0:
338,94,8058,2,0,P|403:72|416:157,2,160
377,249,8856,5,0,0:0:0:0:
220,285,9016,2,0,P|215:242|219:189,1,80
338,94,9335,2,0,P|343:137|339:190,1,80
183,130,9654,2,0,P|226:125|279:129,1,80
374,248,9973,2,0,P|331:253|278:249,1,80
416,146,10292,1,0,0:0:0:0:
478,248,10452,1,0,0:0:0:0:
482,87,10612,2,0,L|437:69,1,40
284,78,10771,2,0,L|329:96,1,40
287,209,10931,5,0,0:0:0:0:
287,209,11011,1,0,0:0:0:0:
287,209,11090,1,0,0:0:0:0:
287,209,11170,1,0,0:0:0:0:
287,209,11250,2,0,P|210:238|135:217,1,160
24,142,11729,1,0,0:0:0:0:
35,261,11888,1,0,0:0:0:0:
131,133,12048,2,0,P|177:129|220:131,1,80
333,232,12367,2,0,P|287:236|244:234,1,80
368,122,12686,6,0,P|414:118|457:120,1,80
308,40,13005,1,0,0:0:0:0:
267,195,13165,2,0,P|314:264|385:244,2,160
141,95,13963,1,0,0:0:0:0:
134,254,14122,1,0,0:0:0:0:
237,131,14282,1,0,0:0:0:0:
237,131,14362,1,0,0:0:0:0:
237,131,14441,2,0,B|245:77|239:26,1,80
342,177,14761,2,0,B|334:231|340:282,1,80
192,324,15080,6,0,B|136:324|136:324|91:340|91:340|30:340,2,160
288,176,15878,1,0,0:0:0:0:
356,276,16037,1,0,0:0:0:0:
200,196,16197,1,0,0:0:0:0:
352,104,16356,2,0,P|277:81|213:125,1,160
356,200,16835,2,0,P|404:192|436:160,1,80
296,264,17154,2,0,P|335:292|380:292,1,80,0|0,0:3|0:3,0:3:0:0:
212,248,17473,1,0,0:0:0:0:
284,104,17633,6,0,B|336:104|336:104|376:120|376:120|444:120,1,160
304,204,18112,1,0,0:0:0:0:
132,136,18271,2,0,P|128:88|132:48,1,80
204,228,18590,2,0,P|208:276|204:316,1,80
304,180,18909,6,0,B|312:236|352:260|352:260|396:240|440:268,1,160
368,104,19388,1,0,0:0:0:0:
368,104,19468,1,0,0:0:0:0:
368,104,19548,2,0,P|316:96|276:104,1,80
144,172,19867,2,0,P|196:180|236:172,1,80
368,244,20186,5,0,0:0:0:0:
216,300,20346,1,0,0:0:0:0:
312,172,20505,1,0,0:0:0:0:
356,328,20665,1,0,0:0:0:0:
380,172,20824,1,0,0:0:0:0:
220,196,20984,1,0,0:0:0:0:
316,68,21143,1,0,0:0:0:0:
316,68,21223,1,0,0:0:0:0:
316,68,21303,1,0,0:0:0:0:
316,68,21383,1,0,0:0:0:0:
316,68,21463,6,0,B|272:56|232:64|232:64|208:92|160:96,1,160
48,176,21941,1,0,0:0:0:0:
168,252,22101,2,0,P|220:256|260:248,1,71.9999978027344
344,152,22420,2,0,P|292:156|252:148,1,71.9999978027344
388,240,22739,1,0,0:0:0:0:
436,144,22899,1,0,0:0:0:0:
456,288,23058,2,0,P|392:328|328:300,1,143.999995605469
252,212,23537,1,0,0:0:0:0:
176,308,23697,2,0,B|148:304|120:312|120:312|100:300|100:280,1,71.9999978027344
168,172,24016,6,0,P|236:120|304:136,1,143.999995605469
416,196,24495,1,0,0:0:0:0:
352,324,24654,2,0,P|300:256|316:188,1,143.999995605469
360,68,25133,1,0,0:0:0:0:
216,84,25292,5,0,0:0:0:0:
196,228,25452,1,0,0:0:0:0:
124,104,25612,1,0,0:0:0:0:
260,152,25771,1,0,0:0:0:0:
124,200,25931,2,0,B|112:240|128:276|128:276|168:296|172:344,1,143.999995605469
284,364,26409,1,0,0:0:0:0:
384,292,26569,2,0,P|392:248|384:208,1,71.9999978027344
292,144,26888,5,0,0:0:0:0:
376,76,27048,1,0,0:0:0:0:
232,68,27207,2,0,L|160:68,2,71.9999978027344
132,164,27686,5,0,0:0:0:0:
264,196,27846,2,0,B|320:272|320:272|352:248|356:208,1,143.999995605469
412,128,28324,1,0,0:0:0:0:
464,240,28484,2,0,P|468:280|464:320,1,71.9999978027344
324,336,28803,2,0,P|320:296|324:256,1,71.9999978027344
288,124,29122,6,0,P|220:152|144:132,1,143.999995605469
28,64,29601,1,0,0:0:0:0:
64,204,29761,2,0,P|68:256|64:292,1,71.9999978027344
208,296,30080,2,0,P|204:244|208:208,1,71.9999978027344
224,80,30399,1,0,0:0:0:0:
426,166,31037,6,0,L|423:202,1,35.9999989013672
414,310,31197,1,0,0:0:0:0:
484,107,31356,2,0,P|430:78|381:90,1,107.999996704102
328,140,31675,6,0,B|272:140|272:140|236:160|236:160|168:160,1,160
60,84,32154,1,0,0:0:0:0:
52,220,32314,2,0,P|52:276|60:316,1,80
55,299,32553,1,0,0:0:0:0:
55,299,32633,1,0,0:0:0:0:
172,232,32792,5,0,0:0:0:0:
300,328,32952,1,0,0:0:0:0:
276,168,33112,1,0,0:0:0:0:
396,272,33271,2,0,B|400:248|396:216|396:216|408:176|408:176|404:144|408:112,1,160
320,32,33750,1,0,0:0:0:0:
188,124,33909,2,0,L|196:224,1,80
320,304,34229,6,0,P|376:224|328:184,1,160
196,248,34707,1,0,0:0:0:0:
332,332,34867,2,0,P|400:296|432:216,1,160
