osu file format v14

[General]
AudioFilename: audio.mp3
AudioLeadIn: 0
PreviewTime: -1
Countdown: 0
SampleSet: Normal
StackLeniency: 0.7
Mode: 0
LetterboxInBreaks: 0
WidescreenStoryboard: 0

[Editor]
Bookmarks: 21782,31675,41888,45080,62314,82739,89761,92952
DistanceSpacing: 2.5
BeatDivisor: 4
GridSize: 4
TimelineZoom: 1

[Metadata]
Title:Hachigatsu no Yoru
TitleUnicode:八月の夜
Artist:Silent Siren
ArtistUnicode:Silent Siren
Creator:Herbayse
Version:Extra
Source:
Tags:jpop Yoshida Sumire Umemura Hinako Yamauchi Aina Kurosaka Yukako 吉田菫 梅村妃奈子 山内あいな 黒坂優香子
BeatmapID:1154237
BeatmapSetID:544690

[Difficulty]
HPDrainRate:7
CircleSize:4.2
OverallDifficulty:9
ApproachRate:9.3
SliderMultiplier:1.8
SliderTickRate:1

[Events]
//Background and Video events
//Break Periods
//Storyboard Layer 0 (Background)
//Storyboard Layer 1 (Fail)
//Storyboard Layer 2 (Pass)
//Storyboard Layer 3 (Foreground)
//Storyboard Sound Samples

[TimingPoints]
-239,319.148936170213,4,1,0,100,1,0
718,-200,4,1,0,100,0,0
1037,-100,4,1,0,100,0,0
59761,-200,4,1,0,100,0,0
62314,-200,4,1,0,100,0,0
62633,-90.9090909090909,4,1,0,100,0,1
82739,-100,4,1,0,100,0,0
92952,-90.9090909090909,4,1,0,100,0,0

[HitObjects]
352,152,718,6,0,P|348:192|360:228,1,67.5
352,248,1037,2,0,B|264:212|264:280|176:248,1,180
84,148,1516,1,0,0:0:0:0:
200,80,1675,2,0,P|256:72|308:84,1,90
384,172,1995,1,0,0:0:0:0:
352,40,2154,1,0,0:0:0:0:
300,212,2314,6,0,B|236:212|236:212|192:232|192:232|120:232,1,180
196,116,2792,1,0,0:0:0:0:
252,288,2952,2,0,P|296:296|352:288,1,90
416,128,3271,2,0,P|372:120|316:128,1,90
152,176,3590,6,0,P|124:264|152:352,1,180
40,264,4069,1,0,0:0:0:0:
220,264,4229,2,0,P|268:268|320:264,1,90
360,124,4548,2,0,P|312:120|260:124,1,90
420,220,4867,6,0,P|424:264|420:320,1,90
476,136,5186,1,0,0:0:0:0:
308,204,5346,1,0,0:0:0:0:
308,204,5425,1,0,0:0:0:0:
308,204,5505,2,0,P|264:208|216:204,1,90
376,296,5824,2,0,P|420:292|468:296,1,90
412,124,6143,6,0,B|340:117|340:117|307:130|307:130|227:123,1,180
344,200,6622,1,0,0:0:0:0:
264,40,6782,2,0,P|216:36|168:40,1,90
108,208,7101,2,0,P|156:212|204:208,1,90
372,168,7420,6,0,B|384:200|376:240|376:240|392:272|392:272|380:308|396:352,1,180
296,248,7899,1,0,0:0:0:0:
464,188,8058,2,0,P|468:140|464:92,1,90
288,56,8378,2,0,P|284:104|288:152,1,90
212,308,8697,6,0,P|156:244|188:140,1,180
296,208,9175,1,0,0:0:0:0:
400,120,9335,2,0,P|404:168|400:216,1,90
288,68,9654,2,0,P|243:64|198:67,1,90
112,224,9973,6,0,P|156:227|201:224,1,90
356,316,10292,2,0,P|311:312|266:315,1,90
320,140,10612,1,0,0:0:0:0:
364,132,10691,1,0,0:0:0:0:
408,140,10771,1,0,0:0:0:0:
268,252,10931,1,0,0:0:0:0:
228,272,11011,1,0,0:0:0:0:
184,280,11090,1,0,0:0:0:0:
140,272,11170,1,0,0:0:0:0:
108,240,11250,6,0,B|84:200|92:152|92:152|128:116|120:56,1,180
204,180,11729,2,0,P|248:184|296:180,1,90
420,136,12048,1,0,0:0:0:0:
372,308,12207,1,0,0:0:0:0:
324,136,12367,1,0,0:0:0:0:
252,300,12526,6,0,B|176:293|176:293|143:306|143:306|71:300,1,180
160,172,13005,1,0,0:0:0:0:
320,256,13165,2,0,P|324:300|320:352,1,90
432,204,13484,2,0,P|428:160|432:108,1,90
260,60,13803,6,0,P|168:40|80:60,1,180
216,140,14282,1,0,0:0:0:0:
72,192,14441,1,0,0:0:0:0:
252,220,14601,2,0,P|256:264|252:312,1,90
424,252,14920,5,0,0:0:0:0:
424,252,15000,1,0,0:0:0:0:
424,252,15080,2,0,B|436:216|424:176|424:176|432:144|432:144|420:108|432:68,1,180
312,172,15558,1,0,0:0:0:0:
228,64,15718,1,0,0:0:0:0:
188,240,15878,1,0,0:0:0:0:
188,240,15957,1,0,0:0:0:0:
188,240,16037,2,0,P|144:244|96:240,1,90
260,316,16356,6,0,P|304:320|352:316,1,90
268,188,16675,1,0,0:0:0:0:
380,116,16835,1,0,0:0:0:0:
208,56,16995,2,0,B|196:104|196:104|204:144,1,90
280,256,17314,2,0,P|324:252|372:256,1,90
196,204,17633,6,0,B|189:275|189:275|202:312|202:312|196:380,1,180
108,256,18112,1,0,0:0:0:0:
288,248,18271,2,0,P|292:200|288:152,1,90
160,116,18590,5,0,0:0:0:0:
268,20,18750,1,0,0:0:0:0:
88,36,18909,2,0,B|76:72|84:104|84:104|72:136|72:136|84:172|72:216,1,180
196,304,19388,2,0,P|200:256|196:208,1,90
296,96,19707,2,0,P|292:144|296:192,1,90
416,320,20026,5,0,0:0:0:0:
416,320,20106,1,0,0:0:0:0:
416,320,20186,2,0,P|420:272|416:224,1,90
280,160,20506,1,0,0:0:0:0:
348,276,20665,1,0,0:0:0:0:
328,96,20825,2,0,P|280:88|224:92,1,90
112,216,21143,1,0,0:0:0:0:
116,260,21222,1,0,0:0:0:0:
142,295,21302,5,0,0:0:0:0:
184,311,21382,1,0,0:0:0:0:
227,303,21463,2,0,P|276:296|328:304,1,90
400,192,21782,6,0,P|408:148|400:96,1,90
276,52,22101,2,0,P|224:56|180:52,1,90
116,192,22420,1,0,0:0:0:0:
64,68,22580,1,0,0:0:0:0:
224,152,22739,2,0,P|228:200|224:248,1,90
340,316,23058,6,0,P|428:296|432:200,1,180
348,96,23537,1,0,0:0:0:0:
272,208,23697,2,0,B|228:216|228:216|176:208,1,90
88,88,24016,1,0,0:0:0:0:
52,220,24175,1,0,0:0:0:0:
200,116,24335,2,0,B|208:72|208:72|200:20,1,90
288,184,24654,6,0,P|204:232|124:204,1,180
248,308,25133,1,0,0:0:0:0:
124,360,25292,1,0,0:0:0:0:
304,364,25452,2,0,P|328:312|304:252,1,90
216,136,25771,5,0,0:0:0:0:
216,136,25851,1,0,0:0:0:0:
216,136,25931,2,0,B|328:104|292:192|408:160,1,180
484,72,26409,1,0,0:0:0:0:
452,248,26569,2,0,P|408:256|356:248,1,90
304,372,26888,2,0,P|269:343|242:298,1,90
116,264,27207,6,0,B|136:228|172:216|172:216|176:188|176:188|220:172|236:128,1,180
188,60,27686,1,0,0:0:0:0:
324,180,27846,2,0,P|336:136|328:92,1,90
352,272,28165,2,0,P|383:303|425:319,1,90
264,252,28484,2,0,P|220:263|186:291,1,90
220,112,28803,5,0,0:0:0:0:
352,140,28963,1,0,0:0:0:0:
212,28,29122,2,0,P|136:96|172:184,1,180
264,268,29601,1,0,0:0:0:0:
132,296,29761,1,0,0:0:0:0:
244,156,29920,1,0,0:0:0:0:
244,156,30000,1,0,0:0:0:0:
244,156,30080,2,0,P|288:152|340:156,1,90
468,184,30399,1,0,0:0:0:0:
147,145,31037,6,0,L|151:193,1,45
164,328,31197,1,0,0:0:0:0:
224,112,31356,2,0,B|276:112|276:112|316:128|316:128|368:128,1,135
444,148,31675,6,0,P|448:244|448:244,1,90
340,320,31995,2,0,P|292:324|240:320,1,90
168,160,32314,1,0,0:0:0:0:
120,304,32473,1,0,0:0:0:0:
276,216,32633,2,0,B|284:172|284:172|276:112,1,90
278,127,32872,1,0,0:0:0:0:
278,127,32952,1,0,0:0:0:0:
376,244,33112,1,0,0:0:0:0:
344,68,33271,6,0,P|256:48|192:120,1,180
128,244,33750,1,0,0:0:0:0:
88,116,33909,1,0,0:0:0:0:
56,292,34069,1,0,0:0:0:0:
56,292,34149,1,0,0:0:0:0:
56,292,34229,2,0,P|116:328|208:268,1,180
272,140,34707,1,0,0:0:0:0:
272,140,34867,2,0,B|324:120|368:140|368:140|392:184|456:180,1,180
320,280,35346,5,0,0:0:0:0:
188,312,35505,2,0,P|184:264|188:212,1,90
324,112,35824,2,0,P|283:130|245:155,1,90
76,92,36143,2,0,P|115:119|162:142,1,90
280,256,36463,6,0,B|328:256|328:256|368:272|368:272|412:272,1,135
488,256,36782,2,0,P|496:204|484:152,1,90
372,68,37101,2,0,B|328:56|296:64|296:64|276:92|232:96,1,135
180,128,37420,2,0,P|172:180|184:232,1,90
320,328,37739,6,0,P|336:252|320:188,1,135
380,144,38058,2,0,B|424:132|424:132|472:140,1,90
300,68,38378,2,0,B|280:76|248:68|248:68|216:80|216:80|184:72|152:80,1,135
100,108,38697,2,0,P|96:152|100:200,1,90
216,268,39016,2,0,P|264:272|312:268,1,90
396,144,39335,6,0,P|348:140|300:144,1,90
400,264,39654,2,0,P|448:268|496:264,1,90
236,168,39973,1,0,0:0:0:0:
156,323,40133,1,0,0:0:0:0:
312,244,40292,5,0,0:0:0:0:
139,217,40452,1,0,0:0:0:0:
263,340,40612,2,0,P|312:344|360:340,1,90
452,248,40931,2,0,P|456:192|452:144,1,90
348,76,41250,5,0,0:0:0:0:
228,208,41409,1,0,0:0:0:0:
380,196,41569,1,0,0:0:0:0:
220,112,41729,1,0,0:0:0:0:
312,268,41888,5,0,0:0:0:0:
444,244,42048,2,0,P|448:200|444:152,1,90
388,324,42367,2,0,P|296:348|208:324,1,180
132,200,42846,1,0,0:0:0:0:
72,320,43005,1,0,0:0:0:0:
232,240,43165,1,0,0:0:0:0:
232,240,43324,6,0,P|236:184|232:136,1,90
328,248,43643,1,0,0:0:0:0:
464,128,43803,5,0,0:0:0:0:
375,8,43963,1,0,0:0:0:0:
348,178,44122,5,0,0:0:0:0:
304,33,44282,1,0,0:0:0:0:
220,185,44441,5,0,0:0:0:0:
229,34,44601,1,0,0:0:0:0:
101,151,44761,5,0,0:0:0:0:
160,11,44921,1,0,0:0:0:0:
148,236,45080,5,0,0:0:0:0:
236,112,45239,1,0,0:0:0:0:
276,288,45399,1,0,0:0:0:0:
164,148,45558,1,0,0:0:0:0:
184,328,45718,5,0,0:0:0:0:
296,192,45878,1,0,0:0:0:0:
320,368,46037,2,0,B|352:356|380:360|380:360|420:376|452:356|452:356|444:324|400:308,1,180
352,208,46516,1,0,0:0:0:0:
256,304,46675,2,0,P|208:308|160:304,1,90
220,132,46995,5,0,0:0:0:0:
220,132,47154,2,0,P|268:128|316:132,1,90
368,300,47473,2,0,B|368:232|368:232|384:196|384:196|384:112,1,180
276,40,47952,1,0,0:0:0:0:
180,132,48112,1,0,0:0:0:0:
180,132,48191,1,0,0:0:0:0:
180,132,48271,2,0,P|176:184|180:232,1,90
324,268,48590,2,0,P|328:216|324:168,1,90
308,64,48909,5,0,0:0:0:0:
448,5,49069,1,0,0:0:0:0:
328,140,49229,5,0,0:0:0:0:
479,132,49389,1,0,0:0:0:0:
324,220,49548,5,0,0:0:0:0:
468,264,49708,1,0,0:0:0:0:
292,292,49867,5,0,0:0:0:0:
412,382,50027,1,0,0:0:0:0:
240,176,50186,5,0,0:0:0:0:
152,336,50346,1,0,0:0:0:0:
96,164,50505,1,0,0:0:0:0:
220,296,50665,1,0,0:0:0:0:
188,120,50824,5,0,0:0:0:0:
84,268,50984,1,0,0:0:0:0:
248,200,51143,2,0,B|372:184|304:252|424:240,1,168.750006437302
452,96,51622,1,0,0:0:0:0:
452,96,51702,1,0,0:0:0:0:
452,96,51782,2,0,P|408:92|352:96,1,90
204,180,52101,5,0,0:0:0:0:
348,232,52261,1,0,0:0:0:0:
280,116,52420,1,0,0:0:0:0:
244,292,52580,2,0,B|200:292|200:292|164:308|164:308|112:308,1,135
72,292,52899,2,0,P|64:248|72:200,1,90
184,132,53218,5,0,0:0:0:0:
220,264,53378,1,0,0:0:0:0:
264,88,53537,1,0,0:0:0:0:
264,88,53617,1,0,0:0:0:0:
264,88,53697,2,0,P|312:84|364:88,1,90
464,256,54016,5,0,0:0:0:0:
375,376,54176,1,0,0:0:0:0:
348,206,54335,5,0,0:0:0:0:
304,351,54495,1,0,0:0:0:0:
220,199,54654,5,0,0:0:0:0:
229,350,54814,1,0,0:0:0:0:
101,233,54974,5,0,0:0:0:0:
160,373,55134,1,0,0:0:0:0:
148,132,55292,5,0,0:0:0:0:
236,292,55452,1,0,0:0:0:0:
308,124,55612,1,0,0:0:0:0:
172,240,55771,1,0,0:0:0:0:
232,72,55931,5,0,0:0:0:0:
308,236,56090,1,0,0:0:0:0:
376,68,56250,2,0,B|420:48|468:64|468:64|488:104|476:148,1,180
428,272,56729,1,0,0:0:0:0:
292,272,56888,2,0,B|248:276|212:312|212:312|180:276|128:268,1,180
56,108,57367,5,0,0:0:0:0:
196,164,57526,1,0,0:0:0:0:
76,228,57686,1,0,0:0:0:0:
172,76,57846,2,0,P|220:72|268:76,1,90
412,176,58165,2,0,P|364:180|316:176,1,90
232,76,58483,5,0,0:0:0:0:
124,256,58643,1,0,0:0:0:0:
315,174,58803,1,0,0:0:0:0:
113,126,58962,1,0,0:0:0:0:
250,285,59122,2,0,P|296:292|344:288,1,90
168,344,59441,2,0,P|122:337|74:341,1,90
184,188,59761,6,0,B|188:168|216:156|216:156|252:160|332:180|360:140|360:92|336:56|296:48|256:72|232:120|268:144|272:176|280:220|328:240|328:240|336:276|308:312,1,495
180,188,61675,5,0,0:0:0:0:
194,145,61754,1,0,0:0:0:0:
227,116,61834,1,0,0:0:0:0:
271,107,61914,1,0,0:0:0:0:
313,121,61994,1,0,0:0:0:0:
343,154,62073,1,0,0:0:0:0:
352,198,62153,1,0,0:0:0:0:
338,240,62233,1,0,0:0:0:0:
305,270,62314,2,0,P|260:288|224:280,1,67.5
168,268,62633,6,0,B|168:196|168:196|192:152|192:152|192:64,1,198.000006042481
264,228,63112,2,0,P|320:236|364:232,1,99.0000030212403
264,96,63431,1,0,0:0:0:0:
184,276,63590,1,0,0:0:0:0:
116,88,63750,1,0,0:0:0:0:
260,224,63909,5,0,0:0:0:0:
64,240,64069,1,0,0:0:0:0:
224,124,64229,1,0,0:0:0:0:
252,320,64388,2,0,P|304:324|360:320,1,99.0000030212403
190,196,64707,5,0,0:0:0:0:
62,376,64867,1,0,0:0:0:0:
44,161,65026,1,0,0:0:0:0:
198,319,65186,1,0,0:0:0:0:
207,99,65346,1,0,0:0:0:0:
53,253,65505,1,0,0:0:0:0:
49,33,65665,1,0,0:0:0:0:
194,196,65824,1,0,0:0:0:0:
330,29,65984,5,0,0:0:0:0:
278,240,66143,1,0,0:0:0:0:
146,64,66303,1,0,0:0:0:0:
344,161,66463,1,0,0:0:0:0:
154,271,66622,1,0,0:0:0:0:
242,68,66782,1,0,0:0:0:0:
300,280,66941,1,0,0:0:0:0:
172,128,67101,2,0,B|119:145|79:123|79:123|40:119|13:145|13:145|31:172|79:180,1,198.000006042481
228,260,67580,5,0,0:0:0:0:
316,140,67739,2,0,P|368:136|420:140,1,99.0000030212403
236,56,68058,1,0,0:0:0:0:
316,236,68218,2,0,P|368:232|420:236,1,99.0000030212403
244,336,68537,5,0,0:0:0:0:
156,216,68696,2,0,P|104:212|52:216,1,99.0000030212403
236,132,69015,1,0,0:0:0:0:
156,312,69175,2,0,P|104:308|52:312,1,99.0000030212403
252,260,69495,5,0,0:0:0:0:
252,260,69574,1,0,0:0:0:0:
252,260,69654,2,0,P|304:264|356:260,1,99.0000030212403
208,120,69973,2,0,P|156:116|104:120,1,99.0000030212403
296,180,70292,1,0,0:0:0:0:
240,40,70452,1,0,0:0:0:0:
400,160,70612,6,0,P|452:164|500:160,1,99.0000030212403
324,64,70931,1,0,0:0:0:0:
324,260,71090,2,0,P|272:264|224:260,1,99.0000030212403
88,208,71409,2,0,P|84:148|96:96,1,99.0000030212403
288,72,71729,1,0,0:0:0:0:
288,72,71808,1,0,0:0:0:0:
288,72,71888,2,0,P|292:124|288:180,1,99.0000030212403
264,316,72207,5,0,0:0:0:0:
310,298,72286,1,0,0:0:0:0:
359,292,72366,1,0,0:0:0:0:
408,297,72446,1,0,0:0:0:0:
454,313,72526,2,0,B|468:280|456:236|456:236|468:200|468:200|452:164|464:116,1,198.000006042481
312,44,73005,1,0,0:0:0:0:
276,208,73165,1,0,0:0:0:0:
396,120,73324,1,0,0:0:0:0:
196,120,73484,2,0,P|192:176|196:232,1,99.0000030212403
340,356,73803,5,0,0:0:0:0:
176,248,73963,1,0,0:0:0:0:
372,216,74122,1,0,0:0:0:0:
208,328,74282,1,0,0:0:0:0:
264,140,74441,1,0,0:0:0:0:
336,324,74601,2,0,P|388:328|440:324,1,99.0000030212403
405,126,74920,5,0,0:0:0:0:
168,258,75080,1,0,0:0:0:0:
323,61,75239,5,0,0:0:0:0:
249,321,75399,1,0,0:0:0:0:
219,73,75558,5,0,0:0:0:0:
352,310,75718,1,0,0:0:0:0:
155,154,75878,5,0,0:0:0:0:
416,228,76038,1,0,0:0:0:0:
168,258,76197,5,0,0:0:0:0:
278,59,76356,1,0,0:0:0:0:
322,284,76516,1,0,0:0:0:0:
181,104,76675,1,0,0:0:0:0:
405,152,76835,1,0,0:0:0:0:
225,293,76995,1,0,0:0:0:0:
264,68,77154,1,0,0:0:0:0:
356,280,77314,2,0,B|417:306|474:284|474:284|510:332|474:376,1,198.000006042481
284,124,77792,5,0,0:0:0:0:
196,244,77951,2,0,P|144:248|92:244,1,99.0000030212403
276,328,78270,1,0,0:0:0:0:
196,148,78430,2,0,P|144:152|92:148,1,99.0000030212403
268,48,78749,5,0,0:0:0:0:
356,168,78908,2,0,P|408:172|460:168,1,99.0000030212403
276,252,79227,1,0,0:0:0:0:
356,72,79387,2,0,P|408:76|460:72,1,99.0000030212403
260,152,79707,5,0,0:0:0:0:
260,152,79787,1,0,0:0:0:0:
260,152,79867,2,0,P|256:212|264:260,1,99.0000030212403
388,51,80186,1,0,0:0:0:0:
137,156,80346,1,0,0:0:0:0:
379,280,80505,1,0,0:0:0:0:
225,55,80665,1,0,0:0:0:0:
159,319,80824,5,0,0:0:0:0:
344,117,80984,1,0,0:0:0:0:
75,86,81143,1,0,0:0:0:0:
313,218,81303,1,0,0:0:0:0:
75,350,81463,5,0,0:0:0:0:
352,253,81622,1,0,0:0:0:0:
80,258,81782,5,0,0:0:0:0:
357,354,81941,1,0,0:0:0:0:
284,80,82101,2,0,L|278:139,1,49.5000015106202
267,263,82261,1,0,0:0:0:0:
364,72,82420,1,0,0:0:0:0:
344,27,82499,1,0,0:0:0:0:
303,1,82579,1,0,0:0:0:0:
254,4,82659,1,0,0:0:0:0:
217,35,82739,6,0,P|168:44|120:36,1,90
296,108,83058,2,0,P|345:117|393:109,1,90
216,176,83378,2,0,P|167:185|119:177,1,90
295,249,83697,2,0,P|344:258|392:250,1,90
216,176,84016,5,0,0:0:0:0:
312,328,84175,1,0,0:0:0:0:
320,148,84335,2,0,P|368:144|416:148,1,90
243,248,84654,5,0,0:0:0:0:
264,2,84814,1,0,0:0:0:0:
160,204,84973,5,0,0:0:0:0:
348,45,85133,1,0,0:0:0:0:
131,115,85292,5,0,0:0:0:0:
377,135,85452,1,0,0:0:0:0:
174,31,85612,5,0,0:0:0:0:
333,219,85772,1,0,0:0:0:0:
264,2,85931,5,0,0:0:0:0:
212,192,86090,1,0,0:0:0:0:
88,33,86250,1,0,0:0:0:0:
132,227,86409,1,0,0:0:0:0:
256,73,86569,1,0,0:0:0:0:
71,148,86729,1,0,0:0:0:0:
251,227,86888,2,0,B|295:222|326:240|326:240|370:244|396:222|396:222|388:196|344:178,1,180
448,288,87367,5,0,0:0:0:0:
472,112,87526,2,0,P|424:104|376:108,1,90
268,180,87846,2,0,P|216:184|156:180,1,90
72,96,88165,1,0,0:0:0:0:
116,272,88324,1,0,0:0:0:0:
184,104,88484,1,0,0:0:0:0:
52,228,88643,1,0,0:0:0:0:
232,200,88803,5,0,0:0:0:0:
76,108,88963,1,0,0:0:0:0:
116,272,89122,2,0,P|160:280|208:276,1,90
360,188,89441,2,0,P|316:180|268:184,1,90
264,33,89761,5,0,0:0:0:0:
242,278,89921,1,0,0:0:0:0:
348,76,90080,5,0,0:0:0:0:
159,234,90240,1,0,0:0:0:0:
375,166,90399,5,0,0:0:0:0:
130,144,90559,1,0,0:0:0:0:
333,250,90719,5,0,0:0:0:0:
174,61,90879,1,0,0:0:0:0:
242,278,91037,5,0,0:0:0:0:
339,104,91197,1,0,0:0:0:0:
401,293,91356,1,0,0:0:0:0:
264,152,91516,1,0,0:0:0:0:
458,192,91675,1,0,0:0:0:0:
304,319,91835,1,0,0:0:0:0:
366,77,91995,2,0,B|304:77|304:77|278:64|278:64|203:64,1,135
148,92,92314,6,0,L|148:140,1,45
148,248,92473,1,0,0:0:0:0:
190,263,92552,1,0,0:0:0:0:
234,260,92632,1,0,0:0:0:0:
275,242,92712,1,0,0:0:0:0:
317,226,92792,1,0,0:0:0:0:
362,224,92871,1,0,0:0:0:0:
406,235,92952,6,0,P|416:176|408:128,1,99.0000030212403
232,56,93271,2,0,P|222:115|230:163,1,99.0000030212403
304,336,93590,1,0,0:0:0:0:
168,236,93750,1,0,0:0:0:0:
336,256,93909,1,0,0:0:0:0:
152,332,94069,1,0,0:0:0:0:
152,332,94149,1,0,0:0:0:0:
152,332,94229,2,0,P|96:336|48:332,1,99.0000030212403
200,204,94548,2,0,P|256:200|304:204,1,99.0000030212403
380,60,94867,5,0,0:0:0:0:
280,308,95026,1,0,0:0:0:0:
264,36,95186,5,0,0:0:0:0:
392,276,95346,1,0,0:0:0:0:
384,52,95505,5,0,0:0:0:0:
288,304,95665,1,0,0:0:0:0:
252,36,95824,5,0,0:0:0:0:
400,264,95984,1,0,0:0:0:0:
400,56,96143,5,0,0:0:0:0:
280,300,96303,1,0,0:0:0:0:
264,40,96463,5,0,0:0:0:0:
392,264,96622,1,0,0:0:0:0:
203,118,96782,5,0,0:0:0:0:
452,185,96941,1,0,0:0:0:0:
216,216,97101,2,0,B|92:196|144:272|24:252,2,198.000006042481
360,252,97899,1,0,0:0:0:0:
360,252,97979,1,0,0:0:0:0:
360,252,98058,2,0,P|368:200|364:144,1,99.0000030212403
220,64,98378,5,0,0:0:0:0:
140,212,98537,1,0,0:0:0:0:
320,44,98697,5,0,0:0:0:0:
176,132,98856,1,0,0:0:0:0:
416,68,99016,5,0,0:0:0:0:
247,72,99175,1,0,0:0:0:0:
373,329,99335,5,0,0:0:0:0:
321,119,99495,1,0,0:0:0:0:
240,320,99654,1,0,0:0:0:0:
423,205,99814,1,0,0:0:0:0:
207,190,99973,6,0,L|203:239,1,49.5000015106202
196,364,100133,1,0,0:0:0:0:
238,379,100212,1,0,0:0:0:0:
282,376,100292,1,0,0:0:0:0:
323,358,100372,1,0,0:0:0:0:
365,342,100452,1,0,0:0:0:0:
410,340,100531,1,0,0:0:0:0:
454,351,100612,1,0,0:0:0:0:
256,192,100691,12,0,102367,0:0:0:0:
