osu file format v14

[General]
AudioFilename: audio.mp3
AudioLeadIn: 0
PreviewTime: -1
Countdown: 0
SampleSet: None
StackLeniency: 0.7
Mode: 0
LetterboxInBreaks: 0
WidescreenStoryboard: 1

[Editor]
Bookmarks: 21782,31675,41888,45080,62314,82739,89761,92952
DistanceSpacing: 1.5
BeatDivisor: 4
GridSize: 4
TimelineZoom: 1

[Metadata]
Title:Hachigatsu no Yoru
TitleUnicode:八月の夜
Artist:Silent Siren
ArtistUnicode:Silent Siren
Creator:Herbayse
Version:Easy
Source:
Tags:jpop Yoshida Sumire Umemura Hinako Yamauchi Aina Kurosaka Yukako 吉田菫 梅村妃奈子 山内あいな 黒坂優香子
BeatmapID:1154644
BeatmapSetID:544690

[Difficulty]
HPDrainRate:3
CircleSize:3
OverallDifficulty:3
ApproachRate:2
SliderMultiplier:0.799999999999999
SliderTickRate:1

[Events]
//Background and Video events
//Break Periods
2,82939,91392
//Storyboard Layer 0 (Background)
//Storyboard Layer 1 (Fail)
//Storyboard Layer 2 (Pass)
//Storyboard Layer 3 (Foreground)
//Storyboard Sound Samples

[TimingPoints]
-239,319.148936170213,4,1,0,100,1,0
718,-200,4,1,0,100,0,0
1037,-100,4,1,0,100,0,0
59761,-200,4,1,0,100,0,0
62314,-200,4,1,0,100,0,0
62633,-90.9090909090909,4,1,0,100,0,1
82739,-100,4,1,0,100,0,0
92952,-90.9090909090909,4,1,0,100,0,0

[HitObjects]
376,92,1037,6,0,P|400:196|228:232,1,320
156,92,2952,1,0,0:0:0:0:
112,244,3590,2,0,B|156:256|204:240|204:240|252:256|252:256|324:232|428:260,1,320
336,152,5505,1,0,0:0:0:0:
344,288,6143,2,0,P|212:188|252:52,1,320
350,210,8058,2,0,P|350:270|342:290,1,79.9999999999999
244,172,8697,2,0,P|296:104|372:100,1,160
208,264,9973,1,0,0:0:0:0:
208,264,10612,1,0,0:0:0:0:
208,264,11250,6,0,B|208:184|272:104|272:104|328:176|328:272|328:272|228:188,1,479.999999999999
144,120,13803,2,0,P|72:268|304:268,1,479.999999999999
332,84,16356,6,0,B|288:124|296:296|296:296|404:284|444:248|444:248|432:204|380:160,1,479.999999999999
192,96,18909,2,0,B|172:136|184:180|184:180|172:216|172:216|188:276|172:340,1,240
260,336,20186,2,0,P|268:284|260:240,1,79.9999999999999
359,144,20824,2,0,P|352:183|355:222,1,79.9999999999999
364,304,21463,1,0,0:0:0:0:
364,304,21782,6,0,P|237:331|128:277,2,240
396,188,24016,1,0,0:0:0:0:
282,76,24654,2,0,B|257:159|174:202|174:202|248:279|314:233,1,320
422,91,26569,2,0,B|406:173|460:239|460:239|395:295|406:388,1,320
310,255,28484,1,0,0:0:0:0:
178,345,29122,2,0,B|177:231|177:231|214:164|214:164|214:26,1,320
444,257,31675,6,0,P|363:276|284:251,1,160
198,124,32952,1,0,0:0:0:0:
341,54,33590,2,0,B|381:129|381:129|338:204|338:204,2,160
171,54,35505,2,0,B|131:129|131:129|174:204|174:204,2,160
256,188,37420,2,0,B|260:248|232:296|232:296|272:284|292:296,2,160
408,136,39335,6,0,P|432:176|436:224,1,79.9999999999999
316,116,39973,2,0,P|338:75|378:47,1,79.9999999999999
340,200,40612,2,0,P|293:200|249:180,1,79.9999999999999
144,164,41250,2,0,L|144:216,3,40
144,304,41888,2,0,B|172:312|200:304|200:304|228:312|244:332|244:332|276:340|300:332,1,160
444,204,43165,2,0,B|416:196|388:204|388:204|360:196|344:176|344:176|312:168|288:176,1,160
132,60,44441,6,0,B|112:104|132:140|132:140|172:160|172:208,1,160
380,324,45718,2,0,B|400:280|380:244|380:244|340:224|340:176,1,160
252,292,46995,1,0,0:0:0:0:
252,292,47314,1,0,0:0:0:0:
252,292,47633,1,0,0:0:0:0:
332,128,48271,5,0,0:0:0:0:
332,128,48590,1,0,0:0:0:0:
332,128,48909,2,0,B|272:136|228:124|228:124|240:168|220:192|220:192,1,160
348,300,50186,2,0,B|408:292|452:304|452:304|440:260|460:236|460:236,1,160
184,304,51463,5,0,0:0:0:0:
184,304,52101,2,0,B|144:288|100:300|100:300|64:256|88:208,1,160
256,132,53378,2,0,B|296:148|340:136|340:136|376:180|352:228,1,160
176,192,54654,6,0,P|160:148|168:96,1,79.9999999999999
270,219,55292,2,0,P|270:259|256:296,1,79.9999999999999
372,272,55931,5,0,0:0:0:0:
360,152,56250,1,0,0:0:0:0:
244,120,56569,1,0,0:0:0:0:
164,208,56888,2,0,B|128:236|128:236|60:236|60:236|24:204,2,160
252,128,58484,2,0,B|288:100|288:100|356:100|356:100|392:132,2,160
256,192,59920,12,0,61675,0:0:0:0:
248,76,62314,5,0,0:0:0:0:
248,76,62633,2,0,L|260:180,1,88.0000026855468
136,212,63271,2,0,L|124:316,1,88.0000026855468
252,344,63909,1,0,0:0:0:0:
252,344,64229,2,0,B|340:372|328:304|424:340,1,176.000005371094
392,212,65186,1,0,0:0:0:0:
392,212,65505,2,0,P|400:168|432:136,1,88.0000026855468
276,216,66143,2,0,P|260:173|272:130,1,88.0000026855468
172,220,66782,6,0,L|164:168,1,44.0000013427734
80,168,67101,2,0,L|92:272,1,88.0000026855468
212,308,67739,1,0,0:0:0:0:
340,336,68058,2,0,B|352:288|352:288|344:236,1,88.0000026855468
324,120,68697,1,0,0:0:0:0:
220,204,69016,2,0,B|176:212|176:212|128:200,1,88.0000026855468
336,244,69654,6,0,L|340:288,1,44.0000013427734
428,328,69973,2,0,L|420:236,1,88.0000026855468
324,128,70612,2,0,L|332:220,1,88.0000026855468
240,312,71250,1,0,0:0:0:0:
128,244,71569,1,0,0:0:0:0:
132,112,71888,1,0,0:0:0:0:
252,60,72207,6,0,L|260:116,1,44.0000013427734
272,220,72526,2,0,L|260:124,1,88.0000026855468
332,28,73165,2,0,L|344:124,1,88.0000026855468
352,248,73803,1,0,0:0:0:0:
244,172,74122,1,0,0:0:0:0:
172,280,74441,1,0,0:0:0:0:
280,356,74761,1,0,0:0:0:0:
352,248,75080,6,0,P|356:148|356:148,1,88.0000026855468
247,84,75718,2,0,P|243:184|243:184,1,88.0000026855468
232,304,76356,2,0,L|140:308,1,88.0000026855468
64,204,76995,2,0,L|156:200,1,88.0000026855468
284,192,77633,5,0,0:0:0:0:
284,192,77952,1,0,0:0:0:0:
396,260,78271,2,0,B|412:216|412:216|400:160,1,88.0000026855468
352,52,78909,1,0,0:0:0:0:
352,52,79229,2,0,B|308:68|308:68|256:60,1,88.0000026855468
148,120,79867,6,0,L|152:168,1,44.0000013427734
160,272,80186,2,0,L|152:176,1,88.0000026855468
64,88,80824,2,0,L|72:184,1,88.0000026855468
76,308,81463,1,0,0:0:0:0:
204,344,81782,1,0,0:0:0:0:
328,292,82101,1,0,0:0:0:0:
452,340,82420,2,0,L|460:236,1,88.0000026855468
404,296,92952,6,0,L|424:208,1,88.0000026855468
316,72,93590,2,0,L|336:160,1,88.0000026855468
232,300,94229,6,0,L|252:212,1,88.0000026855468
144,76,94867,2,0,L|164:164,1,88.0000026855468
212,284,95505,1,0,0:0:0:0:
280,172,95824,1,0,0:0:0:0:
344,288,96143,1,0,0:0:0:0:
412,176,96463,2,0,L|412:88,1,88.0000026855468
280,84,97101,2,0,L|280:172,1,88.0000026855468
268,304,97739,6,0,P|184:348|128:296,2,176.000005371094
280,172,99335,2,0,P|364:128|420:180,2,176.000005371094
256,192,100691,12,0,102367,0:0:0:0:
