osu file format v14

[General]
AudioFilename: audio.mp3
AudioLeadIn: 0
PreviewTime: 61946
Countdown: 0
SampleSet: Soft
StackLeniency: 0.6
Mode: 0
LetterboxInBreaks: 0
WidescreenStoryboard: 1

[Editor]
Bookmarks: 65525,82759
DistanceSpacing: 1
BeatDivisor: 4
GridSize: 32
TimelineZoom: 2.1

[Metadata]
Title:Hachigatsu no Yoru
TitleUnicode:八月の夜
Artist:Silent Siren
ArtistUnicode:Silent Siren
Creator:Elayue
Version:Insane
Source:
Tags:japanese pop Hinsvar Nelliel Zxcvbnmkl august night Yoshida Sumire Umemura Hinako Yamauchi Aina Kurosaka Yukako 吉田菫 梅村妃奈子 山内あいな 黒坂優香子 すぅ ひなんちゅ あいにゃん ゆかるん
BeatmapID:2494668
BeatmapSetID:1023912

[Difficulty]
HPDrainRate:6.2
CircleSize:3.7
OverallDifficulty:8
ApproachRate:9
SliderMultiplier:1.8
SliderTickRate:1

[Events]
//Background and Video events
0,0,"cool pic.jpg",0,0
//Break Periods
//Storyboard Layer 0 (Background)
//Storyboard Layer 1 (Fail)
//Storyboard Layer 2 (Pass)
//Storyboard Layer 3 (Foreground)
//Storyboard Layer 4 (Overlay)
//Storyboard Sound Samples

[TimingPoints]
989,319.148936170213,4,2,2,80,1,0
21414,-111.111111111111,4,2,2,65,0,0
30350,-133.333333333333,4,2,2,65,0,0
31627,-111.111111111111,4,2,2,75,0,0
36973,-111.111111111111,4,2,2,5,0,0
37052,-111.111111111111,4,2,2,75,0,0
37611,-111.111111111111,4,2,2,5,0,0
37691,-111.111111111111,4,2,2,75,0,0
37930,-111.111111111111,4,2,2,5,0,0
38010,-111.111111111111,4,2,2,75,0,0
38568,-111.111111111111,4,2,2,5,0,0
38648,-111.111111111111,4,2,2,75,0,0
38887,-111.111111111111,4,2,2,5,0,0
38967,-111.111111111111,4,2,2,75,0,0
40802,-111.111111111111,4,2,2,5,0,0
40882,-111.111111111111,4,2,2,75,0,0
41840,-117.647058823529,4,2,2,70,0,0
61627,-100,4,2,2,70,0,0
62584,-90.9090909090909,4,2,2,85,0,1
71361,-94.3396226415094,4,2,2,85,0,1
71680,-90.9090909090909,4,2,2,85,0,1
82691,-100,4,2,2,75,0,0
92903,-100,4,2,2,80,0,1
97930,-100,4,2,2,5,0,1
98010,-100,4,2,2,80,0,1
100563,-111.111111111111,4,2,2,35,0,0

[Colours]
Combo1 : 128,128,255
Combo2 : 128,255,255
Combo3 : 226,10,48
Combo4 : 255,128,255
SliderBorder : 255,255,255

[HitObjects]
34,223,989,6,0,P|73:202|129:219,1,90,14|0,0:1|0:0,0:0:0:0:
187,367,1308,2,0,P|195:324|206:261,1,90,8|0,0:0|0:0,0:0:0:0:
237,174,1627,1,8,0:1:0:0:
102,329,1787,1,8,0:1:0:0:
284,284,1947,2,0,P|249:265|184:304,1,90,8|0,0:0|0:0,0:0:0:0:
369,226,2266,6,0,P|361:177|354:124,1,90,10|0,0:1|0:0,0:0:0:0:
468,0,2585,2,0,P|461:44|454:88,1,90,8|0,0:0|0:0,0:0:0:0:
261,120,2904,1,10,0:1:0:0:
352,32,3064,1,8,0:1:0:0:
512,144,3224,2,0,P|476:176|423:162,1,90,10|0,0:0|0:0,0:0:0:0:
261,120,3542,6,0,P|217:118|187:151,1,90,10|0,0:1|0:0,0:0:0:0:
114,271,3861,2,0,P|106:223|99:183,1,90,8|0,0:0|0:0,0:0:0:0:
25,110,4180,1,8,0:1:0:0:
187,151,4340,1,8,0:1:0:0:
40,21,4500,2,0,P|32:67|24:109,1,90,8|0,0:0|0:0,0:0:0:0:
41,307,4819,6,0,P|82:305|115:237,1,90,10|0,0:1|0:0,0:0:0:0:
259,187,5138,2,0,P|230:153|186:150,1,90,8|0,0:0|0:0,0:0:0:0:
15,183,5457,1,8,0:1:0:0:
23,164,5617,1,8,0:1:0:0:
113,270,5776,1,8,0:0:0:0:
259,187,5936,1,0,0:0:0:0:
270,351,6096,6,0,P|225:353|178:355,1,90,10|0,0:1|0:0,0:0:0:0:
23,267,6415,2,0,P|70:269|115:271,1,90,8|0,0:0|0:0,0:0:0:0:
64,374,6734,1,8,0:1:0:0:
208,239,6894,1,8,0:1:0:0:
352,377,7052,2,0,P|385:351|361:276,1,90,8|0,0:0|0:0,0:0:0:0:
492,227,7372,6,0,P|487:270|481:316,1,90,10|0,0:1|0:0,0:0:0:0:
304,306,7691,2,0,P|298:261|293:216,1,90,8|0,0:0|0:0,0:0:0:0:
249,131,8010,1,10,0:1:0:0:
384,207,8170,1,8,0:1:0:0:
226,312,8330,2,0,P|267:328|307:298,1,90,10|0,0:0|0:0,0:0:0:0:
156,113,8649,6,0,P|146:157|136:200,1,90,10|0,0:1|0:0,0:0:0:0:
356,137,8968,2,0,P|345:93|336:49,1,90,8|2,0:0|0:0,0:0:0:0:
294,218,9287,1,8,0:1:0:0:
446,149,9447,1,8,0:1:0:0:
252,104,9607,2,0,P|209:115|189:154,1,90,8|0,0:0|0:0,0:0:0:0:
87,286,9925,6,0,P|94:241|100:197,1,90,10|0,0:1|0:0,0:0:0:0:
220,384,10244,2,0,P|212:338|206:295,1,90,8|2,0:2|0:0,0:0:0:0:
406,226,10564,1,8,0:2:0:0:
388,251,10643,1,8,0:1:0:0:
359,262,10723,1,8,0:1:0:0:
332,257,10803,1,8,0:1:0:0:
311,244,10883,2,0,P|316:217|325:181,3,45,8|8|8|8,0:0|0:1|0:1|0:1,0:0:0:0:
339,125,11202,6,0,P|382:114|426:105,1,90,6|0,0:0|0:0,0:0:0:0:
224,202,11521,2,0,P|182:192|136:182,1,90,8|0,0:0|0:0,0:0:0:0:
56,217,11840,1,8,0:1:0:0:
186,106,12000,1,8,0:1:0:0:
319,199,12159,2,0,P|348:169|322:112,1,90,8|0,0:0|0:0,0:0:0:0:
454,30,12479,6,0,P|443:74|430:151,1,90,10|0,0:1|0:0,0:0:0:0:
337,286,12798,2,0,P|328:241|318:198,1,90,8|0,0:0|0:0,0:0:0:0:
435,117,13117,1,10,0:1:0:0:
423,229,13277,1,8,0:1:0:0:
289,123,13435,2,0,P|249:140|234:182,1,90,10|0,0:0|0:0,0:0:0:0:
119,289,13755,6,0,P|161:276|222:264,1,90,10|0,0:1|0:0,0:0:0:0:
289,123,14074,2,0,P|246:111|185:98,1,90,8|0,0:0|0:0,0:0:0:0:
115,144,14393,1,8,0:1:0:0:
239,10,14553,1,8,0:1:0:0:
250,191,14713,2,0,P|280:174|280:108,1,90,8|0,0:0|0:0,0:0:0:0:
402,12,15032,6,0,L|387:100,1,90,10|0,0:1|0:0,0:0:0:0:
512,201,15351,2,0,L|496:112,1,90,8|0,0:0|0:0,0:0:0:0:
430,297,15670,1,8,0:1:0:0:
439,267,15830,1,8,0:1:0:0:
348,200,15989,1,8,0:0:0:0:
177,267,16149,1,0,0:0:0:0:
212,112,16309,6,0,P|239:162|208:201,1,90,10|0,0:1|0:0,0:0:0:0:
88,256,16628,2,0,P|135:262|179:268,1,90,8|0,0:0|0:0,0:0:0:0:
13,308,16947,1,8,0:1:0:0:
125,168,17107,1,8,0:1:0:0:
245,331,17266,2,0,P|291:324|336:318,1,90,8|0,0:0|0:0,0:0:0:0:
371,178,17585,6,0,P|402:208|401:252,1,90,10|0,0:1|0:0,0:0:0:0:
271,119,17904,2,0,P|270:75|302:44,1,90,8|0,0:0|0:0,0:0:0:0:
409,94,18223,1,10,0:1:0:0:
289,207,18383,1,8,0:1:0:0:
212,55,18543,2,0,P|262:50|311:43,1,90,8|0,0:0|0:0,0:0:0:0:
157,146,18861,6,0,P|115:174|61:142,1,90,10|0,0:1|0:0,0:0:0:0:
8,289,19181,2,0,L|96:273,1,90,8|0,0:0|0:0,0:0:0:0:
260,288,19500,1,8,0:1:0:0:
160,223,19660,1,8,0:1:0:0:
162,384,19818,2,0,P|190:348|157:291,1,90,8|2,0:0|0:0,0:0:0:0:
225,110,20138,6,0,L|249:212,1,90,8|0,0:1|0:0,0:0:0:0:
310,315,20457,2,0,L|329:228,1,90,8|0,0:0|0:0,0:0:0:0:
348,94,20776,1,8,0:1:0:0:
245,197,20936,1,8,0:1:0:0:
446,248,21096,1,8,0:0:0:0:
444,274,21176,1,8,0:0:0:0:
434,297,21254,1,8,0:0:0:0:
413,313,21335,1,8,0:0:0:0:
390,324,21415,6,0,P|346:319|296:312,1,80.9999975280763,4|0,0:0|0:1,0:0:0:0:
214,318,21734,1,10,0:2:0:0:
218,341,21893,1,2,0:0:0:0:
122,229,22053,2,0,P|126:269|131:309,1,80.9999975280763,10|8,0:1|0:1,0:0:0:0:
28,293,22372,1,10,0:2:0:0:
33,271,22532,1,2,0:0:0:0:
54,171,22691,6,0,P|41:138|-11:122,1,80.9999975280763,10|10,0:1|0:1,0:0:0:0:
74,50,23010,2,0,P|155:42|235:33,1,161.999995056153,10|8,0:2|0:1,0:0:0:0:
316,75,23489,1,8,0:1:0:0:
415,15,23649,2,0,P|411:55|405:95,1,80.9999975280763,10|2,0:2|0:0,0:0:0:0:
464,192,23968,6,0,P|431:148|333:168,1,161.999995056153,10|8,0:1|0:2,0:0:0:0:
382,276,24447,1,2,0:0:0:0:
219,279,24606,2,0,P|296:267|380:252,1,161.999995056153,10|8,0:1|0:2,0:0:0:0:
242,184,25085,1,2,0:0:0:0:
275,382,25244,6,0,P|307:352|292:291,1,80.9999975280763,10|10,0:1|0:1,0:0:0:0:
242,184,25564,1,10,0:2:0:0:
219,279,25723,1,2,0:0:0:0:
66,212,25883,2,0,P|108:211|166:208,1,80.9999975280763,10|8,0:1|0:1,0:0:0:0:
187,366,26202,2,0,P|145:365|87:362,1,80.9999975280763,10|2,0:2|0:0,0:0:0:0:
308,316,26521,6,0,P|336:284|328:236,1,80.9999975280763,10|8,0:1|0:1,0:0:0:0:
436,134,26840,2,0,P|429:174|426:214,1,80.9999975280763,10|0,0:2|0:0,0:0:0:0:
475,47,27159,2,0,P|421:110|340:80,1,161.999995056153,10|8,0:1|0:2,0:0:0:0:
271,52,27638,1,2,0:0:0:0:
319,176,27798,6,0,P|279:181|232:185,1,80.9999975280763,10|8,0:1|0:1,0:0:0:0:
191,44,28117,2,0,P|231:47|271:52,1,80.9999975280763,10|0,0:2|0:0,0:0:0:0:
152,122,28436,2,0,P|157:45|95:0,1,161.999995056153,10|8,0:1|0:2,0:0:0:0:
0,61,28915,1,2,0:0:0:0:
81,161,29074,6,0,P|88:80|94:0,1,161.999995056153,10|8,0:1|0:2,0:0:0:0:
265,25,29553,1,2,0:0:0:0:
184,65,29713,2,0,P|190:145|197:226,1,161.999995056153,10|8,0:1|0:2,0:0:0:0:
140,307,30191,1,2,0:0:0:0:
340,251,30351,6,0,P|299:247|251:240,1,67.5000025749208,2|0,0:0|0:0,0:0:0:0:
207,299,30670,2,0,P|173:303|140:307,1,67.5000025749208,2|0,0:0|0:0,0:0:0:0:
280,352,30989,1,2,0:0:0:0:
390,162,31149,5,10,0:1:0:0:
424,291,31308,1,10,0:2:0:0:
424,291,31627,6,0,P|453:250|446:208,1,80.9999975280763,14|0,0:1|0:0,0:0:0:0:
398,81,31947,2,0,P|395:120|387:188,1,80.9999975280763,10|0,0:2|0:0,0:0:0:0:
324,211,32266,6,0,P|297:178|305:138,1,80.9999975280763,10|0,0:1|0:0,0:0:0:0:
369,5,32585,1,8,0:2:0:0:
390,161,32744,1,2,0:0:0:0:
221,72,32904,2,0,P|267:65|317:58,1,80.9999975280763,10|2,0:1|0:0,0:0:0:0:
187,169,33223,2,0,P|146:163|106:157,1,80.9999975280763,8|0,0:2|0:0,0:0:0:0:
0,109,33542,5,8,0:1:0:0:
9,131,33702,1,0,0:0:0:0:
48,229,33861,1,8,0:2:0:0:
39,251,34021,1,2,0:0:0:0:
89,56,34181,6,0,P|93:95|97:136,1,80.9999975280763,10|0,0:1|0:0,0:0:0:0:
115,299,34500,1,8,0:2:0:0:
194,153,34659,1,2,0:0:0:0:
303,267,34819,2,0,P|278:227|232:224,1,80.9999975280763,10|0,0:1|0:0,0:0:0:0:
115,299,35138,2,0,P|159:291|197:285,1,80.9999975280763,8|2,0:2|0:0,0:0:0:0:
384,295,35457,5,10,0:1:0:0:
378,318,35617,1,0,0:0:0:0:
480,336,35776,2,0,P|476:294|470:240,1,80.9999975280763,10|0,0:2|0:0,0:0:0:0:
376,205,36095,2,0,P|380:163|386:109,1,80.9999975280763,10|0,0:1|0:0,0:0:0:0:
512,123,36415,2,0,P|501:160|444:169,1,80.9999975280763,10|0,0:2|0:0,0:0:0:0:
363,46,36734,6,0,B|319:54|319:54|316:61|316:61|224:75,1,121.499996292114,10|0,0:1|0:0,0:0:0:0:
241,82,37053,2,0,P|207:50|165:53,1,80.9999975280763,10|0,0:2|0:0,0:0:0:0:
182,260,37372,2,0,P|174:196|167:131,1,121.499996292114,10|0,0:1|0:0,0:0:0:0:
156,130,37691,2,0,P|94:149|54:106,1,121.499996292114,10|0,0:2|0:0,0:0:0:0:
64,102,38010,2,0,L|74:21,1,80.9999975280763,10|0,0:1|0:0,0:0:0:0:
0,232,38330,2,0,P|43:259|33:349,1,121.499996292114,10|0,0:2|0:0,0:0:0:0:
48,340,38648,2,0,B|111:330|111:330|120:334|120:334|182:327,1,121.499996292114,10|0,0:1|0:0,0:0:0:0:
181,339,38968,2,0,L|278:355,1,80.9999975280763,10|0,0:2|0:0,0:0:0:0:
312,283,39287,6,0,P|346:309|345:348,1,80.9999975280763,10|0,0:1|0:0,0:0:0:0:
397,234,39606,2,0,P|389:190|382:151,1,80.9999975280763,10|0,0:2|0:0,0:0:0:0:
416,64,39925,1,10,0:1:0:0:
438,75,40085,1,2,0:0:0:0:
491,143,40244,1,10,0:2:0:0:
470,153,40404,1,2,0:0:0:0:
316,105,40564,6,0,P|250:104|212:160,1,121.499996292114,10|0,0:1|0:0,0:0:0:0:
206,130,40883,2,0,L|106:119,1,80.9999975280763,10|0,0:2|0:0,0:0:0:0:
192,229,41202,1,10,0:1:0:0:
316,105,41361,1,8,0:2:0:0:
289,206,41521,1,8,0:2:0:0:
248,42,41681,1,8,0:2:0:0:
436,48,41840,5,12,0:1:0:0:
436,48,42000,2,0,P|433:88|428:150,1,76.5000014591217,8|0,0:1|0:0,0:0:0:0:
494,215,42319,2,0,P|453:174|356:201,1,153.000002918243,8|8,0:2|0:1,0:0:0:0:
323,260,42798,1,8,0:2:0:0:
310,125,43117,5,8,0:1:0:0:
310,125,43276,2,0,P|269:120|215:112,1,76.5000014591217,8|0,0:1|0:0,0:0:0:0:
19,76,43595,1,8,0:2:0:0:
138,167,43755,5,2,0:0:0:0:
146,145,43915,1,10,0:1:0:0:
102,45,44074,1,10,0:2:0:0:
110,67,44234,1,2,0:0:0:0:
55,188,44393,6,0,P|68:230|112:246,1,76.5000014591217,10|10,0:1|0:1,0:0:0:0:
165,302,44713,2,0,P|206:294|239:285,1,76.5000014591217,2|10,0:0|0:2,0:0:0:0:
313,327,45032,6,0,P|334:296|371:292,2,76.5000014591217,2|10|10,0:0|0:1|0:2,0:0:0:0:
376,376,45510,1,2,0:0:0:0:
301,146,45670,6,0,L|288:222,1,76.5000014591217,10|10,0:1|0:1,0:0:0:0:
242,285,45989,1,2,0:0:0:0:
128,139,46149,2,0,L|115:64,1,76.5000014591217,8|0,0:2|0:0,0:0:0:0:
170,219,46468,1,8,0:1:0:0:
257,75,46627,2,0,P|233:49|165:56,1,76.5000014591217,8|0,0:2|0:0,0:0:0:0:
45,160,46947,5,8,0:1:0:0:
45,160,47106,2,0,P|39:205|32:253,1,76.5000014591217,8|0,0:1|0:0,0:0:0:0:
2,84,47425,2,0,P|31:61|77:64,1,76.5000014591217,8|0,0:2|0:0,0:0:0:0:
205,145,47744,1,8,0:1:0:0:
146,3,47904,2,0,P|149:37|153:79,1,76.5000014591217,8|0,0:2|0:0,0:0:0:0:
173,238,48223,5,8,0:1:0:0:
281,152,48383,2,0,L|173:141,1,76.5000014591217,8|0,0:1|0:0,0:0:0:0:
353,216,48702,1,8,0:2:0:0:
411,118,48861,5,2,0:0:0:0:
405,140,49021,1,10,0:1:0:0:
281,152,49181,1,10,0:2:0:0:
275,130,49341,1,2,0:0:0:0:
324,0,49500,6,0,L|341:89,1,76.5000014591217,10|10,0:1|0:1,0:0:0:0:
260,205,49819,2,0,L|277:116,1,76.5000014591217,2|10,0:0|0:2,0:0:0:0:
326,264,50137,1,2,0:0:0:0:
326,264,50297,2,0,P|296:287|292:324,1,76.5000014591217,10|8,0:1|0:2,0:0:0:0:
409,249,50617,1,2,0:0:0:0:
382,376,50776,5,10,0:1:0:0:
363,365,50936,1,10,0:1:0:0:
326,264,51095,2,0,P|287:271|252:280,1,76.5000014591217,2|8,0:0|0:2,0:0:0:0:
175,344,51415,1,0,0:0:0:0:
179,321,51574,1,8,0:1:0:0:
89,227,51734,2,0,P|95:272|101:335,1,76.5000014591217,10|0,0:2|0:0,0:0:0:0:
34,370,52053,5,12,0:1:0:0:
89,227,52213,2,0,P|46:225|18:261,1,76.5000014591217,8|0,0:1|0:0,0:0:0:0:
139,154,52532,2,0,L|119:58,1,76.5000014591217,8|0,0:2|0:0,0:0:0:0:
63,11,52851,1,8,0:1:0:0:
207,75,53010,2,0,L|226:-21,1,76.5000014591217,8|0,0:2|0:0,0:0:0:0:
283,134,53330,5,8,0:1:0:0:
373,31,53489,2,0,L|272:51,1,76.5000014591217,8|0,0:1|0:0,0:0:0:0:
123,79,53808,1,8,0:2:0:0:
264,146,53968,5,2,0:0:0:0:
283,134,54127,1,10,0:1:0:0:
392,43,54287,1,10,0:2:0:0:
373,31,54446,1,2,0:0:0:0:
369,140,54606,6,0,P|412:134|450:127,1,76.5000014591217,10|10,0:1|0:1,0:0:0:0:
500,232,54925,2,0,P|462:225|424:220,1,76.5000014591217,2|10,0:0|0:2,0:0:0:0:
357,267,55244,2,0,P|381:295|418:297,2,76.5000014591217,2|10|10,0:0|0:1|0:2,0:0:0:0:
271,257,55723,1,2,0:0:0:0:
195,296,55883,6,0,L|120:280,1,76.5000014591217,10|10,0:1|0:1,0:0:0:0:
37,324,56202,1,2,0:0:0:0:
81,202,56361,2,0,L|-18:218,1,76.5000014591217,8|0,0:2|0:0,0:0:0:0:
120,280,56681,1,8,0:1:0:0:
144,129,56840,6,0,P|132:198|118:286,1,153.000002918243,10|8,0:2|0:1,0:0:0:0:
103,377,57319,1,10,0:1:0:0:
214,269,57478,1,2,0:0:0:0:
119,279,57638,1,10,0:2:0:0:
196,367,57798,1,2,0:0:0:0:
217,358,57957,1,10,0:1:0:0:
289,286,58117,2,0,L|200:265,1,76.5000014591217,10|2,0:2|0:0,0:0:0:0:
380,277,58436,5,10,0:1:0:0:
342,189,58595,2,0,L|244:202,1,76.5000014591217,10|0,0:1|0:0,0:0:0:0:
424,151,58915,2,0,P|372:200|388:288,1,153.000002918243,10|8,0:2|0:1,0:0:0:0:
289,286,59393,2,0,L|281:362,1,76.5000014591217,8|0,0:2|0:0,0:0:0:0:
451,341,59713,1,10,0:2:0:0:
306,161,61627,5,8,0:2:0:0:
325,126,61707,1,8,0:1:0:0:
315,88,61786,1,8,0:1:0:0:
282,64,61866,1,8,0:1:0:0:
241,65,61946,2,8,L|174:95,3,45,8|8|10|8,0:2|0:1|0:1|0:1,0:0:0:0:
181,79,62265,1,10,0:2:0:0:
181,79,62584,6,0,P|223:116|213:180,1,99.0000030212403,14|2,0:0|0:0,0:0:0:0:
135,273,62903,1,10,0:1:0:0:
29,168,63063,2,0,P|80:162|127:157,1,99.0000030212403,2|8,0:0|0:2,0:0:0:0:
238,261,63382,1,2,0:0:0:0:
340,86,63541,6,0,P|334:135|329:184,1,99.0000030212403,10|0,0:1|0:0,0:0:0:0:
248,359,63860,2,0,P|242:309|237:260,1,99.0000030212403,10|0,0:2|0:0,0:0:0:0:
340,86,64180,1,10,0:1:0:0:
412,227,64339,2,0,P|387:263|316:266,1,99.0000030212403,2|8,0:0|0:2,0:0:0:0:
174,188,64658,1,2,0:0:0:0:
102,287,64818,5,10,0:1:0:0:
95,258,64977,1,2,0:0:0:0:
12,131,65137,1,10,0:2:0:0:
2,158,65296,1,2,0:0:0:0:
0,321,65456,5,10,0:1:0:0:
174,188,65616,2,0,P|226:195|282:203,1,99.0000030212403,2|10,0:0|0:2,0:0:0:0:
363,222,65935,1,2,0:0:0:0:
306,42,66094,6,0,P|258:68|260:137,1,99.0000030212403,10|0,0:1|0:0,0:0:0:0:
286,308,66414,1,10,0:2:0:0:
371,123,66573,1,2,0:0:0:0:
466,266,66733,2,0,P|458:214|449:161,1,99.0000030212403,10|0,0:1|0:0,0:0:0:0:
475,355,67052,2,0,B|393:339|393:339|378:325|378:325|271:305,1,198.000006042481,10|8,0:2|0:1,0:0:0:0:
84,376,67531,5,2,0:0:0:0:
113,198,67690,2,0,P|120:251|128:320,1,99.0000030212403,10|0,0:2|0:0,0:0:0:0:
37,151,68009,1,10,0:1:0:0:
212,232,68169,2,0,P|219:179|227:110,1,99.0000030212403,2|8,0:0|0:2,0:0:0:0:
142,93,68488,1,2,0:0:0:0:
305,184,68648,6,0,P|340:152|339:104,1,99.0000030212403,10|0,0:1|0:0,0:0:0:0:
229,38,68967,1,10,0:2:0:0:
432,111,69126,2,0,P|426:54|421:6,2,99.0000030212403,2|8|0,0:0|0:1|0:0,0:0:0:0:
388,258,69605,1,8,0:2:0:0:
338,103,69765,1,2,0:0:0:0:
491,185,69924,5,10,0:1:0:0:
432,111,70084,1,2,0:0:0:0:
307,228,70243,2,0,P|258:237|202:248,1,99.0000030212403,10|0,0:2|0:0,0:0:0:0:
65,365,70563,2,0,P|114:374|170:385,1,99.0000030212403,10|0,0:1|0:0,0:0:0:0:
61,270,70882,1,10,0:2:0:0:
278,379,71041,6,0,P|326:354|330:282,1,99.0000030212403,2|8,0:0|0:1,0:0:0:0:
285,145,71361,2,0,P|282:199|343:238,1,95.4000001455689,2|8,0:0|0:2,0:0:0:0:
459,298,71680,1,2,0:0:0:0:
479,157,71839,2,0,P|428:162|380:168,1,99.0000030212403,10|0,0:1|0:0,0:0:0:0:
188,45,72158,1,8,0:2:0:0:
210,46,72238,1,8,0:1:0:0:
232,47,72318,1,8,0:1:0:0:
254,50,72398,1,8,0:1:0:0:
276,53,72477,6,0,P|324:57|374:62,1,99.0000030212403,14|0,0:2|0:0,0:0:0:0:
247,169,72797,1,10,0:2:0:0:
255,143,72956,1,2,0:0:0:0:
380,167,73116,1,10,0:1:0:0:
233,254,73275,2,0,P|180:235|168:177,1,99.0000030212403,2|8,0:0|0:2,0:0:0:0:
232,47,73594,1,2,0:0:0:0:
75,101,73754,6,0,P|70:152|65:221,1,99.0000030212403,10|0,0:1|0:0,0:0:0:0:
32,317,74073,1,10,0:2:0:0:
25,287,74233,1,2,0:0:0:0:
167,200,74392,1,10,0:1:0:0:
117,365,74552,2,0,P|165:355|214:347,1,99.0000030212403,2|8,0:0|0:2,0:0:0:0:
301,384,74871,1,2,0:0:0:0:
239,249,75031,5,10,0:1:0:0:
412,319,75190,2,0,P|363:306|312:294,1,99.0000030212403,2|8,0:0|0:2,0:0:0:0:
214,347,75509,1,2,0:0:0:0:
319,209,75669,2,0,P|274:211|235:260,1,99.0000030212403,10|0,0:1|0:0,0:0:0:0:
412,319,75988,1,10,0:2:0:0:
214,347,76148,1,2,0:0:0:0:
318,208,76307,6,0,P|325:159|332:110,1,99.0000030212403,10|0,0:1|0:0,0:0:0:0:
238,248,76626,1,10,0:2:0:0:
412,319,76786,1,2,0:0:0:0:
332,110,76946,2,0,L|235:130,1,99.0000030212403,10|0,0:1|0:0,0:0:0:0:
43,215,77265,2,8,B|131:228|131:228|145:235|145:235|239:248,1,198.000006042481,10|8,0:2|0:1,0:0:0:0:
433,222,77743,5,2,0:0:0:0:
344,0,77903,2,0,P|350:47|357:99,1,99.0000030212403,10|0,0:2|0:0,0:0:0:0:
318,207,78222,1,10,0:1:0:0:
446,124,78382,2,0,P|439:177|433:223,1,99.0000030212403,2|8,0:0|0:2,0:0:0:0:
414,303,78701,5,2,0:0:0:0:
253,315,78860,2,0,P|283:277|332:273,1,99.0000030212403,10|0,0:1|0:0,0:0:0:0:
331,376,79180,1,10,0:2:0:0:
162,301,79339,2,0,P|113:309|52:319,2,99.0000030212403,2|8|0,0:0|0:1|0:0,0:0:0:0:
332,273,79818,1,8,0:2:0:0:
204,222,79977,5,2,0:0:0:0:
244,344,80137,1,10,0:1:0:0:
253,315,80297,1,2,0:0:0:0:
411,315,80456,1,10,0:2:0:0:
318,174,80616,2,0,P|323:218|335:301,1,99.0000030212403,2|8,0:0|0:1,0:0:0:0:
494,376,80935,2,0,P|500:328|507:277,1,99.0000030212403,2|8,0:0|0:2,0:0:0:0:
475,174,81254,1,0,0:0:0:0:
331,272,81414,6,0,B|279:265|279:265|274:261|274:261|234:255,1,99.0000030212403,10|0,0:1|0:0,0:0:0:0:
116,129,81733,2,0,P|139:164|193:169,1,99.0000030212403,14|0,0:2|0:0,0:0:0:0:
272,103,82052,5,10,0:2:0:0:
272,103,82132,1,8,0:1:0:0:
272,103,82212,2,0,L|278:164,1,49.5000015106202,8|8,0:1|0:1,0:0:0:0:
331,272,82371,1,10,0:2:0:0:
331,272,82451,1,8,0:1:0:0:
331,272,82531,2,0,L|337:211,1,49.5000015106202,8|8,0:1|0:1,0:0:0:0:
190,301,82691,6,0,P|233:247|337:282,1,180,14|8,0:2|0:2,0:0:0:0:
411,208,83169,1,0,0:0:0:0:
411,208,83329,2,0,P|458:216|521:224,1,90,8|0,0:1|0:0,0:0:0:0:
458,359,83648,2,0,P|412:365|348:375,1,90,8|0,0:2|0:0,0:0:0:0:
254,174,83967,2,0,B|250:238|245:295|245:295|290:341,1,180,8|8,0:1|0:2,0:0:0:0:
368,371,84446,1,0,0:0:0:0:
123,290,84605,6,0,P|160:258|203:268,1,90,10|2,0:1|0:0,0:0:0:0:
225,343,84924,2,0,P|187:374|144:364,1,90,10|2,0:2|0:0,0:0:0:0:
28,299,85243,2,0,P|36:252|48:195,1,90,10|2,0:1|0:0,0:0:0:0:
132,137,85563,2,0,P|140:182|152:241,1,90,10|2,0:2|0:0,0:0:0:0:
253,258,85882,2,0,P|296:236|340:252,2,90,10|2|10,0:1|0:0|0:2,0:0:0:0:
226,343,86360,1,2,0:0:0:0:
389,348,86520,5,10,0:1:0:0:
394,322,86680,1,2,0:0:0:0:
489,236,86839,2,0,P|497:287|506:354,1,90,10|0,0:2|0:0,0:0:0:0:
333,247,87158,2,0,P|341:196|350:129,1,90,8|0,0:1|0:0,0:0:0:0:
499,104,87477,2,0,P|453:94|415:127,1,90,8|0,0:2|0:0,0:0:0:0:
261,198,87797,6,0,B|184:184|184:184|169:188|169:188|64:169,1,180,8|8,0:1|0:2,0:0:0:0:
173,102,88275,1,0,0:0:0:0:
230,277,88435,2,0,P|272:287|309:264,1,90,8|0,0:1|0:0,0:0:0:0:
455,342,88754,2,0,P|412:338|365:334,1,90,8|0,0:2|0:0,0:0:0:0:
352,195,89073,6,0,P|341:286|330:381,1,180,8|8,0:1|0:2,0:0:0:0:
439,245,89552,1,0,0:0:0:0:
271,180,89712,2,0,P|262:133|247:58,1,90,10|2,0:1|0:0,0:0:0:0:
159,38,90031,2,0,P|149:84|135:160,1,90,10|2,0:2|0:0,0:0:0:0:
106,241,90350,2,0,P|169:235|194:183,1,90,10|2,0:1|0:0,0:0:0:0:
253,91,90669,2,0,P|296:87|331:114,1,90,10|2,0:2|0:0,0:0:0:0:
411,233,90988,2,0,L|421:128,2,90,10|2|8,0:1|0:0|0:2,0:0:0:0:
291,193,91467,1,2,0:0:0:0:
343,305,91626,5,10,0:1:0:0:
332,280,91786,1,2,0:0:0:0:
469,334,91946,2,0,P|447:363|379:362,1,90,14|0,0:2|0:0,0:0:0:0:
247,352,92265,1,8,0:2:0:0:
247,352,92344,1,8,0:1:0:0:
247,352,92424,2,0,L|259:297,1,45,8|8,0:1|0:1,0:0:0:0:
151,266,92584,1,10,0:2:0:0:
151,266,92663,1,8,0:1:0:0:
151,266,92744,2,0,L|163:321,1,45,8|8,0:1|0:1,0:0:0:0:
292,219,92903,6,0,P|222:286|132:244,1,180,12|8,0:2|0:2,0:0:0:0:
89,199,93382,1,0,0:0:0:0:
110,339,93541,2,0,P|66:344|-1:351,1,90,8|0,0:1|0:0,0:0:0:0:
0,189,93860,2,0,P|44:194|111:201,1,90,8|0,0:2|0:0,0:0:0:0:
219,224,94180,6,0,P|175:230|149:265,1,90,8|0,0:1|0:0,0:0:0:0:
275,364,94499,2,0,P|280:316|287:273,1,90,8|0,0:2|0:0,0:0:0:0:
454,309,94818,6,0,L|363:332,1,90,10|2,0:1|0:0,0:0:0:0:
308,193,95137,2,0,L|399:216,1,90,10|2,0:2|0:0,0:0:0:0:
512,128,95456,2,0,P|483:84|436:83,1,90,10|2,0:1|0:0,0:0:0:0:
308,193,95775,2,0,P|350:182|371:143,1,90,10|2,0:2|0:0,0:0:0:0:
225,48,96094,6,0,L|241:169,2,90,10|2|10,0:1|0:0|0:2,0:0:0:0:
308,193,96574,1,2,0:0:0:0:
137,112,96733,1,10,0:1:0:0:
133,138,96892,1,2,0:0:0:0:
196,12,97053,2,0,P|151:18|106:23,1,90,10|0,0:2|0:0,0:0:0:0:
54,211,97371,2,0,P|99:216|144:223,1,90,8|0,0:1|0:0,0:0:0:0:
325,245,97690,6,0,P|252:238|217:299,1,135,10|0,0:2|0:0,0:0:0:0:
234,295,98009,2,0,L|250:401,1,90,12|2,0:1|0:0,0:0:0:0:
337,222,98329,1,10,0:2:0:0:
325,245,98488,1,2,0:0:0:0:
423,329,98648,2,0,P|380:335|334:342,1,90,10|2,0:1|0:0,0:0:0:0:
234,295,98967,1,10,0:2:0:0:
424,223,99126,1,2,0:0:0:0:
424,223,99286,6,0,P|415:169|380:151,2,90,10|2|12,0:1|0:0|0:2,0:0:0:0:
482,121,99765,2,0,L|472:76,1,45,2|0,0:0|0:0,0:0:0:0:
308,47,99924,1,8,0:2:0:0:
305,73,100004,1,8,0:1:0:0:
302,101,100084,1,8,0:1:0:0:
298,129,100164,1,8,0:1:0:0:
295,157,100244,2,0,L|289:211,3,45,8|8|8|8,0:2|0:1|0:1|0:1,0:0:0:0:
272,219,100563,6,0,P|231:224|175:233,2,80.9999975280763,10|2|2,0:1|0:0|0:0,0:0:0:0:
241,345,101041,2,0,P|282:350|338:359,2,80.9999975280763,2|2|2,0:0|0:0|0:0,0:0:0:0:
338,275,101520,2,0,P|378:283|397:324,1,80.9999975280763,2|2,0:0|0:0,0:0:0:0:
489,245,101839,1,2,0:0:0:0:
512,199,101999,1,2,0:0:0:0:
465,175,102158,1,2,0:0:0:0:
442,222,102318,1,2,0:0:0:0:
