osu file format v14

[General]
AudioFilename: audio.mp3
AudioLeadIn: 0
PreviewTime: 61946
Countdown: 0
SampleSet: Soft
StackLeniency: 0.7
Mode: 0
LetterboxInBreaks: 0
WidescreenStoryboard: 1

[Editor]
Bookmarks: 63610,65525,82759,98078
DistanceSpacing: 1
BeatDivisor: 4
GridSize: 32
TimelineZoom: 2.1

[Metadata]
Title:Hachigatsu no Yoru
TitleUnicode:八月の夜
Artist:Silent Siren
ArtistUnicode:Silent Siren
Creator:Elayue
Version:Hard
Source:
Tags:japanese pop Hinsvar Nelliel Zxcvbnmkl august night Yoshida Sumire Umemura Hinako Yamauchi Aina Kurosaka Yukako 吉田菫 梅村妃奈子 山内あいな 黒坂優香子 すぅ ひなんちゅ あいにゃん ゆかるん
BeatmapID:2494661
BeatmapSetID:1023912

[Difficulty]
HPDrainRate:5
CircleSize:3.6
OverallDifficulty:7
ApproachRate:8
SliderMultiplier:1.4
SliderTickRate:1

[Events]
//Background and Video events
0,0,"cool pic.jpg",0,0
//Break Periods
//Storyboard Layer 0 (Background)
//Storyboard Layer 1 (Fail)
//Storyboard Layer 2 (Pass)
//Storyboard Layer 3 (Foreground)
//Storyboard Layer 4 (Overlay)
//Storyboard Sound Samples

[TimingPoints]
989,319.148936170213,4,2,2,80,1,0
21733,-111.111111111111,4,2,2,65,0,0
31627,-111.111111111111,4,2,2,75,0,0
41840,-111.111111111111,4,2,2,70,0,0
61627,-100,4,2,2,70,0,0
62425,-100,4,2,2,65,0,0
62584,-100,4,2,2,85,0,1
82691,-100,4,2,2,75,0,0
92903,-100,4,2,2,80,0,1
97930,-100,4,2,2,5,0,1
98010,-100,4,2,2,80,0,1
100563,-111.111111111111,4,2,2,35,0,0

[Colours]
Combo1 : 128,128,255
Combo2 : 128,255,255
Combo3 : 226,10,48
Combo4 : 255,128,255
SliderBorder : 255,255,255

[HitObjects]
52,201,989,6,0,P|74:133|155:152,1,140,14|8,0:1|0:0,0:0:0:0:
220,168,1468,1,0,0:0:0:0:
220,168,1627,2,0,P|253:159|303:149,1,70,8|8,0:1|0:1,0:0:0:0:
357,105,1947,2,0,P|393:113|408:147,1,70,8|0,0:0|0:0,0:0:0:0:
475,192,2266,6,0,P|468:263|456:344,1,140,10|8,0:1|0:0,0:0:0:0:
376,317,2744,1,0,0:0:0:0:
323,383,2904,2,0,P|289:375|266:323,1,70,10|8,0:1|0:1,0:0:0:0:
223,281,3223,2,0,L|232:184,1,70,10|0,0:0|0:0,0:0:0:0:
207,125,3542,6,0,P|256:181|337:151,1,140,10|8,0:1|0:0,0:0:0:0:
400,112,4021,1,0,0:0:0:0:
400,112,4181,2,0,P|404:144|405:181,1,70,8|8,0:1|0:1,0:0:0:0:
370,263,4500,2,0,P|365:297|364:332,1,70,8|0,0:0|0:0,0:0:0:0:
286,376,4819,2,0,B|225:370|225:370|210:377|210:377|143:368,1,140,10|8,0:1|0:0,0:0:0:0:
85,314,5298,1,0,0:0:0:0:
85,314,5457,2,0,P|52:320|27:364,1,70,8|8,0:1|0:1,0:0:0:0:
0,250,5776,2,0,L|9:170,1,70,8|0,0:0|0:0,0:0:0:0:
51,111,6095,6,0,B|83:69|83:69|193:84,1,140,10|8,0:1|0:0,0:0:0:0:
256,114,6574,1,0,0:0:0:0:
256,114,6734,2,0,P|260:159|265:199,1,70,8|8,0:1|0:1,0:0:0:0:
199,236,7053,2,0,P|195:270|191:305,1,70,8|0,0:0|0:0,0:0:0:0:
253,359,7372,6,0,P|332:340|347:280,1,140,10|8,0:1|0:0,0:0:0:0:
415,250,7851,1,0,0:0:0:0:
499,274,8010,2,0,P|492:235|487:199,1,70,10|8,0:1|0:1,0:0:0:0:
417,157,8330,2,0,P|424:118|429:82,1,70,10|0,0:0|0:0,0:0:0:0:
485,0,8649,6,0,L|326:22,1,140,10|8,0:1|0:0,0:0:0:0:
274,77,9127,1,2,0:0:0:0:
274,77,9287,2,0,P|247:53|205:52,1,70,8|8,0:1|0:1,0:0:0:0:
149,114,9606,2,0,P|152:151|157:186,1,70,8|0,0:0|0:0,0:0:0:0:
122,267,9925,6,0,P|197:211|259:239,1,140,10|8,0:1|0:2,0:0:0:0:
298,274,10404,1,2,0:0:0:0:
361,219,10564,2,0,L|422:209,3,35,8|8|8|8,0:2|0:1|0:1|0:1,0:0:0:0:
422,194,10883,2,0,L|483:204,3,35,8|8|8|8,0:0|0:1|0:1|0:1,0:0:0:0:
490,218,11202,6,0,B|484:152|484:152|475:140|475:140|468:65,1,140,6|8,0:0|0:0,0:0:0:0:
386,51,11681,1,0,0:0:0:0:
386,51,11840,2,0,P|351:59|301:70,1,70,8|8,0:1|0:1,0:0:0:0:
242,111,12159,2,0,P|202:101|157:92,1,70,8|0,0:0|0:0,0:0:0:0:
126,28,12478,6,0,L|143:173,1,140,10|8,0:1|0:0,0:0:0:0:
106,244,12957,1,0,0:0:0:0:
163,314,13117,2,0,P|199:302|239:290,1,70,10|8,0:1|0:1,0:0:0:0:
302,239,13436,2,0,P|337:249|378:263,1,70,10|0,0:0|0:0,0:0:0:0:
437,310,13755,6,0,P|405:284|421:182,1,140,10|8,0:1|0:0,0:0:0:0:
403,102,14234,1,0,0:0:0:0:
403,102,14393,2,0,L|314:123,1,70,8|8,0:1|0:1,0:0:0:0:
249,141,14713,2,0,L|160:120,1,70,8|0,0:0|0:0,0:0:0:0:
93,63,15032,6,0,B|100:124|100:124|94:138|94:138|101:206,1,140,10|8,0:1|0:0,0:0:0:0:
77,296,15510,1,0,0:0:0:0:
77,296,15670,2,0,P|114:293|154:254,1,70,8|8,0:1|0:1,0:0:0:0:
221,263,15989,2,0,P|258:266|298:305,1,70,8|0,0:0|0:0,0:0:0:0:
350,341,16308,6,0,B|327:376|327:376|206:361,1,140,10|8,0:1|0:0,0:0:0:0:
150,328,16787,1,0,0:0:0:0:
150,328,16947,2,0,P|140:288|134:259,1,70,8|8,0:1|0:1,0:0:0:0:
77,200,17266,2,0,P|86:162|92:131,1,70,8|0,0:0|0:0,0:0:0:0:
59,49,17585,6,0,P|88:93|192:77,1,140,10|8,0:1|0:0,0:0:0:0:
247,44,18064,1,0,0:0:0:0:
328,87,18223,2,0,L|338:156,1,70,10|8,0:1|0:1,0:0:0:0:
272,214,18542,2,0,L|261:283,1,70,8|0,0:0|0:0,0:0:0:0:
320,357,18861,6,0,P|250:362|161:370,1,140,10|8,0:1|0:0,0:0:0:0:
121,294,19340,1,0,0:0:0:0:
44,348,19500,1,8,0:1:0:0:
53,366,19659,1,8,0:1:0:0:
121,294,19819,2,0,L|131:212,1,70,8|2,0:0|0:0,0:0:0:0:
87,145,20138,6,0,P|114:115|161:118,1,70,8|0,0:1|0:0,0:0:0:0:
219,154,20457,2,0,P|252:147|273:120,1,70,8|0,0:0|0:0,0:0:0:0:
344,52,20776,1,8,0:1:0:0:
354,73,20936,1,8,0:1:0:0:
423,115,21095,2,0,L|457:119,3,35,8|8|8|8,0:0|0:0|0:0|0:0,0:0:0:0:
477,146,21415,2,0,P|471:187|465:243,1,70,4|0,0:0|0:1,0:0:0:0:
384,261,21734,6,0,P|375:224|362:176,1,62.9999980773926,10|2,0:2|0:0,0:0:0:0:
282,246,22053,2,0,B|250:278|250:278|143:255,1,125.999996154785,10|10,0:1|0:2,0:0:0:0:
106,203,22532,1,2,0:0:0:0:
15,210,22691,2,0,P|21:244|27:289,1,62.9999980773926,10|10,0:1|0:1,0:0:0:0:
106,203,23010,2,0,B|110:144|110:144|117:135|117:135|123:69,1,125.999996154785,10|8,0:2|0:1,0:0:0:0:
302,107,23649,6,0,P|271:115|233:124,1,62.9999980773926,10|2,0:2|0:0,0:0:0:0:
362,51,23968,2,0,P|326:100|344:158,1,125.999996154785,10|8,0:1|0:2,0:0:0:0:
404,216,24447,1,2,0:0:0:0:
378,293,24606,2,0,P|314:280|251:270,1,125.999996154785,10|8,0:1|0:2,0:0:0:0:
180,206,25085,1,2,0:0:0:0:
101,255,25244,2,0,P|98:219|93:179,1,62.9999980773926,10|10,0:1|0:1,0:0:0:0:
42,125,25564,2,0,P|46:91|50:49,2,62.9999980773926,10|2|10,0:2|0:0|0:1,0:0:0:0:
235,136,26202,5,10,0:2:0:0:
235,136,26361,1,2,0:0:0:0:
309,173,26521,2,0,P|343:166|376:161,1,62.9999980773926,10|8,0:1|0:1,0:0:0:0:
464,144,26840,2,0,P|457:178|452:211,1,62.9999980773926,10|0,0:2|0:0,0:0:0:0:
488,283,27159,2,0,P|461:246|377:270,1,125.999996154785,10|8,0:1|0:2,0:0:0:0:
326,312,27638,1,2,0:0:0:0:
241,260,27798,6,0,L|178:269,1,62.9999980773926,10|8,0:1|0:1,0:0:0:0:
106,346,28117,2,0,L|168:355,1,62.9999980773926,10|0,0:2|0:0,0:0:0:0:
256,384,28436,2,0,B|247:328|247:328|251:318|251:318|241:256,1,125.999996154785,10|8,0:1|0:2,0:0:0:0:
290,191,28915,1,2,0:0:0:0:
290,191,29074,2,0,P|243:237|185:220,1,125.999996154785,10|8,0:1|0:2,0:0:0:0:
110,180,29553,1,2,0:0:0:0:
110,180,29713,2,0,L|123:55,1,125.999996154785,10|8,0:1|0:2,0:0:0:0:
200,27,30191,1,2,0:0:0:0:
277,75,30351,6,0,L|402:55,2,125.999996154785,2|2|2,0:0|0:0|0:0,0:0:0:0:
226,144,31149,1,10,0:1:0:0:
290,213,31308,1,10,0:2:0:0:
335,357,31627,6,0,L|274:372,1,62.9999980773926,14|0,0:1|0:0,0:0:0:0:
208,318,31947,2,0,L|145:308,1,62.9999980773926,10|0,0:2|0:0,0:0:0:0:
73,260,32266,2,0,P|71:226|100:196,1,62.9999980773926,10|0,0:1|0:0,0:0:0:0:
172,179,32585,1,8,0:2:0:0:
140,97,32744,1,2,0:0:0:0:
140,97,32904,6,0,L|227:80,1,62.9999980773926,10|2,0:1|0:0,0:0:0:0:
268,32,33223,2,0,L|397:56,1,125.999996154785,8|8,0:2|0:1,0:0:0:0:
383,186,33861,1,8,0:2:0:0:
455,245,34021,1,2,0:0:0:0:
455,245,34181,6,0,P|455:310|380:343,1,125.999996154785,10|8,0:1|0:2,0:0:0:0:
323,310,34659,1,2,0:0:0:0:
323,310,34819,2,0,B|260:315|260:315|255:322|255:322|182:329,1,125.999996154785,10|8,0:1|0:2,0:0:0:0:
124,371,35298,1,2,0:0:0:0:
51,316,35457,6,0,B|81:286|81:286|69:184,2,125.999996154785,10|10|10,0:1|0:2|0:1,0:0:0:0:
156,224,36415,6,0,P|187:221|220:261,1,62.9999980773926,10|0,0:2|0:0,0:0:0:0:
191,330,36734,2,0,P|257:318|319:311,1,125.999996154785,10|10,0:1|0:2,0:0:0:0:
386,380,37212,1,0,0:0:0:0:
386,380,37371,2,0,P|421:382|472:388,1,62.9999980773926,10|0,0:1|0:0,0:0:0:0:
512,322,37691,1,10,0:2:0:0:
403,210,38010,6,0,P|360:150|400:90,1,125.999996154785,10|10,0:1|0:2,0:0:0:0:
470,62,38489,1,0,0:0:0:0:
470,61,38648,2,0,P|475:95|485:145,1,62.9999980773926,10|0,0:1|0:0,0:0:0:0:
512,205,38968,1,10,0:2:0:0:
376,106,39287,6,0,P|345:102|313:99,1,62.9999980773926,10|0,0:1|0:0,0:0:0:0:
254,171,39606,2,0,P|222:173|191:177,1,62.9999980773926,10|0,0:2|0:0,0:0:0:0:
101,189,39925,2,0,P|97:153|119:123,2,62.9999980773926,10|2|10,0:1|0:0|0:2,0:0:0:0:
26,239,40404,1,2,0:0:0:0:
26,239,40564,6,0,P|21:275|14:329,1,62.9999980773926,10|0,0:1|0:0,0:0:0:0:
118,353,40883,2,0,P|114:317|106:263,1,62.9999980773926,10|0,0:2|0:0,0:0:0:0:
191,240,41202,1,10,0:1:0:0:
190,260,41361,1,8,0:2:0:0:
246,327,41521,1,8,0:2:0:0:
316,277,41680,1,8,0:2:0:0:
387,326,41840,6,0,P|417:323|441:303,1,62.9999980773926,12|8,0:1|0:1,0:0:0:0:
335,152,42319,2,0,P|326:210|314:289,1,125.999996154785,8|8,0:2|0:1,0:0:0:0:
387,326,42798,1,8,0:2:0:0:
475,218,43117,6,0,P|443:214|394:208,1,62.9999980773926,8|8,0:1|0:1,0:0:0:0:
283,136,43595,1,8,0:2:0:0:
283,136,43755,2,0,L|271:221,1,62.9999980773926,2|10,0:0|0:1,0:0:0:0:
207,252,44074,2,0,L|215:314,1,62.9999980773926,10|2,0:2|0:0,0:0:0:0:
291,361,44393,6,0,P|318:337|354:338,3,62.9999980773926,10|10|2|10,0:1|0:1|0:0|0:2,0:0:0:0:
415,372,45032,2,0,L|479:352,1,62.9999980773926,2|10,0:0|0:1,0:0:0:0:
512,275,45351,1,10,0:2:0:0:
512,275,45510,1,2,0:0:0:0:
422,214,45670,6,0,L|414:276,1,62.9999980773926,10|10,0:1|0:1,0:0:0:0:
342,333,45989,1,2,0:0:0:0:
342,333,46149,2,0,P|297:290|215:301,1,125.999996154785,8|8,0:2|0:1,0:0:0:0:
166,334,46627,1,8,0:2:0:0:
243,206,46947,6,0,P|211:209|186:226,1,62.9999980773926,8|8,0:1|0:1,0:0:0:0:
63,332,47425,2,0,P|70:269|79:189,1,125.999996154785,8|8,0:2|0:1,0:0:0:0:
87,123,47904,1,8,0:2:0:0:
155,265,48223,6,0,P|183:246|216:251,1,62.9999980773926,8|8,0:1|0:1,0:0:0:0:
356,300,48702,1,8,0:2:0:0:
356,300,48861,2,0,P|390:292|430:285,1,62.9999980773926,2|10,0:0|0:1,0:0:0:0:
397,203,49181,2,0,P|361:195|323:188,1,62.9999980773926,10|2,0:2|0:0,0:0:0:0:
486,190,49500,6,0,P|512:160|508:124,3,62.9999980773926,10|10|2|10,0:1|0:1|0:0|0:2,0:0:0:0:
457,82,50138,1,2,0:0:0:0:
467,0,50298,2,0,L|392:13,1,62.9999980773926,10|8,0:1|0:2,0:0:0:0:
340,82,50617,1,2,0:0:0:0:
255,14,50776,2,0,P|252:50|248:97,1,62.9999980773926,10|10,0:1|0:1,0:0:0:0:
198,142,51095,1,2,0:0:0:0:
253,202,51255,2,0,B|313:193|313:193|325:197|325:197|398:186,1,125.999996154785,8|8,0:2|0:1,0:0:0:0:
461,176,51734,1,10,0:2:0:0:
423,302,52053,6,0,P|400:322|369:327,1,62.9999980773926,12|8,0:1|0:1,0:0:0:0:
377,188,52532,2,0,P|380:125|387:62,1,125.999996154785,8|8,0:2|0:1,0:0:0:0:
461,176,53010,1,8,0:2:0:0:
369,327,53330,6,0,L|290:347,1,62.9999980773926,8|8,0:1|0:1,0:0:0:0:
287,200,53808,1,8,0:2:0:0:
287,200,53968,2,0,P|323:196|355:233,1,62.9999980773926,2|10,0:0|0:1,0:0:0:0:
423,257,54287,2,0,P|459:261|491:224,1,62.9999980773926,10|2,0:2|0:0,0:0:0:0:
511,168,54606,6,0,L|502:105,3,62.9999980773926,10|10|2|10,0:1|0:1|0:0|0:2,0:0:0:0:
419,118,55244,2,0,L|426:40,1,62.9999980773926,2|10,0:0|0:1,0:0:0:0:
349,15,55564,1,10,0:2:0:0:
275,58,55723,1,2,0:0:0:0:
275,58,55883,6,0,P|234:56|207:27,1,62.9999980773926,10|10,0:1|0:1,0:0:0:0:
139,14,56202,1,2,0:0:0:0:
59,53,56361,2,0,L|68:181,1,125.999996154785,8|8,0:2|0:1,0:0:0:0:
23,244,56840,6,0,P|62:204|129:222,1,125.999996154785,10|8,0:2|0:1,0:0:0:0:
198,281,57319,1,10,0:1:0:0:
198,281,57478,2,0,L|261:271,1,62.9999980773926,2|10,0:0|0:2,0:0:0:0:
322,206,57798,2,0,L|409:224,2,62.9999980773926,2|10|10,0:0|0:1|0:2,0:0:0:0:
263,143,58276,1,2,0:0:0:0:
289,63,58436,1,10,0:1:0:0:
289,63,58595,2,0,L|373:49,1,62.9999980773926,10|0,0:1|0:0,0:0:0:0:
426,0,58915,2,0,P|396:50|431:99,1,125.999996154785,10|8,0:2|0:1,0:0:0:0:
511,131,59393,1,8,0:2:0:0:
377,213,59712,5,10,0:2:0:0:
307,260,61627,6,0,L|254:246,3,35,8|8|8|8,0:2|0:1|0:1|0:1,0:0:0:0:
240,273,61947,2,0,L|190:286,3,35,8|8|10|8,0:2|0:1|0:1|0:1,0:0:0:0:
168,256,62266,1,10,0:2:0:0:
416,232,62585,6,0,P|430:200|423:167,1,70,14|2,0:0|0:0,0:0:0:0:
373,94,62904,1,10,0:1:0:0:
412,18,63064,2,0,L|325:7,1,70,2|8,0:0|0:2,0:0:0:0:
264,54,63383,1,2,0:0:0:0:
165,6,63542,6,0,L|178:94,1,70,10|0,0:1|0:0,0:0:0:0:
114,146,63861,2,0,L|101:234,1,70,10|0,0:2|0:0,0:0:0:0:
184,285,64181,1,10,0:1:0:0:
184,285,64340,2,0,P|205:258|248:258,1,70,2|8,0:0|0:2,0:0:0:0:
313,299,64659,1,2,0:0:0:0:
417,242,64819,6,0,L|407:311,2,70,10|2|10,0:1|0:0|0:2,0:0:0:0:
348,180,65298,1,2,0:0:0:0:
380,88,65457,1,10,0:1:0:0:
380,88,65617,2,0,L|310:94,1,70,2|10,0:0|0:2,0:0:0:0:
230,65,65936,1,2,0:0:0:0:
154,0,66095,6,0,B|147:62|147:62|141:72|141:72|132:146,1,140,10|10,0:1|0:2,0:0:0:0:
44,146,66574,1,2,0:0:0:0:
50,237,66734,2,0,L|70:315,1,70,10|0,0:1|0:0,0:0:0:0:
20,373,67053,2,0,P|75:335|138:359,1,140,10|8,0:2|0:1,0:0:0:0:
217,381,67532,5,2,0:0:0:0:
295,360,67691,2,0,L|225:371,1,70,10|0,0:2|0:0,0:0:0:0:
246,269,68010,1,10,0:1:0:0:
246,269,68170,2,0,L|336:281,1,70,2|8,0:0|0:2,0:0:0:0:
391,322,68489,5,2,0:0:0:0:
445,252,68649,2,0,P|446:217|426:189,1,70,10|0,0:1|0:0,0:0:0:0:
359,126,68968,1,10,0:2:0:0:
415,25,69127,2,0,P|351:33|249:44,1,140,2|0,0:0|0:0,0:0:0:0:
184,32,69606,1,8,0:2:0:0:
148,120,69766,5,2,0:0:0:0:
148,120,69925,2,0,L|230:137,1,70,10|2,0:1|0:0,0:0:0:0:
267,212,70244,2,0,L|349:195,1,70,10|0,0:2|0:0,0:0:0:0:
430,157,70564,2,0,L|418:226,1,70,10|0,0:1|0:0,0:0:0:0:
461,298,70883,5,10,0:2:0:0:
374,353,71042,2,0,P|339:353|313:331,1,70,2|8,0:0|0:1,0:0:0:0:
221,269,71361,2,0,L|234:358,1,70,2|8,0:0|0:2,0:0:0:0:
158,384,71681,1,2,0:0:0:0:
82,320,71840,2,0,L|12:329,1,70,10|0,0:1|0:0,0:0:0:0:
141,249,72159,1,8,0:2:0:0:
141,249,72239,1,8,0:1:0:0:
141,249,72319,2,0,L|205:257,1,35,8|8,0:1|0:1,0:0:0:0:
217,223,72478,6,0,P|210:184|203:146,1,70,14|0,0:2|0:0,0:0:0:0:
141,84,72798,1,10,0:2:0:0:
136,101,72957,1,2,0:0:0:0:
55,155,73117,2,0,P|21:155|-14:119,2,70,10|2|8,0:1|0:0|0:2,0:0:0:0:
136,101,73595,1,2,0:0:0:0:
57,4,73755,6,0,P|54:48|51:96,1,70,10|0,0:1|0:0,0:0:0:0:
67,170,74074,1,10,0:2:0:0:
55,155,74234,1,2,0:0:0:0:
0,245,74393,2,0,L|69:255,2,70,10|2|8,0:1|0:0|0:2,0:0:0:0:
125,328,74872,1,2,0:0:0:0:
187,268,75032,5,10,0:1:0:0:
279,336,75191,2,0,P|275:299|271:264,1,70,2|8,0:0|0:2,0:0:0:0:
240,182,75510,1,2,0:0:0:0:
342,210,75670,2,0,P|346:173|350:138,1,70,10|0,0:1|0:0,0:0:0:0:
272,79,75989,1,10,0:2:0:0:
274,100,76149,1,2,0:0:0:0:
347,32,76308,6,0,P|329:10|277:2,1,70,10|0,0:1|0:0,0:0:0:0:
188,44,76627,1,10,0:2:0:0:
185,67,76787,1,2,0:0:0:0:
81,4,76947,2,0,L|102:98,1,70,10|0,0:1|0:0,0:0:0:0:
143,159,77266,2,0,P|82:107|12:134,1,140,10|8,0:2|0:1,0:0:0:0:
2,203,77744,5,2,0:0:0:0:
67,265,77904,2,0,L|135:252,1,70,10|0,0:2|0:0,0:0:0:0:
219,213,78223,1,10,0:1:0:0:
219,213,78383,2,0,L|288:224,1,70,2|8,0:0|0:2,0:0:0:0:
381,205,78702,5,2,0:0:0:0:
460,263,78861,2,0,P|459:301|425:327,1,70,10|0,0:1|0:0,0:0:0:0:
361,360,79181,1,10,0:2:0:0:
361,360,79340,2,0,P|289:352|217:344,1,140,2|0,0:0|0:0,0:0:0:0:
137,363,79819,1,8,0:2:0:0:
41,314,79978,5,2,0:0:0:0:
41,314,80138,2,0,L|53:400,2,70,10|2|10,0:1|0:0|0:2,0:0:0:0:
102,242,80617,2,0,L|108:168,1,70,2|8,0:0|0:1,0:0:0:0:
166,113,80936,2,0,P|208:116|230:140,1,70,2|8,0:0|0:2,0:0:0:0:
297,197,81255,1,0,0:0:0:0:
397,164,81415,6,0,L|391:233,1,70,10|0,0:1|0:0,0:0:0:0:
302,266,81733,2,0,L|296:196,1,70,14|0,0:2|0:0,0:0:0:0:
229,316,82053,2,0,L|173:305,3,35,10|8|8|8,0:2|0:1|0:1|0:1,0:0:0:0:
163,283,82372,2,0,L|107:294,3,35,10|8|8|8,0:2|0:1|0:1|0:1,0:0:0:0:
94,278,82691,6,0,B|102:213|102:213|99:204|99:204|107:137,1,140,14|8,0:2|0:2,0:0:0:0:
90,14,83330,2,0,P|53:24|19:34,1,70,8|0,0:1|0:0,0:0:0:0:
37,128,83649,2,0,P|74:133|106:138,1,70,8|0,0:2|0:0,0:0:0:0:
188,198,83968,6,0,P|235:156|315:176,1,140,8|8,0:1|0:2,0:0:0:0:
436,158,84606,2,0,L|511:173,1,70,10|2,0:1|0:0,0:0:0:0:
512,262,84925,2,0,L|443:275,1,70,10|2,0:2|0:0,0:0:0:0:
351,309,85244,6,0,L|364:215,1,70,10|2,0:1|0:2,0:0:0:0:
306,168,85563,2,0,L|293:99,1,70,10|2,0:2|0:0,0:0:0:0:
212,165,85883,2,0,L|133:148,2,70,10|2|10,0:1|0:0|0:0,0:0:0:0:
165,246,86361,1,2,0:0:0:0:
207,339,86521,6,0,P|263:288|329:315,1,140,10|10,0:1|0:2,0:0:0:0:
366,376,87000,1,0,0:0:0:0:
442,325,87159,2,0,L|512:335,1,70,8|0,0:1|0:0,0:0:0:0:
512,223,87478,2,0,L|443:233,1,70,8|0,0:2|0:0,0:0:0:0:
455,144,87798,6,0,P|420:100|328:113,1,140,8|8,0:1|0:2,0:0:0:0:
204,173,88436,2,0,L|134:161,1,70,8|0,0:1|0:0,0:0:0:0:
52,186,88755,2,0,P|48:220|68:247,1,70,8|0,0:2|0:0,0:0:0:0:
138,307,89074,6,0,L|-1:324,1,140,8|8,0:1|0:2,0:0:0:0:
52,186,89713,2,0,L|63:83,1,70,10|2,0:1|0:0,0:0:0:0:
147,59,90032,2,0,L|158:162,1,70,10|2,0:2|0:0,0:0:0:0:
195,203,90350,2,0,P|220:226|277:208,1,70,10|2,0:1|0:0,0:0:0:0:
309,163,90669,2,0,P|334:140|391:158,1,70,10|2,0:0|0:0,0:0:0:0:
390,224,90989,1,10,0:1:0:0:
390,224,91149,2,0,L|383:293,1,70,2|10,0:0|0:0,0:0:0:0:
299,327,91468,1,2,0:0:0:0:
299,327,91627,6,0,B|230:340|230:340|225:346|225:346|154:358,1,140,10|14,0:1|0:2,0:0:0:0:
105,293,92106,1,0,0:0:0:0:
152,222,92266,2,0,L|156:188,3,35,8|8|8|8,0:2|0:1|0:1|0:1,0:0:0:0:
170,154,92585,2,0,L|166:120,3,35,10|8|8|8,0:2|0:1|0:1|0:1,0:0:0:0:
130,86,92904,6,0,L|62:99,1,70,12|0,0:2|0:0,0:0:0:0:
194,21,93223,2,0,L|262:34,1,70,8|0,0:2|0:0,0:0:0:0:
117,74,93542,2,0,L|49:87,1,70,8|0,0:1|0:0,0:0:0:0:
181,9,93861,2,0,L|249:22,1,70,8|0,0:2|0:0,0:0:0:0:
324,81,94181,6,0,P|349:58|384:57,1,70,8|0,0:1|0:0,0:0:0:0:
414,145,94500,2,0,P|389:168|355:170,1,70,8|0,0:2|0:0,0:0:0:0:
263,153,94819,2,0,L|275:236,1,70,10|2,0:1|0:0,0:0:0:0:
204,268,95138,1,10,0:2:0:0:
213,288,95298,1,2,0:0:0:0:
293,338,95457,6,0,L|362:327,1,70,10|2,0:1|0:0,0:0:0:0:
220,384,95776,2,0,L|150:373,1,70,10|2,0:2|0:0,0:0:0:0:
283,321,96095,2,0,L|352:310,1,70,10|2,0:1|0:0,0:0:0:0:
210,368,96414,2,0,L|140:357,1,70,10|2,0:2|0:0,0:0:0:0:
48,373,96734,5,10,0:1:0:0:
39,353,96893,1,2,0:0:0:0:
68,271,97053,2,0,P|54:245|62:201,1,70,10|0,0:2|0:0,0:0:0:0:
138,158,97372,2,0,P|152:132|143:88,1,70,8|0,0:1|0:0,0:0:0:0:
91,29,97691,2,0,B|143:33|143:33|148:39|148:39|212:43,1,105,10|0,0:2|0:0,0:0:0:0:
221,61,98010,6,0,L|297:45,1,70,12|2,0:1|0:0,0:0:0:0:
379,27,98330,1,10,0:2:0:0:
400,35,98489,1,2,0:0:0:0:
415,131,98649,2,0,L|341:114,1,70,10|2,0:1|0:0,0:0:0:0:
276,171,98968,1,10,0:2:0:0:
196,151,99127,1,2,0:0:0:0:
196,151,99287,6,0,P|166:170|132:172,2,70,10|2|12,0:1|0:0|0:2,0:0:0:0:
220,76,99766,1,2,0:0:0:0:
146,33,99925,6,0,L|97:41,3,35,8|8|8|8,0:2|0:1|0:1|0:1,0:0:0:0:
91,65,100244,2,0,L|42:57,3,35,8|8|8|8,0:2|0:1|0:1|0:1,0:0:0:0:
37,84,100564,6,0,L|51:174,2,62.9999980773926,10|2|2,0:1|0:0|0:0,0:0:0:0:
140,146,101042,2,0,L|124:234,2,62.9999980773926,2|2|2,0:0|0:0|0:0,0:0:0:0:
224,191,101521,2,0,P|252:169|297:171,1,62.9999980773926,2|2,0:0|0:0,0:0:0:0:
355,216,101840,2,0,L|424:211,1,62.9999980773926,2|2,0:0|0:0,0:0:0:0:
479,140,102158,1,2,0:0:0:0:
497,147,102318,1,2,0:0:0:0:
