osu file format v14

[General]
AudioFilename: audio.mp3
AudioLeadIn: 0
PreviewTime: 149697
Countdown: 0
SampleSet: None
StackLeniency: 0.6
Mode: 0
LetterboxInBreaks: 0
WidescreenStoryboard: 1

[Editor]
DistanceSpacing: 1.1
BeatDivisor: 4
GridSize: 8
TimelineZoom: 2.04

[Metadata]
Title:Cherry Bomb
TitleUnicode:Cherry Bomb
Artist:Silent Siren
ArtistUnicode:Silent Siren
Creator:aonidn1
Version:Cherry!
Source:
Tags:
BeatmapID:1285187
BeatmapSetID:608536

[Difficulty]
HPDrainRate:5
CircleSize:4
OverallDifficulty:7.7
ApproachRate:8.5
SliderMultiplier:1.5
SliderTickRate:1

[Events]
//Background and Video events
0,0,"BG.jpg",0,0
//Break Periods
2,150743,159474
//Storyboard Layer 0 (Background)
//Storyboard Layer 1 (Fail)
//Storyboard Layer 2 (Pass)
//Storyboard Layer 3 (Foreground)
//Storyboard Sound Samples

[TimingPoints]
1375,315.789473684211,4,2,1,100,1,0
1375,-100,4,2,1,100,0,0
11480,315.789473684211,4,2,1,100,1,0
11480,-100,4,2,1,100,0,0
41085,-100,4,2,2,45,0,0
41558,-100,4,2,1,100,0,0
72111,-100,4,2,1,100,0,1
88848,-100,4,2,1,100,0,0
102427,-100,4,2,1,100,0,0
104401,-100,4,2,0,100,0,0
104716,-100,4,2,1,100,0,0
106927,-100,4,2,0,100,0,0
107243,-100,4,2,1,100,0,0
112532,-100,4,2,1,100,0,0
114506,-100,4,2,0,100,0,0
114822,-100,4,2,1,100,0,0
117032,-100,4,2,0,100,0,0
117348,-100,4,2,1,100,0,0
132743,-100,4,2,1,100,0,1
149480,-100,4,2,1,100,0,0
188243,-100,4,2,2,100,0,0
189585,-100,4,2,1,100,0,0
190848,-100,4,2,1,100,0,1
224006,-100,4,2,1,50,0,0
228743,-100,4,2,1,100,0,0

[Colours]
Combo1 : 255,255,145
Combo2 : 214,214,171
Combo3 : 159,255,159
Combo4 : 255,164,255

[HitObjects]
184,80,1375,6,0,P|144:112|200:176,1,150,0|8,0:0|0:0,0:0:0:0:
296,176,1848,1,0,0:0:0:0:
256,272,2006,2,0,P|208:272|168:248,1,75
128,192,2322,2,0,P|136:136|224:120,1,150,8|0,0:0|0:0,0:0:0:0:
296,176,2796,6,0,P|296:216|320:280,1,75,0|8,0:0|0:0,0:0:0:0:
424,120,3111,2,0,P|424:80|408:48,1,75,8|0,0:0|0:0,0:0:0:0:
336,32,3427,1,0,0:0:0:0:
272,72,3585,2,0,B|272:112|272:112|288:144|288:144|288:232,1,150,8|0,0:0|0:0,0:0:0:0:
288,352,4059,1,0,0:0:0:0:
208,296,4217,6,0,P|160:296|128:272,1,75,8|8,0:0|0:0,0:0:0:0:
288,216,4532,2,0,P|328:216|368:232,1,75
440,256,4848,2,0,P|488:192|448:120,1,150,8|0,0:0|0:0,0:0:0:0:
392,80,5322,1,0,0:0:0:0:
312,112,5480,1,8,0:0:0:0:
296,200,5638,1,8,0:0:0:0:
224,240,5796,6,0,P|184:240|144:208,1,75
312,112,6111,2,0,P|344:112|392:144,1,75,8|0,0:0|0:0,0:0:0:0:
416,288,6427,2,0,B|368:272|368:272|336:280|336:280|304:272|304:272|256:288,1,150,2|8,0:0|0:0,0:0:0:0:
184,328,6901,1,8,0:0:0:0:
128,272,7059,2,0,P|128:232|144:192,1,75
192,120,7375,2,0,P|136:88|64:144,1,150,8|0,0:0|0:0,0:0:0:0:
80,224,7848,6,0,P|112:224|160:248,1,75,0|8,0:0|0:0,0:0:0:0:
208,296,8164,1,8,0:0:0:0:
152,352,8322,1,0,0:0:0:0:
96,304,8480,1,0,0:0:0:0:
151,240,8638,2,0,B|151:200|175:160|175:160|127:96,1,150,8|0,0:0|0:0,0:0:0:0:
80,48,9111,1,0,0:0:0:0:
40,120,9269,6,0,P|40:152|64:192,1,75,8|8,0:0|0:0,0:0:0:0:
160,240,9585,2,0,P|160:272|136:336,1,75
64,192,9901,2,0,P|64:152|88:112,1,75,8|0,0:0|0:0,0:0:0:0:
144,64,10217,2,0,P|208:96|272:40,1,150,2|2,0:0|0:0,0:0:0:0:
352,56,10848,5,2,0:0:0:0:
352,72,11006,1,0,0:0:0:0:
352,88,11164,1,0,0:0:0:0:
352,104,11322,1,0,0:0:0:0:
352,120,11480,2,0,P|288:168|208:136,1,150,2|8,0:0|0:0,0:0:0:0:
152,96,11953,1,0,0:0:0:0:
80,152,12111,2,0,L|80:240,1,75
192,344,12427,2,0,B|192:304|192:304|200:256|200:256|200:176,1,150,8|0,0:0|0:0,0:0:0:0:
192,112,13058,6,0,P|256:72|312:136,1,150,8|0,0:0|0:0,0:0:0:0:
320,192,13532,1,0,0:0:0:0:
320,280,13690,1,8,0:0:0:0:
392,328,13848,1,0,0:0:0:0:
464,280,14006,2,0,L|464:192,1,75
419,97,14322,2,0,B|371:105|371:105|323:97|323:97|275:105|275:105|251:97,1,150,8|0,0:0|0:0,0:0:0:0:
136,104,14953,1,8,0:0:0:0:
64,192,15269,6,0,P|48:232|120:304,1,150,0|8,0:0|0:0,0:0:0:0:
192,312,15743,2,0,P|192:272|224:232,1,75
272,192,16058,1,0,0:0:0:0:
272,104,16216,1,8,0:0:0:0:
216,40,16374,1,0,0:0:0:0:
144,80,16532,2,0,L|144:160,1,75
224,320,16848,2,0,P|224:280|248:232,1,75,8|0,0:0|0:0,0:0:0:0:
296,200,17164,2,0,P|352:224|416:168,2,150,0|8|0,0:0|0:0|0:0,0:0:0:0:
256,104,18111,6,0,P|328:48|416:64,1,150,8|0,0:0|0:0,0:0:0:0:
456,104,18585,1,0,0:0:0:0:
456,200,18743,1,8,0:0:0:0:
392,256,18901,1,0,0:0:0:0:
320,216,19058,2,0,P|320:136|376:112,1,150,0|8,0:0|0:0,0:0:0:0:
440,160,19532,2,0,L|440:264,1,75
256,352,19848,2,0,P|256:312|232:264,1,75,0|8,0:0|0:0,0:0:0:0:
88,80,20322,5,0,0:0:0:0:
88,80,20480,1,10,0:0:0:0:
88,80,20637,1,10,0:0:0:0:
88,208,20953,2,0,P|88:240|64:288,1,75
168,136,21269,2,0,P|200:136|256:112,1,75,10|0,0:0|0:0,0:0:0:0:
272,112,21506,1,0,0:0:0:0:
296,128,21585,2,0,P|296:160|392:176,1,150,0|8,0:0|0:0,0:0:0:0:
440,120,22058,1,0,0:0:0:0:
480,192,22216,5,0,0:0:0:0:
432,264,22374,1,0,0:0:0:0:
344,272,22532,2,0,P|344:224|328:192,1,75,8|0,0:0|0:0,0:0:0:0:
264,144,22848,2,0,P|208:176|208:256,1,150,0|8,0:0|0:0,0:0:0:0:
264,312,23322,1,0,0:0:0:0:
192,352,23480,1,0,0:0:0:0:
128,304,23637,6,0,P|128:256|112:224,1,75,0|8,0:0|0:0,0:0:0:0:
48,184,23953,1,0,0:0:0:0:
96,120,24111,2,0,B|160:96|208:136|208:136|248:104,1,150,0|8,0:0|0:0,0:0:0:0:
336,40,24743,1,0,0:0:0:0:
400,120,24901,2,0,P|400:160|432:192,1,75,0|8,0:0|0:0,0:0:0:0:
488,240,25216,1,0,0:0:0:0:
416,296,25374,2,0,B|360:296|360:296|320:288|320:288|256:288,1,150,0|8,0:0|0:0,0:0:0:0:
88,120,25848,6,0,P|120:120|176:104,1,75
392,232,26164,2,0,P|344:232|320:216,1,75,0|8,0:0|0:0,0:0:0:0:
256,144,26480,1,0,0:0:0:0:
304,64,26637,2,0,P|384:48|416:112,1,150,0|8,0:0|0:0,0:0:0:0:
416,216,27269,2,0,P|368:312|312:296,1,150,0|8,0:0|0:0,0:0:0:0:
256,192,27901,1,0,0:0:0:0:
256,192,28216,1,0,0:0:0:0:
88,72,29164,6,0,P|40:128|80:192,1,150,2|8,0:0|0:0,0:0:0:0:
152,192,29637,1,0,0:0:0:0:
208,136,29795,1,8,0:0:0:0:
208,56,29953,1,0,0:0:0:0:
280,32,30111,2,0,P|304:80|304:112,1,75,8|0,0:0|0:0,0:0:0:0:
256,352,30427,2,0,P|256:312|232:264,1,75,8|0,0:0|0:0,0:0:0:0:
320,184,30743,2,0,P|352:248|424:216,1,150,8|8,0:0|0:0,0:0:0:0:
456,160,31216,1,0,0:0:0:0:
456,72,31374,5,8,0:0:0:0:
384,40,31532,1,0,0:0:0:0:
320,80,31690,2,0,L|320:248,1,150,8|8,0:0|0:0,0:0:0:0:
256,352,32164,2,0,L|256:264,1,75,0|8,0:0|0:0,0:0:0:0:
40,40,32480,2,0,L|40:128,1,75,0|8,0:0|0:0,0:0:0:0:
104,232,32795,1,0,0:0:0:0:
168,168,32953,6,0,P|168:120|192:80,1,75,8|0,0:0|0:0,0:0:0:0:
256,48,33269,2,0,P|328:80|328:160,1,150,8|8,0:0|0:0,0:0:0:0:
288,224,33743,1,0,0:0:0:0:
288,312,33901,1,8,0:0:0:0:
368,352,34058,1,0,0:0:0:0:
448,304,34216,2,0,L|448:144,1,150,10|8,0:0|0:0,0:0:0:0:
256,32,34690,6,0,L|176:32,1,75,0|8,0:0|0:0,0:0:0:0:
256,352,35006,2,0,L|344:352,1,75,0|8,0:0|0:0,0:0:0:0:
216,104,35322,2,0,L|136:104,1,75,0|8,0:0|0:0,0:0:0:0:
88,264,35637,1,0,0:0:0:0:
208,264,35795,2,0,B|256:264|256:264|304:248|304:248|376:248,1,150,8|8,0:0|0:0,0:0:0:0:
376,112,36269,6,0,L|288:112,1,75,0|8,0:0|0:0,0:0:0:0:
216,112,36585,1,0,0:0:0:0:
152,48,36743,2,0,P|104:104|120:184,1,150,8|8,0:0|0:0,0:0:0:0:
208,264,37216,2,0,P|208:296|192:344,1,75,0|8,0:0|0:0,0:0:0:0:
112,176,37532,2,0,P|112:136|136:96,1,75,0|8,0:0|0:0,0:0:0:0:
184,56,37848,1,0,0:0:0:0:
256,24,38006,5,8,0:0:0:0:
320,64,38164,1,0,0:0:0:0:
320,144,38322,1,0,0:0:0:0:
256,192,38480,1,0,0:0:0:0:
192,152,38637,2,0,P|192:120|224:80,1,75,0|8,0:0|0:0,0:0:0:0:
288,56,38953,1,8,0:0:0:0:
432,192,39111,1,8,0:0:0:0:
288,288,39269,6,0,P|288:184|344:152,1,150,10|0,0:0|0:0,0:0:0:0:
392,96,39743,1,0,0:0:0:0:
304,56,40058,1,0,0:0:0:0:
304,56,40216,2,0,P|248:56|200:152,1,150,8|2,0:0|0:0,0:0:0:0:
360,272,41085,6,0,L|384:232,4,37.5,8|8|8|8|8,0:0|0:0|0:0|0:0|0:0,0:0:0:0:
336,288,41480,2,0,B|272:320|232:280|232:280|192:304,1,150,8|2,0:0|0:0,0:0:0:0:
176,128,42111,2,0,P|128:128|48:192,1,150,8|0,0:0|0:0,0:0:0:0:
64,264,42585,1,0,0:0:0:0:
128,216,42743,6,0,P|168:216|224:240,1,75,8|0,0:0|0:0,0:0:0:0:
264,280,43058,1,0,0:0:0:0:
320,344,43216,1,0,0:0:0:0:
392,304,43374,2,0,L|392:200,1,75,8|0,0:0|0:0,0:0:0:0:
392,152,43690,1,0,0:0:0:0:
344,72,43848,1,0,0:0:0:0:
256,40,44006,1,8,0:0:0:0:
176,96,44164,5,0,0:0:0:0:
176,96,44243,1,0,0:0:0:0:
176,96,44322,2,0,P|176:128|224:184,1,75
376,328,44637,6,0,B|304:328|304:328|264:320|264:320|216:320,1,150,8|0,0:0|0:0,0:0:0:0:
136,320,45111,1,0,0:0:0:0:
88,248,45269,1,8,0:0:0:0:
88,160,45427,1,0,0:0:0:0:
160,112,45585,1,0,0:0:0:0:
224,176,45743,2,0,P|224:224|240:280,1,75,0|8,0:0|0:0,0:0:0:0:
296,320,46058,1,0,0:0:0:0:
384,272,46216,2,0,L|416:168,1,75
304,48,46532,6,0,P|304:80|272:136,1,75,8|0,0:0|0:0,0:0:0:0:
208,152,46848,2,0,B|176:152|176:152|136:136|136:136|88:168|88:216,1,150,0|8,0:0|0:0,0:0:0:0:
88,304,47322,1,0,0:0:0:0:
176,344,47480,2,0,P|232:344|280:328,1,75
400,224,47795,2,0,P|360:224|304:200,1,75,8|0,0:0|0:0,0:0:0:0:
256,120,48111,2,0,B|312:72|312:72|360:112|408:112,1,150,0|8,0:0|0:0,0:0:0:0:
440,168,48585,6,0,P|440:200|464:264,1,75
376,320,48901,2,0,L|288:320,1,75,0|8,0:0|0:0,0:0:0:0:
192,320,49216,1,0,0:0:0:0:
240,240,49374,2,0,B|240:208|240:208|256:160|256:160|256:80,1,150,0|8,0:0|0:0,0:0:0:0:
200,40,49848,1,0,0:0:0:0:
128,72,50006,2,0,P|128:112|104:152,1,75
56,216,50322,1,8,0:0:0:0:
112,280,50480,1,0,0:0:0:0:
184,240,50637,6,0,P|216:168|296:168,1,150,0|8,0:0|0:0,0:0:0:0:
352,216,51111,2,0,P|352:264|456:264,1,150
456,160,51585,2,0,L|456:120,3,37.5,8|8|8|8,0:0|0:0|0:0|0:0,0:0:0:0:
440,88,51901,2,0,B|376:80|320:104|320:104|280:64,1,150,2|8,0:0|0:0,0:0:0:0:
56,104,52532,6,0,P|48:152|64:200,1,75
320,320,52848,2,0,P|328:280|320:224,1,75,8|0,0:0|0:0,0:0:0:0:
200,136,53164,2,0,B|168:192|200:256|200:256|160:296,1,150,0|8,0:0|0:0,0:0:0:0:
112,320,53637,2,0,P|64:280|96:184,1,150
136,88,54111,2,0,B|208:56|208:56|288:104,1,150,8|0,0:0|0:0,0:0:0:0:
464,352,54743,6,0,B|424:352|424:352|384:344|384:344|304:344,1,150,8|0,0:0|0:0,0:0:0:0:
256,288,55216,1,0,0:0:0:0:
304,216,55374,2,0,P|304:184|280:120,1,75,8|0,0:0|0:0,0:0:0:0:
328,64,55690,2,0,P|400:104|464:56,1,150,0|8,0:0|0:0,0:0:0:0:
264,24,56164,1,0,0:0:0:0:
208,80,56322,2,0,P|208:112|192:160,2,75,0|0|8,0:0|0:0|0:0,0:0:0:0:
48,192,56953,6,0,B|88:224|160:200|160:200|192:232,1,150,0|8,0:0|0:0,0:0:0:0:
256,280,57427,1,0,0:0:0:0:
184,336,57585,2,0,P|144:336|104:304,1,75
160,200,57901,2,0,P|160:168|136:120,1,75,8|0,0:0|0:0,0:0:0:0:
64,96,58216,2,0,B|24:176|24:176|64:256,1,150,0|8,0:0|0:0,0:0:0:0:
160,288,58690,6,0,B|216:288|216:288|256:280|256:280|320:280,1,150
416,280,59164,2,0,B|416:240|440:200|440:200|392:136,1,150,8|0,0:0|0:0,0:0:0:0:
336,96,59795,2,0,P|296:96|256:72,1,75,8|0,0:0|0:0,0:0:0:0:
192,40,60111,1,0,0:0:0:0:
120,96,60269,1,0,0:0:0:0:
192,152,60427,2,0,P|192:200|176:248,1,75,8|2,0:0|0:0,0:0:0:0:
112,304,60901,1,0,0:0:0:0:
240,304,61058,2,0,L|256:256,4,37.5
296,352,61532,5,0,0:0:0:0:
368,312,61690,1,0,0:0:0:0:
440,352,61848,1,0,0:0:0:0:
496,288,62006,2,0,B|496:248|520:208|520:208|472:144,1,150,2|8,0:0|0:0,0:0:0:0:
400,112,62480,2,0,P|360:112|312:88,1,75
256,48,62795,1,0,0:0:0:0:
192,104,62953,2,0,P|192:136|176:176,1,75,8|0,0:0|0:0,0:0:0:0:
168,336,63269,6,0,P|208:336|248:304,1,75
296,240,63585,2,0,P|296:192|320:152,1,75,8|0,0:0|0:0,0:0:0:0:
336,152,63822,1,0,0:0:0:0:
368,152,63901,2,0,P|392:112|392:56,1,75
304,48,64216,2,0,B|248:24|192:56|192:56|152:24,1,150,8|0,0:0|0:0,0:0:0:0:
64,112,64690,6,0,P|64:160|40:192,1,75,0|8,0:0|0:0,0:0:0:0:
32,200,64927,1,0,0:0:0:0:
48,232,65006,2,0,P|80:232|136:208,1,75
184,160,65322,1,0,0:0:0:0:
184,64,65480,2,0,B|240:88|296:56|296:56|336:88,1,150,8|0,0:0|0:0,0:0:0:0:
384,296,65953,2,0,L|488:264,1,75,0|8,0:0|0:0,0:0:0:0:
256,72,66269,2,0,L|176:96,1,75
96,128,66585,5,8,0:0:0:0:
152,192,66743,1,8,0:0:0:0:
96,256,66901,2,0,P|120:336|192:336,1,150,2|0,0:0|0:0,0:0:0:0:
248,280,67374,1,8,0:0:0:0:
304,184,67690,2,0,P|304:144|280:96,1,75,8|0,0:0|0:0,0:0:0:0:
96,256,68006,2,0,P|96:296|120:344,1,75,8|0,0:0|0:0,0:0:0:0:
200,328,68322,2,0,B|248:328|248:328|304:312|304:312|352:312,1,150,8|8,0:0|0:0,0:0:0:0:
424,288,68795,1,0,0:0:0:0:
472,216,68953,2,0,P|464:176|472:144,2,75,8|0|8,0:0|0:0|0:0,0:0:0:0:
424,288,69427,6,0,B|352:328|272:288|272:288|224:344,1,225,2|0,0:0|0:0,0:0:0:0:
152,336,70058,1,0,0:0:0:0:
112,248,70216,1,8,0:0:0:0:
160,160,70374,2,0,P|112:112|64:168,1,150,8|0,0:0|0:0,0:0:0:0:
112,248,71006,2,0,B|184:224|232:272|232:272|264:240,1,150
312,120,71480,6,0,L|328:80,3,37.5
344,56,71795,2,0,P|408:64|432:152,1,150,10|0,0:0|0:0,0:0:0:0:
352,304,72427,2,0,P|248:352|224:328,1,150,8|0,0:0|0:0,0:0:0:0:
192,264,73058,6,0,P|192:216|168:168,1,75,8|0,0:0|0:0,0:0:0:0:
128,136,73374,2,0,P|88:136|32:104,1,75
184,56,73690,2,0,P|264:40|296:96,1,150,8|0,0:0|0:0,0:0:0:0:
296,192,74164,1,0,0:0:0:0:
376,272,74322,2,0,P|416:272|472:240,1,75,8|0,0:0|0:0,0:0:0:0:
464,240,74558,1,0,0:0:0:0:
472,200,74637,2,0,P|464:152|488:104,1,75
432,56,74953,2,0,P|384:88|296:48,1,150,8|0,0:0|0:0,0:0:0:0:
160,80,75585,6,0,B|160:144|160:144|168:184|168:184|168:264,1,150,8|0,0:0|0:0,0:0:0:0:
256,360,76058,2,0,L|288:272,1,75,0|8,0:0|0:0,0:0:0:0:
72,32,76374,2,0,L|40:120,1,75
96,232,76690,1,0,0:0:0:0:
160,120,76848,2,0,P|224:88|272:160,1,150,8|0,0:0|0:0,0:0:0:0:
280,272,77480,6,0,P|360:328|384:296,2,150,8|0|8,0:0|0:0|0:0,0:0:0:0:
272,200,78427,2,0,P|312:160|312:136,1,75
368,64,78743,1,8,0:0:0:0:
448,112,78901,2,0,L|448:192,1,75
416,288,79216,1,0,0:0:0:0:
328,232,79374,2,0,P|272:256|312:336,1,150,8|0,0:0|0:0,0:0:0:0:
400,208,80006,2,0,P|368:128|304:120,1,150,8|0,0:0|0:0,0:0:0:0:
136,120,80480,1,0,0:0:0:0:
224,32,80637,6,0,B|224:88|224:88|240:128|240:128|240:200,1,150,8|0,0:0|0:0,0:0:0:0:
160,336,81111,2,0,P|144:280|144:240,1,75,10|10,0:0|0:0,0:0:0:0:
320,64,81585,2,0,L|344:24,3,37.5
376,24,81901,2,0,B|440:24|464:72|464:72|504:56,1,150,10|0,0:0|0:0,0:0:0:0:
256,352,82532,5,8,0:0:0:0:
392,104,82848,2,0,P|416:160|368:232,1,150,0|8,0:0|0:0,0:0:0:0:
296,248,83322,1,0,0:0:0:0:
240,192,83480,1,0,0:0:0:0:
240,112,83637,1,0,0:0:0:0:
200,48,83795,2,0,B|160:48|160:48|112:16|80:48|80:48|88:96,1,150,8|0,0:0|0:0,0:0:0:0:
88,160,84269,2,0,P|80:208|40:248,1,75,0|8,0:0|0:0,0:0:0:0:
190,121,84585,2,0,P|190:81|206:33,1,75
336,56,85058,6,0,P|392:104|376:184,2,150,8|0|8,0:0|0:0|0:0,0:0:0:0:
256,32,86006,1,0,0:0:0:0:
256,192,86322,2,0,B|280:272|280:272|256:344,1,150,8|0,0:0|0:0,0:0:0:0:
168,336,86795,1,0,0:0:0:0:
120,264,86953,2,0,P|120:224|144:176,1,75,8|0,0:0|0:0,0:0:0:0:
192,120,87269,2,0,P|248:120|288:24,1,150,0|8,0:0|0:0,0:0:0:0:
376,32,87901,2,0,B|416:104|416:104|384:168,1,150,0|8,0:0|0:0,0:0:0:0:
312,344,88532,1,8,0:0:0:0:
256,32,88848,1,8,0:0:0:0:
48,248,89795,6,0,B|104:296|152:256|152:256|184:288,1,150,2|8,0:0|0:0,0:0:0:0:
240,336,90269,1,0,0:0:0:0:
312,288,90427,1,8,0:0:0:0:
352,216,90585,1,0,0:0:0:0:
312,136,90743,2,0,P|256:136|240:112,1,75,8|0,0:0|0:0,0:0:0:0:
352,32,91058,2,0,P|408:32|424:56,1,75,8|0,0:0|0:0,0:0:0:0:
424,136,91374,2,0,L|424:304,1,150,8|8,0:0|0:0,0:0:0:0:
352,344,91848,5,0,0:0:0:0:
312,264,92006,1,8,0:0:0:0:
312,176,92164,1,0,0:0:0:0:
256,112,92322,2,0,B|200:64|152:104|152:104|120:72,1,150,8|8,0:0|0:0,0:0:0:0:
64,152,92795,2,0,L|104:232,1,75,0|8,0:0|0:0,0:0:0:0:
448,128,93111,2,0,L|400:48,1,75,0|8,0:0|0:0,0:0:0:0:
168,192,93427,2,0,L|208:272,1,75,0|8,0:0|0:0,0:0:0:0:
264,312,93743,1,0,0:0:0:0:
336,264,93901,6,0,B|392:312|440:272|440:272|472:304,1,150,8|8,0:0|0:0,0:0:0:0:
504,216,94374,1,0,0:0:0:0:
256,32,94532,1,8,0:0:0:0:
408,288,94690,1,0,0:0:0:0:
440,64,94848,1,10,0:0:0:0:
256,192,95006,1,0,0:0:0:0:
360,160,95164,2,0,P|344:104|312:80,1,75,8|0,0:0|0:0,0:0:0:0:
152,232,95480,2,0,P|168:288|200:312,1,75,8|0,0:0|0:0,0:0:0:0:
333,92,95795,6,0,P|301:60|245:60,1,75,8|0,0:0|0:0,0:0:0:0:
176,304,96111,2,0,P|208:336|264:336,1,75,8|0,0:0|0:0,0:0:0:0:
304,192,96427,2,0,B|360:240|408:200|408:200|440:232,1,150,8|8,0:0|0:0,0:0:0:0:
384,352,96901,1,0,0:0:0:0:
344,64,97058,1,8,0:0:0:0:
488,192,97216,1,0,0:0:0:0:
344,272,97374,2,0,B|288:272|288:272|232:256|232:256|168:288,1,150,8|8,0:0|0:0,0:0:0:0:
104,320,97848,6,0,P|72:280|72:224,1,75,0|8,0:0|0:0,0:0:0:0:
408,64,98164,2,0,P|440:104|440:160,1,75,0|8,0:0|0:0,0:0:0:0:
160,280,98480,2,0,P|128:240|128:184,1,75,0|8,0:0|0:0,0:0:0:0:
352,96,98795,2,0,P|384:136|384:192,1,75,0|8,0:0|0:0,0:0:0:0:
256,192,99111,1,0,0:0:0:0:
336,296,99269,2,0,P|368:296|424:280,1,75,8|8,0:0|0:0,0:0:0:0:
480,240,99585,1,8,0:0:0:0:
496,152,99743,1,8,0:0:0:0:
448,88,99901,6,0,B|392:40|344:80|344:80|312:48,1,150,10|8,0:0|0:0,0:0:0:0:
248,24,100374,1,0,0:0:0:0:
176,64,100690,2,0,P|176:96|160:136,1,75,0|8,0:0|0:0,0:0:0:0:
96,280,101164,2,0,P|144:336|256:248,1,225,2|0,0:0|0:0,0:0:0:0:
288,120,101953,5,0,0:0:0:0:
408,240,102111,2,0,L|408:200,3,37.5
384,176,102427,2,0,B|344:200|296:176|296:176|248:224,1,150,2|0,0:0|0:0,0:0:0:0:
256,344,102901,2,0,B|344:360|368:320|368:320|416:352,1,150
464,248,103374,2,0,P|488:176|432:112,1,150,8|0,0:0|0:0,0:0:0:0:
368,80,103848,2,0,P|312:128|352:184,1,150,0|8,0:0|0:0,0:0:0:0:
320,304,104322,2,0,P|280:304|240:288,1,75,0|8,0:0|0:0,0:0:0:0:
176,224,104637,6,0,P|208:160|152:104,1,150,8|0,0:0|0:0,0:0:0:0:
48,176,105111,2,0,P|32:240|104:280,1,150,0|8,0:0|0:0,0:0:0:0:
184,280,105585,2,0,P|208:240|208:192,1,75
216,72,105901,2,0,P|152:56|112:128,1,150,8|0,0:0|0:0,0:0:0:0:
211,212,106374,2,0,B|259:212|259:212|291:196|291:196|363:196,1,150,0|8,0:0|0:0,0:0:0:0:
432,168,106848,2,0,P|432:120|408:80,1,75,0|8,0:0|0:0,0:0:0:0:
328,64,107164,6,0,P|256:88|280:160,1,150,8|0,0:0|0:0,0:0:0:0:
344,240,107637,2,0,B|344:304|312:336|312:336|288:288,1,150,0|8,0:0|0:0,0:0:0:0:
256,192,108111,2,0,B|224:184|200:160|200:160|232:136,1,75
304,80,108427,2,0,B|368:80|400:112|400:112|352:136,1,150,8|0,0:0|0:0,0:0:0:0:
296,224,108901,6,0,P|272:296|176:296,1,150,0|8,0:0|0:0,0:0:0:0:
120,208,109374,2,0,P|120:168|144:120,1,75
256,64,109690,2,0,B|320:64|352:96|352:96|304:120,1,150,8|0,0:0|0:0,0:0:0:0:
256,312,110164,2,0,B|192:312|160:280|160:280|208:256,1,150,0|8,0:0|0:0,0:0:0:0:
310,191,110637,6,0,L|310:111,1,75
192,56,110953,2,0,P|144:64|112:168,1,150,8|0,0:0|0:0,0:0:0:0:
320,328,111427,2,0,P|368:320|400:216,1,150,0|8,0:0|0:0,0:0:0:0:
256,192,112058,1,0,0:0:0:0:
176,152,112216,2,0,L|184:112,3,37.5,8|8|8|8,0:0|0:0|0:0|0:0,0:0:0:0:
160,80,112532,2,0,B|128:80|128:80|88:64|88:64|48:80|48:80|0:80,1,150,2|0,0:0|0:0,0:0:0:0:
192,328,113006,6,0,B|256:280|272:248|272:248|224:256,1,150
160,224,113480,2,0,P|152:184|176:144,1,75,8|0,0:0|0:0,0:0:0:0:
232,112,113795,2,0,P|296:152|344:88,1,150,0|8,0:0|0:0,0:0:0:0:
400,56,114269,1,0,0:0:0:0:
448,120,114427,2,0,L|448:208,1,75,0|8,0:0|0:0,0:0:0:0:
392,312,114743,2,0,B|328:336|288:296|288:296|240:328,1,150,8|0,0:0|0:0,0:0:0:0:
96,328,115216,6,0,P|56:288|64:256,1,75,0|8,0:0|0:0,0:0:0:0:
88,192,115532,1,0,0:0:0:0:
160,136,115690,1,0,0:0:0:0:
248,120,115848,1,0,0:0:0:0:
312,56,116006,2,0,P|240:24|168:80,1,150,8|0,0:0|0:0,0:0:0:0:
256,192,116480,5,0,0:0:0:0:
208,296,116637,2,0,P|160:304|128:280,1,75,8|0,0:0|0:0,0:0:0:0:
88,232,116953,2,0,P|88:176|112:128,1,75,0|8,0:0|0:0,0:0:0:0:
152,104,117269,2,0,P|216:160|288:120,1,150,8|0,0:0|0:0,0:0:0:0:
336,96,117743,1,0,0:0:0:0:
400,136,117901,2,0,P|392:200|312:240,1,150,8|0,0:0|0:0,0:0:0:0:
240,256,118374,6,0,P|240:296|264:328,1,75,0|8,0:0|0:0,0:0:0:0:
400,136,118690,1,0,0:0:0:0:
400,136,118848,2,0,B|344:160|280:120|280:120|240:160,1,150,0|8,0:0|0:0,0:0:0:0:
208,208,119322,1,0,0:0:0:0:
256,280,119480,2,0,P|232:328|184:344,1,75
112,312,119795,2,0,B|112:264|112:264|120:216|120:216|120:136,1,150,8|0,0:0|0:0,0:0:0:0:
160,64,120427,6,0,B|208:64|248:48|248:48|304:96,1,150,8|0,0:0|0:0,0:0:0:0:
360,168,120901,1,8,0:0:0:0:
256,352,121058,1,8,0:0:0:0:
256,192,121216,2,0,P|288:104|352:96,1,150,2|0,0:0|0:0,0:0:0:0:
424,88,121690,1,8,0:0:0:0:
344,264,121848,2,0,L|344:312,2,37.5
296,208,122164,5,0,0:0:0:0:
232,264,122322,1,0,0:0:0:0:
160,216,122480,1,0,0:0:0:0:
88,240,122637,2,0,B|56:280|64:312,1,75,2|0,0:0|0:0,0:0:0:0:
144,336,122953,2,0,B|192:336|192:336|240:328|240:328|312:328,1,150,8|0,0:0|0:0,0:0:0:0:
440,240,123427,2,0,P|392:240|352:224,1,75,0|8,0:0|0:0,0:0:0:0:
256,72,123743,2,0,P|296:48|352:48,1,75
416,192,124058,1,0,0:0:0:0:
320,288,124216,2,0,P|264:288|232:264,1,75,8|0,0:0|0:0,0:0:0:0:
224,264,124453,5,0,0:0:0:0:
200,248,124532,2,0,P|184:200|184:152,1,75
120,88,124848,2,0,P|40:72|32:152,1,150,8|0,0:0|0:0,0:0:0:0:
88,336,125322,1,0,0:0:0:0:
160,240,125480,2,0,P|152:192|160:152,1,75,8|0,0:0|0:0,0:0:0:0:
160,144,125716,1,0,0:0:0:0:
184,120,125795,2,0,P|224:128|264:104,1,75
320,56,126111,2,0,P|384:72|400:160,1,150,8|0,0:0|0:0,0:0:0:0:
368,344,126585,1,0,0:0:0:0:
368,344,126743,6,0,P|304:304|296:280,1,75,8|0,0:0|0:0,0:0:0:0:
296,280,126980,1,0,0:0:0:0:
288,256,127058,2,0,P|288:216|312:168,1,75
344,104,127374,1,8,0:0:0:0:
480,32,127532,1,2,0:0:0:0:
288,256,127848,1,0,0:0:0:0:
192,312,128006,2,0,P|112:280|136:208,1,150,8|8,0:0|0:0,0:0:0:0:
160,160,128480,2,0,P|168:112|168:64,1,75,0|8,0:0|0:0,0:0:0:0:
104,40,128795,1,0,0:0:0:0:
40,88,128953,6,0,B|40:144|40:144|56:192|56:192|56:256,1,150,8|8,0:0|0:0,0:0:0:0:
104,344,129427,1,0,0:0:0:0:
256,192,129585,1,8,0:0:0:0:
112,72,129743,1,0,0:0:0:0:
192,288,129901,1,8,0:0:0:0:
200,104,130058,2,0,P|264:64|336:168,1,225,2|0,0:0|0:0,0:0:0:0:
320,288,130690,2,0,P|360:288|408:256,1,75,0|8,0:0|0:0,0:0:0:0:
456,216,131006,5,8,0:0:0:0:
464,128,131164,1,8,0:0:0:0:
416,56,131322,2,0,P|352:120|280:88,1,150
64,232,131953,2,0,P|96:272|128:272,1,75
152,256,132190,2,0,L|168:216,2,37.5
160,280,132427,2,0,B|200:280|200:280|240:264|240:264|288:280|288:280|328:264,1,150,2|0,0:0|0:0,0:0:0:0:
376,192,133058,5,8,0:0:0:0:
256,32,133374,2,0,P|200:72|216:160,1,150,0|8,0:0|0:0,0:0:0:0:
280,216,133848,1,0,0:0:0:0:
224,304,134006,2,0,P|184:304|144:288,1,75
96,232,134322,2,0,B|80:192|80:192|96:144|96:144|96:64,1,150,8|0,0:0|0:0,0:0:0:0:
176,64,134795,2,0,P|176:112|200:144,1,75,0|8,0:0|0:0,0:0:0:0:
256,192,135111,5,0,0:0:0:0:
336,152,135269,2,0,P|376:112|456:176,2,150,0|8|0,0:0|0:0|0:0,0:0:0:0:
312,256,136216,2,0,P|272:328|208:320,1,150,8|0,0:0|0:0,0:0:0:0:
112,296,136690,1,0,0:0:0:0:
96,192,136848,2,0,P|96:144|128:96,1,75,8|0,0:0|0:0,0:0:0:0:
184,80,137164,2,0,P|232:104|296:40,1,150,0|8,0:0|0:0,0:0:0:0:
400,72,137795,2,0,P|376:152|424:208,1,150,0|8,0:0|0:0,0:0:0:0:
488,256,138427,5,0,0:0:0:0:
400,336,138585,2,0,L|304:336,1,75,0|8,0:0|0:0,0:0:0:0:
184,272,138901,2,0,P|232:264|256:224,1,75
280,144,139216,1,0,0:0:0:0:
216,80,139374,2,0,P|160:64|112:136,1,150,8|0,0:0|0:0,0:0:0:0:
112,336,139848,1,0,0:0:0:0:
176,232,140006,2,0,P|240:184|288:256,1,150,8|0,0:0|0:0,0:0:0:0:
312,312,140480,1,0,0:0:0:0:
384,256,140637,6,0,P|384:216|400:176,1,75,8|0,0:0|0:0,0:0:0:0:
448,104,140953,2,0,P|408:64|360:64,1,75
320,48,141269,2,0,P|248:88|248:176,1,150,8|0,0:0|0:0,0:0:0:0:
256,352,141743,1,10,0:0:0:0:
352,192,141901,1,10,0:0:0:0:
248,72,142058,2,0,P|200:72|160:56,1,75
136,48,142295,2,0,L|104:24,2,37.5
136,80,142532,2,0,B|136:120|136:120|152:160|152:160|136:200|136:200|136:256,1,150,10|0,0:0|0:0,0:0:0:0:
256,352,143164,6,0,P|312:328|328:296,1,75,8|0,0:0|0:0,0:0:0:0:
256,32,143480,2,0,P|200:56|184:88,1,75
256,192,143795,1,8,0:0:0:0:
320,136,143953,1,0,0:0:0:0:
392,176,144111,2,0,P|392:256|320:288,1,150,0|8,0:0|0:0,0:0:0:0:
224,280,144743,1,0,0:0:0:0:
168,208,144901,2,0,P|168:160|144:128,1,75,0|8,0:0|0:0,0:0:0:0:
80,88,145216,1,0,0:0:0:0:
32,152,145374,2,0,P|16:240|80:288,2,150,0|8|0,0:0|0:0|0:0,0:0:0:0:
80,88,146322,6,0,P|176:40|240:48,1,150,8|0,0:0|0:0,0:0:0:0:
296,64,146795,1,0,0:0:0:0:
296,152,146953,2,0,P|296:200|320:232,1,75,8|0,0:0|0:0,0:0:0:0:
456,136,147269,2,0,P|456:96|432:48,1,75
320,48,147585,1,8,0:0:0:0:
256,128,147743,1,0,0:0:0:0:
309,222,147901,2,0,B|357:230|405:182|405:182|453:182,2,150,0|8|0,0:0|0:0|0:0,0:0:0:0:
136,80,148848,6,0,P|104:104|104:216,1,150,8|0,0:0|0:0,0:0:0:0:
256,352,149480,1,0,0:0:0:0:
256,192,150427,1,10,0:0:0:0:
312,112,160374,6,0,L|328:64,2,37.5,8|0|2,0:0|0:0|0:0,0:0:0:0:
288,344,160848,2,0,P|200:344|200:304,1,150
256,192,161480,2,0,B|256:128|232:80|232:80|200:128,1,150
160,224,162111,2,0,B|160:304|136:336|136:336|112:296,1,150
72,192,162743,2,0,B|72:112|88:80|88:80|112:120,1,150
224,232,163374,2,0,B|288:232|336:200|336:200|288:176,1,150
256,32,164006,1,0,0:0:0:0:
480,192,164322,1,0,0:0:0:0:
256,344,164637,6,0,P|256:272|184:232,1,150
80,192,165269,1,0,0:0:0:0:
144,104,165427,2,0,L|112:64,2,37.5,8|0|2,0:0|0:0|0:0,0:0:0:0:
256,192,165901,1,8,0:0:0:0:
344,80,166216,2,0,P|432:112|432:184,1,150,0|8,0:0|0:0,0:0:0:0:
408,352,166848,1,0,0:0:0:0:
296,256,167164,2,0,P|296:176|240:136,1,150,8|0,0:0|0:0,0:0:0:0:
128,104,167795,1,8,0:0:0:0:
32,192,168111,6,0,P|40:264|128:296,1,150,0|8,0:0|0:0,0:0:0:0:
256,192,168743,1,0,0:0:0:0:
320,96,169058,2,0,B|376:96|376:96|408:80|408:80|432:104|432:104|432:152,1,150,8|0,0:0|0:0,0:0:0:0:
376,352,169690,1,8,0:0:0:0:
368,216,170006,2,0,P|369:134|305:94,1,150,0|8,0:0|0:0,0:0:0:0:
288,88,170401,1,8,0:0:0:0:
248,88,170480,1,8,0:0:0:0:
200,88,170558,1,8,0:0:0:0:
160,88,170637,2,0,P|128:152|168:232,1,150,2|8,0:0|0:0,0:0:0:0:
256,352,171269,5,0,0:0:0:0:
320,248,171585,2,0,P|320:168|240:152,1,150,8|0,0:0|0:0,0:0:0:0:
144,144,172216,1,8,0:0:0:0:
80,64,172532,2,0,P|128:24|208:72,1,150,0|8,0:0|0:0,0:0:0:0:
256,192,173164,1,0,0:0:0:0:
328,112,173480,2,0,P|416:160|400:224,1,150,8|0,0:0|0:0,0:0:0:0:
248,336,174111,2,0,B|208:288|200:240|200:240|248:256,1,150,8|0,0:0|0:0,0:0:0:0:
352,272,174743,2,0,B|384:200|376:144|376:144|344:168,1,150,8|0,0:0|0:0,0:0:0:0:
128,120,175374,6,0,L|88:72,3,37.5,8|8|8|8,0:0|0:0|0:0|0:0,0:0:0:0:
80,72,175690,2,0,P|24:120|48:192,1,150,2|0,0:0|0:0,0:0:0:0:
152,280,176164,2,0,L|152:328,2,37.5,8|8|2,0:0|0:0|0:0,0:0:0:0:
256,32,176637,1,0,0:0:0:0:
352,136,176795,2,0,L|384:96,2,37.5,8|8|2,0:0|0:0|0:0,0:0:0:0:
368,336,177269,1,0,0:0:0:0:
256,256,177427,2,0,L|208:256,2,37.5,8|8|2,0:0|0:0|0:0,0:0:0:0:
328,72,177901,1,0,0:0:0:0:
224,64,178058,2,0,L|192:32,2,37.5,8|8|2,0:0|0:0|0:0,0:0:0:0:
256,192,178532,5,0,0:0:0:0:
152,248,178848,2,0,B|152:296|120:344|120:344|104:280,1,150,0|0,0:0|0:0,0:0:0:0:
112,128,179480,2,0,B|112:80|144:32|144:32|160:96,1,150
256,192,180111,2,0,L|256:152,7,37.5,8|0|0|0|8|8|8|8,0:0|0:0|0:0|0:0|0:0|0:0|0:0|0:0,0:0:0:0:
416,64,180743,6,0,P|464:48|488:8,1,75,2|2,0:0|0:0,0:0:0:0:
96,320,181058,2,0,P|48:336|24:376,1,75,2|2,0:0|0:0,0:0:0:0:
64,88,181374,2,0,P|48:40|8:16,1,75,2|2,0:0|0:0,0:0:0:0:
448,296,181690,2,0,P|464:344|504:368,1,75,0|2,0:0|0:0,0:0:0:0:
424,152,182164,6,0,P|384:160|336:144,1,75,0|8,0:0|0:0,0:0:0:0:
256,32,182637,1,0,0:0:0:0:
256,352,182953,1,8,0:0:0:0:
168,144,183269,2,0,P|128:120|112:64,1,75,2|2,0:0|0:0,0:0:0:0:
344,240,183585,2,0,P|384:264|400:320,1,75,2|2,0:0|0:0,0:0:0:0:
304,104,183901,2,0,P|328:64|384:48,1,75,2|2,0:0|0:0,0:0:0:0:
208,280,184216,2,0,P|184:320|128:336,1,75,0|2,0:0|0:0,0:0:0:0:
104,112,184690,6,0,P|128:112|192:80,1,75,0|8,0:0|0:0,0:0:0:0:
256,32,185164,1,0,0:0:0:0:
256,192,185401,1,0,0:0:0:0:
256,192,185480,1,8,0:0:0:0:
416,120,185795,2,0,L|416:32,1,75,2|2,0:0|0:0,0:0:0:0:
96,264,186111,2,0,L|96:352,1,75,2|2,0:0|0:0,0:0:0:0:
184,32,186427,2,0,L|96:32,1,75,2|2,0:0|0:0,0:0:0:0:
328,352,186743,2,0,L|416:352,1,75,0|2,0:0|0:0,0:0:0:0:
256,192,187216,6,0,P|304:160|312:128,1,75,0|8,0:0|0:0,0:0:0:0:
376,48,187690,1,0,0:0:0:0:
376,48,187769,2,0,P|416:72|416:144,1,112.5,0|8,0:0|0:0,0:0:0:0:
80,32,188322,1,8,0:0:0:0:
192,24,188795,1,8,0:0:0:0:
296,24,189269,1,8,0:0:0:0:
416,48,189743,1,8,0:0:0:0:
256,192,189901,2,8,P|224:224|168:224,2,75,8|8|0,0:0|0:0|0:0,0:0:0:0:
360,152,190848,6,0,P|400:152|448:128,1,75,2|0,0:0|0:0,0:0:0:0:
256,232,191164,2,0,P|208:232|168:256,1,75,8|0,0:0|0:0,0:0:0:0:
136,328,191480,2,0,P|64:304|64:216,1,150,0|8,0:0|0:0,0:0:0:0:
96,136,192111,2,0,P|168:152|216:80,2,150,0|8|0,0:0|0:0|0:0,0:0:0:0:
48,56,193058,1,8,0:0:0:0:
214,100,193374,2,0,P|256:120|256:232,1,150,0|8,0:0|0:0,0:0:0:0:
208,328,193848,1,0,0:0:0:0:
152,264,194006,2,0,L|152:176,1,75
214,100,194322,2,0,P|278:116|342:60,2,150,8|0|8,0:0|0:0|0:0,0:0:0:0:
144,40,195111,5,0,0:0:0:0:
40,152,195269,1,0,0:0:0:0:
214,100,195427,1,0,0:0:0:0:
88,216,195585,2,0,P|88:256|72:296,1,75,8|0,0:0|0:0,0:0:0:0:
128,152,195901,2,0,P|208:176|264:144,1,150,0|8,0:0|0:0,0:0:0:0:
312,80,196374,1,0,0:0:0:0:
384,120,196532,2,0,P|384:200|312:240,1,150,0|8,0:0|0:0,0:0:0:0:
256,192,197006,2,0,P|256:160|272:120,1,75
332,238,197322,2,0,P|332:270|316:318,1,75,0|8,0:0|0:0,0:0:0:0:
256,352,197637,5,0,0:0:0:0:
192,272,197795,2,0,P|144:304|64:256,2,150,0|8|0,0:0|0:0|0:0,0:0:0:0:
240,200,198585,1,0,0:0:0:0:
344,88,198743,1,8,0:0:0:0:
256,32,198901,1,0,0:0:0:0:
320,192,199058,1,0,0:0:0:0:
256,120,199216,2,0,P|216:120|176:96,1,75,0|8,0:0|0:0,0:0:0:0:
40,176,199690,6,0,P|40:224|56:256,1,75,0|10,0:0|0:0,0:0:0:0:
112,320,200006,2,0,B|168:320|168:320|208:312|208:312|280:312,1,150,2|0,0:0|0:0,0:0:0:0:
296,288,200401,2,0,L|304:240,3,37.5,0|0|0|10,0:0|0:0|0:0|0:0,0:0:0:0:
320,208,200716,2,0,L|352:168,3,37.5
424,128,201269,5,8,0:0:0:0:
256,32,201427,2,0,P|208:64|208:96,1,75
256,192,201743,1,0,0:0:0:0:
160,256,201901,2,0,P|88:232|72:160,1,150,8|0,0:0|0:0,0:0:0:0:
112,88,202374,1,0,0:0:0:0:
184,144,202532,2,0,L|280:144,1,75,8|0,0:0|0:0,0:0:0:0:
344,88,202848,2,0,P|304:48|200:48,2,150,0|8|0,0:0|0:0|0:0,0:0:0:0:
384,184,203637,5,0,0:0:0:0:
312,256,203795,2,0,P|272:256|224:232,1,75,8|0,0:0|0:0,0:0:0:0:
136,240,204111,2,0,P|120:304|136:336,1,75
208,344,204427,2,0,B|256:344|256:344|304:336|304:336|384:336,1,150,8|0,0:0|0:0,0:0:0:0:
440,296,204901,1,0,0:0:0:0:
400,224,205058,2,0,B|400:176|400:176|408:144|408:144|408:64,1,150,8|0,0:0|0:0,0:0:0:0:
256,104,205690,6,0,P|184:152|216:200,2,150,8|0|8,0:0|0:0|0:0,0:0:0:0:
344,128,206480,1,0,0:0:0:0:
328,216,206637,2,0,P|304:256|376:336,1,150,0|8,0:0|0:0,0:0:0:0:
440,320,207111,1,0,0:0:0:0:
464,224,207269,2,0,L|464:56,1,150,10|2,0:0|0:0,0:0:0:0:
264,96,207901,6,0,L|224:88,2,37.5
296,128,208137,2,0,L|336:152,2,37.5
248,136,208374,2,0,L|208:160,2,37.5,0|0|2,0:0|0:0|0:0,0:0:0:0:
256,40,208848,2,0,P|216:48|176:48,1,75,8|0,0:0|0:0,0:0:0:0:
96,104,209164,2,0,P|96:136|72:184,1,75
120,256,209480,2,0,B|176:296|216:272|216:272|256:304,1,150,8|0,0:0|0:0,0:0:0:0:
352,328,209953,1,0,0:0:0:0:
416,256,210111,2,0,L|416:104,2,150,8|0|8,0:0|0:0|0:0,0:0:0:0:
352,328,210901,1,0,0:0:0:0:
280,272,211058,6,0,P|280:232|264:192,1,75
312,120,211374,2,0,P|360:128|424:40,1,150,8|0,0:0|0:0,0:0:0:0:
336,24,211848,1,0,0:0:0:0:
256,64,212006,2,0,P|216:96|216:144,1,75,8|0,0:0|0:0,0:0:0:0:
256,192,212322,2,0,B|328:168|368:208|368:208|408:176,2,150,0|8|0,0:0|0:0|0:0,0:0:0:0:
176,248,213111,6,0,P|176:304|152:336,1,75,0|8,0:0|0:0,0:0:0:0:
256,192,213427,2,0,P|256:160|272:112,1,75
336,72,213743,1,0,0:0:0:0:
400,136,213901,1,8,0:0:0:0:
368,216,214058,1,0,0:0:0:0:
296,264,214216,2,0,L|208:264,1,75
144,216,214532,2,0,L|144:40,2,150,8|0|8,0:0|0:0|0:0,0:0:0:0:
104,336,215480,6,0,P|64:312|48:264,1,75
144,216,215795,2,0,P|184:216|232:192,1,75,8|0,0:0|0:0,0:0:0:0:
272,104,216111,2,0,P|336:80|384:160,1,150,0|8,0:0|0:0,0:0:0:0:
384,352,216585,1,0,0:0:0:0:
312,248,216743,1,0,0:0:0:0:
385,133,216901,2,0,P|425:133|473:109,1,75,0|8,0:0|0:0,0:0:0:0:
312,56,217216,2,0,P|272:56|232:96,1,75
216,352,217532,2,0,L|120:352,1,75,10|10,0:0|0:0,0:0:0:0:
312,248,218006,6,0,L|304:208,3,37.5
296,176,218322,2,0,B|232:144|176:184|176:184|136:152,1,150,2|0,0:0|0:0,0:0:0:0:
360,104,218953,2,0,P|400:104|448:80,1,75,8|0,0:0|0:0,0:0:0:0:
296,176,219269,2,0,P|296:216|320:264,1,75
312,344,219585,2,0,P|232:344|184:288,1,150,8|0,0:0|0:0,0:0:0:0:
160,208,220058,1,0,0:0:0:0:
216,144,220216,2,0,P|272:104|208:64,2,150,8|0|8,0:0|0:0|0:0,0:0:0:0:
104,160,221006,5,0,0:0:0:0:
72,264,221164,2,0,L|136:336,1,75
472,128,221480,2,0,L|408:56,1,75,8|0,0:0|0:0,0:0:0:0:
96,192,221795,2,0,P|144:232|232:232,1,150,0|8,0:0|0:0,0:0:0:0:
288,184,222269,1,0,0:0:0:0:
352,120,222427,1,0,0:0:0:0:
432,160,222585,1,0,0:0:0:0:
432,248,222743,2,0,P|432:288|400:336,1,75,8|0,0:0|0:0,0:0:0:0:
352,208,223058,2,0,P|352:176|368:128,1,75
256,64,223374,6,0,L|208:40,4,37.5,8|8|8|8|10,0:0|0:0|0:0|0:0|0:0,0:0:0:0:
152,320,224006,2,0,P|72:288|72:232,1,150
96,136,224637,1,0,0:0:0:0:
184,192,224953,2,0,P|240:224|304:160,1,150,8|0,0:0|0:0,0:0:0:0:
352,72,225585,1,0,0:0:0:0:
440,176,225901,6,0,P|432:248|352:288,1,150,0|8,0:0|0:0,0:0:0:0:
256,192,226532,1,0,0:0:0:0:
328,104,226848,2,0,P|272:64|200:128,1,150
256,352,227480,1,8,0:0:0:0:
416,56,227795,1,8,0:0:0:0:
256,192,228743,1,10,0:0:0:0:
136,80,229058,6,0,P|80:112|80:136,1,75,8|0,0:0|0:0,0:0:0:0:
376,304,229374,2,0,P|432:272|432:248,1,75,8|0,0:0|0:0,0:0:0:0:
184,144,229690,2,0,P|128:176|128:200,1,75,8|0,0:0|0:0,0:0:0:0:
344,240,230006,2,0,P|400:208|400:184,1,75,8|0,0:0|0:0,0:0:0:0:
360,80,230322,2,0,B|304:80|304:80|272:96|272:96|216:72,1,150,8|8,0:0|0:0,0:0:0:0:
128,40,230795,5,0,0:0:0:0:
56,104,230953,1,8,0:0:0:0:
56,200,231111,1,0,0:0:0:0:
128,272,231269,2,0,B|168:272|168:272|216:256|216:256|272:304,1,150,8|8,0:0|0:0,0:0:0:0:
328,336,231743,2,0,P|376:336|424:320,1,75,0|8,0:0|0:0,0:0:0:0:
360,80,232058,2,0,P|312:80|264:96,1,75,0|8,0:0|0:0,0:0:0:0:
232,344,232374,2,0,P|280:344|328:328,1,75,0|8,0:0|0:0,0:0:0:0:
264,88,232690,2,0,P|216:88|168:104,1,75,0|8,0:0|0:0,0:0:0:0:
104,248,233164,5,8,0:0:0:0:
184,304,233322,2,0,P|216:304|256:272,1,75,0|8,0:0|0:0,0:0:0:0:
304,192,233637,1,0,0:0:0:0:
256,112,233795,2,0,B|200:96|160:144|160:144|112:112,1,150,10|8,0:0|0:0,0:0:0:0:
72,64,234269,1,0,0:0:0:0:
168,344,234427,1,8,0:0:0:0:
256,112,234585,1,0,0:0:0:0:
88,192,234743,1,8,0:0:0:0:
256,272,234901,1,0,0:0:0:0:
176,136,235058,5,8,0:0:0:0:
256,32,235216,1,0,0:0:0:0:
328,104,235374,2,0,P|384:128|384:224,1,150,8|8,0:0|0:0,0:0:0:0:
360,352,235848,1,0,0:0:0:0:
256,192,236006,1,8,0:0:0:0:
392,136,236164,1,0,0:0:0:0:
304,288,236322,2,0,B|264:288|264:288|200:272|200:272|152:304,1,150,8|8,0:0|0:0,0:0:0:0:
56,104,236795,6,0,P|96:72|136:72,1,75,0|8,0:0|0:0,0:0:0:0:
304,288,237111,2,0,P|336:288|400:256,1,75,0|8,0:0|0:0,0:0:0:0:
208,96,237427,2,0,P|176:96|112:128,1,75,0|8,0:0|0:0,0:0:0:0:
384,256,237743,2,0,P|416:256|480:224,1,75,0|8,0:0|0:0,0:0:0:0:
504,160,238058,1,0,0:0:0:0:
440,88,238216,2,0,P|400:88|352:64,1,75,8|8,0:0|0:0,0:0:0:0:
256,32,238532,1,8,0:0:0:0:
296,336,238690,1,8,0:0:0:0:
384,192,238848,2,0,P|320:152|256:192,1,150,10|0,0:0|0:0,0:0:0:0:
208,336,239322,6,0,P|128:344|128:272,1,150
208,80,239795,6,0,P|256:104|256:16,1,150,0|2,0:0|0:0,0:0:0:0:
408,288,241374,5,8,0:0:0:0:
