osu file format v14

[General]
AudioFilename: audio.mp3
AudioLeadIn: 0
PreviewTime: 41955
Countdown: 0
SampleSet: Normal
StackLeniency: 0.7
Mode: 1
LetterboxInBreaks: 0
WidescreenStoryboard: 0

[Editor]
DistanceSpacing: 0.1
BeatDivisor: 4
GridSize: 32
TimelineZoom: 1.9

[Metadata]
Title:Cherry Bomb
TitleUnicode:チェリボム
Artist:Silent Siren
ArtistUnicode:サイレントサイレン
Creator:Yoratama
Version:Oni
Source:
Tags:Rock J-pop Cut version aina yamauchi 山内あいな yukako kurosaka 黒坂優香子 hinako umemura 梅村妃奈子 sumire yoshida 吉田 菫 S Saisai Dreamusic
BeatmapID:969496
BeatmapSetID:451951

[Difficulty]
HPDrainRate:6
CircleSize:2
OverallDifficulty:6
ApproachRate:10
SliderMultiplier:1.4
SliderTickRate:1

[Events]
//Background and Video events
0,0,"Band.jpg",0,20
//Break Periods
//Storyboard Layer 0 (Background)
//Storyboard Layer 1 (Fail)
//Storyboard Layer 2 (Pass)
//Storyboard Layer 3 (Foreground)
//Storyboard Sound Samples

[TimingPoints]
1534,315.789473684211,4,1,0,80,1,0
1534,-125,4,1,0,80,0,0
11639,-100,4,1,0,90,0,0
29323,-100,4,1,0,100,0,1
40691,-100,4,1,0,100,0,0
41323,-125,4,1,0,70,0,0
52376,-111.111111111111,4,1,0,80,0,0
72270,-100,4,1,0,100,0,1
89955,-100,4,1,0,90,0,0
100060,-111.111111111111,4,1,0,80,0,0
110481,-105.263157894737,4,1,0,85,0,0
120270,-100,4,1,0,90,0,0
130376,-100,4,1,0,100,0,1
163218,-100,4,1,0,80,0,0
168270,-100,4,1,0,100,0,1
179639,-100,4,1,0,80,0,0

[HitObjects]
256,192,1534,5,4,0:0:0:0:
256,192,1849,1,8,0:0:0:0:
256,192,2007,1,8,0:0:0:0:
256,192,2323,1,0,0:0:0:0:
256,192,2481,1,8,0:0:0:0:
256,192,2639,1,0,0:0:0:0:
256,192,2797,1,0,0:0:0:0:
256,192,3112,1,8,0:0:0:0:
256,192,3270,1,8,0:0:0:0:
256,192,3586,1,0,0:0:0:0:
256,192,3665,1,0,0:0:0:0:
256,192,3744,1,8,0:0:0:0:
256,192,3902,1,0,0:0:0:0:
256,192,4060,1,0,0:0:0:0:
256,192,4376,1,8,0:0:0:0:
256,192,4534,1,8,0:0:0:0:
256,192,4849,1,0,0:0:0:0:
256,192,5007,1,8,0:0:0:0:
256,192,5165,1,0,0:0:0:0:
256,192,5323,1,0,0:0:0:0:
256,192,5639,1,8,0:0:0:0:
256,192,5797,1,8,0:0:0:0:
256,192,6112,1,8,0:0:0:0:
256,192,6191,1,8,0:0:0:0:
256,192,6270,1,0,0:0:0:0:
256,192,6586,1,4,0:0:0:0:
256,192,6902,1,8,0:0:0:0:
256,192,7060,1,8,0:0:0:0:
256,192,7376,1,0,0:0:0:0:
256,192,7534,1,8,0:0:0:0:
256,192,7691,1,0,0:0:0:0:
256,192,7849,1,0,0:0:0:0:
256,192,8165,1,8,0:0:0:0:
256,192,8323,1,8,0:0:0:0:
256,192,8639,1,8,0:0:0:0:
256,192,8718,1,8,0:0:0:0:
256,192,8797,1,0,0:0:0:0:
256,192,8955,1,8,0:0:0:0:
256,192,9112,1,0,0:0:0:0:
256,192,9428,1,8,0:0:0:0:
256,192,9586,1,8,0:0:0:0:
256,192,9902,1,0,0:0:0:0:
256,192,10060,1,8,0:0:0:0:
256,192,10218,1,0,0:0:0:0:
256,192,10376,1,6,0:0:0:0:
256,192,10691,1,6,0:0:0:0:
256,192,11007,1,4,0:0:0:0:
256,192,11639,1,4,0:0:0:0:
256,192,11955,1,8,0:0:0:0:
256,192,12270,1,0,0:0:0:0:
256,192,12428,1,0,0:0:0:0:
256,192,12586,1,8,0:0:0:0:
256,192,12902,1,0,0:0:0:0:
256,192,13060,1,0,0:0:0:0:
256,192,13218,1,8,0:0:0:0:
256,192,13376,1,0,0:0:0:0:
256,192,13455,1,0,0:0:0:0:
256,192,13534,1,0,0:0:0:0:
256,192,13691,1,0,0:0:0:0:
256,192,13849,1,8,0:0:0:0:
256,192,14007,1,8,0:0:0:0:
256,192,14165,1,0,0:0:0:0:
256,192,14481,1,8,0:0:0:0:
256,192,14797,1,0,0:0:0:0:
256,192,14955,1,0,0:0:0:0:
256,192,15112,1,8,0:0:0:0:
256,192,15428,1,0,0:0:0:0:
256,192,15586,1,0,0:0:0:0:
256,192,15744,1,8,0:0:0:0:
256,192,15823,1,8,0:0:0:0:
256,192,15902,1,0,0:0:0:0:
256,192,16060,1,8,0:0:0:0:
256,192,16139,1,0,0:0:0:0:
256,192,16218,1,0,0:0:0:0:
256,192,16376,1,8,0:0:0:0:
256,192,16534,1,0,0:0:0:0:
256,192,16691,1,0,0:0:0:0:
256,192,17007,1,8,0:0:0:0:
256,192,17165,1,0,0:0:0:0:
256,192,17323,1,0,0:0:0:0:
256,192,17639,1,8,0:0:0:0:
256,192,17955,1,0,0:0:0:0:
256,192,18112,1,0,0:0:0:0:
256,192,18270,1,8,0:0:0:0:
256,192,18428,1,0,0:0:0:0:
256,192,18586,1,8,0:0:0:0:
256,192,18902,1,8,0:0:0:0:
256,192,19218,1,0,0:0:0:0:
256,192,19297,1,0,0:0:0:0:
256,192,19376,1,0,0:0:0:0:
256,192,19534,1,8,0:0:0:0:
256,192,19691,1,0,0:0:0:0:
256,192,20007,1,0,0:0:0:0:
256,192,20165,1,8,0:0:0:0:
256,192,20481,1,8,0:0:0:0:
256,192,20560,1,8,0:0:0:0:
256,192,20639,1,0,0:0:0:0:
256,192,20797,1,8,0:0:0:0:
256,192,20876,1,8,0:0:0:0:
256,192,20955,1,0,0:0:0:0:
256,192,21112,1,0,0:0:0:0:
256,192,21191,1,0,0:0:0:0:
256,192,21270,1,0,0:0:0:0:
256,192,21349,1,0,0:0:0:0:
256,192,21428,1,8,0:0:0:0:
256,192,21744,1,4,0:0:0:0:
256,192,22060,1,8,0:0:0:0:
256,192,22376,1,0,0:0:0:0:
256,192,22534,1,0,0:0:0:0:
256,192,22691,1,8,0:0:0:0:
256,192,23007,1,0,0:0:0:0:
256,192,23165,1,0,0:0:0:0:
256,192,23323,1,8,0:0:0:0:
256,192,23481,1,0,0:0:0:0:
256,192,23560,1,0,0:0:0:0:
256,192,23639,1,0,0:0:0:0:
256,192,23797,1,0,0:0:0:0:
256,192,23955,1,8,0:0:0:0:
256,192,24112,1,8,0:0:0:0:
256,192,24270,1,0,0:0:0:0:
256,192,24586,1,8,0:0:0:0:
256,192,24902,1,0,0:0:0:0:
256,192,25060,1,0,0:0:0:0:
256,192,25218,1,8,0:0:0:0:
256,192,25376,1,8,0:0:0:0:
256,192,25534,1,0,0:0:0:0:
256,192,25691,1,0,0:0:0:0:
256,192,25849,1,8,0:0:0:0:
256,192,26165,1,0,0:0:0:0:
256,192,26323,1,0,0:0:0:0:
256,192,26481,1,8,0:0:0:0:
256,192,26639,1,0,0:0:0:0:
256,192,26797,1,8,0:0:0:0:
256,192,26876,1,8,0:0:0:0:
256,192,26955,1,0,0:0:0:0:
256,192,27112,1,8,0:0:0:0:
256,192,27270,1,0,0:0:0:0:
256,192,27428,1,8,0:0:0:0:
256,192,27507,1,8,0:0:0:0:
256,192,27586,1,0,0:0:0:0:
256,192,27744,1,8,0:0:0:0:
256,192,28060,1,4,0:0:0:0:
256,192,28376,1,4,0:0:0:0:
256,192,28691,1,8,0:0:0:0:
256,192,28770,1,8,0:0:0:0:
256,192,28849,1,0,0:0:0:0:
256,192,29007,1,8,0:0:0:0:
256,192,29086,1,8,0:0:0:0:
256,192,29165,1,0,0:0:0:0:
256,192,29323,1,4,0:0:0:0:
256,192,29639,1,8,0:0:0:0:
256,192,29797,1,0,0:0:0:0:
256,192,29876,1,0,0:0:0:0:
256,192,29955,1,8,0:0:0:0:
256,192,30112,1,0,0:0:0:0:
256,192,30270,1,8,0:0:0:0:
256,192,30428,1,0,0:0:0:0:
256,192,30507,1,0,0:0:0:0:
256,192,30586,1,0,0:0:0:0:
256,192,30744,1,0,0:0:0:0:
256,192,30902,1,8,0:0:0:0:
256,192,31060,1,0,0:0:0:0:
256,192,31218,1,8,0:0:0:0:
256,192,31297,1,8,0:0:0:0:
256,192,31376,1,0,0:0:0:0:
256,192,31534,1,0,0:0:0:0:
256,192,31691,1,0,0:0:0:0:
256,192,31770,1,0,0:0:0:0:
256,192,31849,1,8,0:0:0:0:
256,192,32007,1,0,0:0:0:0:
256,192,32165,1,8,0:0:0:0:
256,192,32323,1,0,0:0:0:0:
256,192,32402,1,0,0:0:0:0:
256,192,32481,1,8,0:0:0:0:
256,192,32639,1,0,0:0:0:0:
256,192,32797,1,8,0:0:0:0:
256,192,32955,1,0,0:0:0:0:
256,192,33034,1,0,0:0:0:0:
256,192,33112,1,0,0:0:0:0:
256,192,33270,1,0,0:0:0:0:
256,192,33428,1,8,0:0:0:0:
256,192,33507,1,8,0:0:0:0:
256,192,33586,1,0,0:0:0:0:
256,192,33744,1,8,0:0:0:0:
256,192,33902,1,0,0:0:0:0:
256,192,34060,1,8,0:0:0:0:
256,192,34218,1,0,0:0:0:0:
256,192,34376,1,4,0:0:0:0:
256,192,34691,1,8,0:0:0:0:
256,192,34849,1,0,0:0:0:0:
256,192,34928,1,0,0:0:0:0:
256,192,35007,1,8,0:0:0:0:
256,192,35165,1,0,0:0:0:0:
256,192,35323,1,8,0:0:0:0:
256,192,35481,1,0,0:0:0:0:
256,192,35560,1,0,0:0:0:0:
256,192,35639,1,0,0:0:0:0:
256,192,35797,1,0,0:0:0:0:
256,192,35955,1,8,0:0:0:0:
256,192,36112,1,0,0:0:0:0:
256,192,36270,1,8,0:0:0:0:
256,192,36349,1,8,0:0:0:0:
256,192,36428,1,0,0:0:0:0:
256,192,36586,1,0,0:0:0:0:
256,192,36744,1,0,0:0:0:0:
256,192,36823,1,0,0:0:0:0:
256,192,36902,1,8,0:0:0:0:
256,192,37060,1,0,0:0:0:0:
256,192,37218,1,8,0:0:0:0:
256,192,37376,1,0,0:0:0:0:
256,192,37455,1,0,0:0:0:0:
256,192,37534,1,8,0:0:0:0:
256,192,37691,1,0,0:0:0:0:
256,192,37849,1,8,0:0:0:0:
256,192,38007,1,0,0:0:0:0:
256,192,38086,1,0,0:0:0:0:
256,192,38165,1,0,0:0:0:0:
256,192,38323,1,0,0:0:0:0:
256,192,38481,1,8,0:0:0:0:
256,192,38560,1,8,0:0:0:0:
256,192,38639,1,0,0:0:0:0:
256,192,38797,1,8,0:0:0:0:
256,192,38955,1,8,0:0:0:0:
256,192,39112,1,8,0:0:0:0:
256,192,39191,1,8,0:0:0:0:
256,192,39270,1,8,0:0:0:0:
256,192,39349,1,8,0:0:0:0:
256,195,39428,1,0,0:0:0:0:
256,195,39744,1,8,0:0:0:0:
256,195,39902,1,0,0:0:0:0:
256,195,40218,1,0,0:0:0:0:
256,195,40376,1,8,0:0:0:0:
256,195,40691,1,6,0:0:0:0:
256,195,41323,1,0,0:0:0:0:
256,195,41402,1,0,0:0:0:0:
256,195,41481,1,0,0:0:0:0:
256,195,41560,1,0,0:0:0:0:
256,195,41639,1,2,0:0:0:0:
256,195,41955,1,4,0:0:0:0:
256,195,42270,1,8,0:0:0:0:
256,195,42586,1,0,0:0:0:0:
256,192,42744,1,0,0:0:0:0:
256,195,42902,1,8,0:0:0:0:
256,195,43218,1,0,0:0:0:0:
256,192,43376,1,0,0:0:0:0:
256,195,43534,1,8,0:0:0:0:
256,195,43691,1,0,0:0:0:0:
256,195,44007,1,0,0:0:0:0:
256,195,44165,1,8,0:0:0:0:
256,195,44481,1,0,0:0:0:0:
256,195,44797,1,8,0:0:0:0:
256,195,45112,1,0,0:0:0:0:
256,195,45270,1,0,0:0:0:0:
256,195,45428,1,8,0:0:0:0:
256,195,45586,1,0,0:0:0:0:
256,195,45744,1,0,0:0:0:0:
256,195,46060,1,8,0:0:0:0:
256,195,46218,1,0,0:0:0:0:
256,195,46376,1,0,0:0:0:0:
256,195,46534,1,8,0:0:0:0:
256,195,46691,1,8,0:0:0:0:
256,195,47007,1,0,0:0:0:0:
256,195,47323,1,8,0:0:0:0:
256,195,47639,1,0,0:0:0:0:
256,195,47797,1,0,0:0:0:0:
256,195,47955,1,8,0:0:0:0:
256,195,48270,1,0,0:0:0:0:
256,195,48586,1,8,0:0:0:0:
256,195,48744,1,0,0:0:0:0:
256,195,48902,1,0,0:0:0:0:
256,195,49060,1,0,0:0:0:0:
256,195,49218,1,8,0:0:0:0:
256,195,49534,1,0,0:0:0:0:
256,195,49849,1,8,0:0:0:0:
256,195,50007,1,0,0:0:0:0:
256,195,50323,1,0,0:0:0:0:
256,195,50481,1,8,0:0:0:0:
256,195,50639,1,8,0:0:0:0:
256,195,50797,1,0,0:0:0:0:
256,195,51112,1,8,0:0:0:0:
256,195,51270,1,0,0:0:0:0:
258,198,51349,1,0,0:0:0:0:
256,195,51428,1,8,0:0:0:0:
256,195,51586,1,0,0:0:0:0:
256,195,51744,1,8,0:0:0:0:
256,195,51902,1,8,0:0:0:0:
256,195,51981,1,8,0:0:0:0:
256,195,52060,1,0,0:0:0:0:
256,195,52376,1,8,0:0:0:0:
256,195,52692,1,0,0:0:0:0:
256,192,52850,1,0,0:0:0:0:
256,195,53008,1,8,0:0:0:0:
256,195,53165,1,0,0:0:0:0:
256,195,53244,1,0,0:0:0:0:
256,195,53324,1,0,0:0:0:0:
256,195,53481,1,0,0:0:0:0:
256,195,53640,1,8,0:0:0:0:
256,195,53797,1,0,0:0:0:0:
256,195,53955,1,8,0:0:0:0:
256,195,54034,1,8,0:0:0:0:
256,195,54113,1,0,0:0:0:0:
256,195,54271,1,8,0:0:0:0:
256,195,54587,1,0,0:0:0:0:
256,195,54903,1,8,0:0:0:0:
256,195,55218,1,0,0:0:0:0:
256,195,55376,1,0,0:0:0:0:
256,195,55534,1,8,0:0:0:0:
256,195,55691,1,0,0:0:0:0:
256,195,55770,1,0,0:0:0:0:
256,195,55850,1,0,0:0:0:0:
256,195,56007,1,0,0:0:0:0:
256,195,56166,1,8,0:0:0:0:
256,195,56324,1,0,0:0:0:0:
256,195,56482,1,0,0:0:0:0:
256,195,56560,1,0,0:0:0:0:
256,195,56640,1,8,0:0:0:0:
256,195,56797,1,8,0:0:0:0:
256,195,57113,1,0,0:0:0:0:
256,195,57429,1,8,0:0:0:0:
256,195,57586,1,0,0:0:0:0:
256,195,57903,1,0,0:0:0:0:
256,195,58061,1,8,0:0:0:0:
256,195,58218,1,8,0:0:0:0:
256,195,58376,1,0,0:0:0:0:
256,195,58692,1,8,0:0:0:0:
256,195,58850,1,0,0:0:0:0:
256,195,59165,1,0,0:0:0:0:
256,195,59324,1,8,0:0:0:0:
256,195,59481,1,0,0:0:0:0:
256,195,59640,1,0,0:0:0:0:
256,195,59955,1,8,0:0:0:0:
256,195,60270,1,0,0:0:0:0:
256,195,60429,1,0,0:0:0:0:
256,195,60507,1,0,0:0:0:0:
256,195,60587,1,8,0:0:0:0:
256,195,60745,1,4,0:0:0:0:
256,195,61060,1,0,0:0:0:0:
256,195,61218,1,8,0:0:0:0:
256,195,61376,1,0,0:0:0:0:
258,198,61455,1,0,0:0:0:0:
256,195,61534,1,8,0:0:0:0:
256,195,61692,1,0,0:0:0:0:
256,195,61850,1,8,0:0:0:0:
256,195,62008,1,8,0:0:0:0:
256,195,62086,1,8,0:0:0:0:
256,195,62165,1,0,0:0:0:0:
256,195,62323,1,0,0:0:0:0:
256,195,62481,1,8,0:0:0:0:
256,195,62639,1,0,0:0:0:0:
256,195,62718,1,0,0:0:0:0:
256,195,62797,1,0,0:0:0:0:
256,195,62955,1,0,0:0:0:0:
256,195,63112,1,8,0:0:0:0:
256,195,63428,1,0,0:0:0:0:
256,195,63586,1,0,0:0:0:0:
256,195,63744,1,8,0:0:0:0:
256,195,63902,1,0,0:0:0:0:
256,195,63981,1,0,0:0:0:0:
256,195,64060,1,0,0:0:0:0:
256,195,64218,1,0,0:0:0:0:
256,195,64376,1,8,0:0:0:0:
256,195,64534,1,8,0:0:0:0:
256,195,64612,1,8,0:0:0:0:
256,195,64691,1,0,0:0:0:0:
256,195,64849,1,0,0:0:0:0:
256,195,65007,1,8,0:0:0:0:
256,195,65165,1,0,0:0:0:0:
256,195,65244,1,0,0:0:0:0:
256,195,65323,1,0,0:0:0:0:
256,195,65481,1,0,0:0:0:0:
256,195,65639,1,8,0:0:0:0:
256,195,65955,1,0,0:0:0:0:
256,195,66112,1,0,0:0:0:0:
256,195,66270,1,8,0:0:0:0:
256,195,66428,1,0,0:0:0:0:
256,195,66507,1,0,0:0:0:0:
256,195,66586,1,8,0:0:0:0:
256,195,66744,1,8,0:0:0:0:
256,195,66902,1,8,0:0:0:0:
256,195,67060,1,4,0:0:0:0:
256,195,67376,1,0,0:0:0:0:
256,195,67534,1,8,0:0:0:0:
256,195,67849,1,8,0:0:0:0:
256,195,68007,1,0,0:0:0:0:
256,195,68165,1,8,0:0:0:0:
256,195,68323,1,0,0:0:0:0:
256,195,68481,1,8,0:0:0:0:
256,195,68797,1,8,0:0:0:0:
256,195,68955,1,0,0:0:0:0:
256,195,69112,1,8,0:0:0:0:
256,195,69270,1,8,0:0:0:0:
256,195,69349,1,8,0:0:0:0:
256,195,69428,1,8,0:0:0:0:
256,195,69586,1,4,0:0:0:0:
256,195,70060,1,8,0:0:0:0:
256,195,70218,1,0,0:0:0:0:
256,195,70376,1,8,0:0:0:0:
256,195,70534,1,8,0:0:0:0:
256,195,70691,1,0,0:0:0:0:
256,195,70849,1,12,0:0:0:0:
256,195,71165,1,12,0:0:0:0:
256,195,71481,1,12,0:0:0:0:
256,195,71639,1,0,0:0:0:0:
256,195,71718,1,0,0:0:0:0:
256,195,71797,1,0,0:0:0:0:
256,195,71955,1,8,0:0:0:0:
256,192,72270,1,4,0:0:0:0:
256,192,72586,1,8,0:0:0:0:
256,192,72901,1,0,0:0:0:0:
256,192,73059,1,0,0:0:0:0:
256,192,73217,1,8,0:0:0:0:
256,192,73533,1,0,0:0:0:0:
256,192,73691,1,0,0:0:0:0:
256,192,73849,1,8,0:0:0:0:
256,192,74007,1,0,0:0:0:0:
256,192,74086,1,0,0:0:0:0:
256,192,74165,1,0,0:0:0:0:
256,192,74322,1,0,0:0:0:0:
256,192,74480,1,8,0:0:0:0:
256,192,74638,1,8,0:0:0:0:
256,192,74796,1,0,0:0:0:0:
256,192,75112,1,8,0:0:0:0:
256,192,75428,1,0,0:0:0:0:
256,192,75586,1,0,0:0:0:0:
256,192,75743,1,8,0:0:0:0:
256,192,76059,1,0,0:0:0:0:
256,192,76217,1,0,0:0:0:0:
256,192,76375,1,8,0:0:0:0:
256,192,76455,1,8,0:0:0:0:
256,192,76533,1,0,0:0:0:0:
256,192,76691,1,8,0:0:0:0:
256,192,76770,1,0,0:0:0:0:
256,192,76849,1,0,0:0:0:0:
256,192,77007,1,8,0:0:0:0:
256,192,77165,1,0,0:0:0:0:
256,192,77322,1,0,0:0:0:0:
256,192,77638,1,8,0:0:0:0:
256,192,77796,1,0,0:0:0:0:
256,192,77954,1,0,0:0:0:0:
256,192,78270,1,8,0:0:0:0:
256,192,78586,1,0,0:0:0:0:
256,192,78743,1,0,0:0:0:0:
256,192,78901,1,8,0:0:0:0:
256,192,79059,1,0,0:0:0:0:
256,192,79218,1,8,0:0:0:0:
256,192,79533,1,8,0:0:0:0:
256,192,79849,1,0,0:0:0:0:
256,192,79928,1,0,0:0:0:0:
256,192,80007,1,0,0:0:0:0:
256,192,80165,1,8,0:0:0:0:
256,192,80322,1,0,0:0:0:0:
256,192,80638,1,0,0:0:0:0:
256,192,80796,1,8,0:0:0:0:
256,192,81112,1,8,0:0:0:0:
256,192,81191,1,8,0:0:0:0:
256,192,81270,1,0,0:0:0:0:
256,192,81428,1,8,0:0:0:0:
256,192,81507,1,8,0:0:0:0:
256,192,81586,1,0,0:0:0:0:
256,192,81743,1,0,0:0:0:0:
256,192,81822,1,0,0:0:0:0:
256,192,81901,1,0,0:0:0:0:
256,192,81980,1,0,0:0:0:0:
256,192,82059,1,8,0:0:0:0:
256,192,82375,1,4,0:0:0:0:
256,192,82691,1,8,0:0:0:0:
256,192,83007,1,0,0:0:0:0:
256,192,83165,1,0,0:0:0:0:
256,192,83322,1,8,0:0:0:0:
256,192,83638,1,0,0:0:0:0:
256,192,83796,1,0,0:0:0:0:
256,192,83954,1,8,0:0:0:0:
256,192,84112,1,0,0:0:0:0:
256,192,84191,1,0,0:0:0:0:
256,192,84270,1,0,0:0:0:0:
256,192,84428,1,0,0:0:0:0:
256,192,84586,1,8,0:0:0:0:
256,192,84743,1,8,0:0:0:0:
256,192,84901,1,0,0:0:0:0:
256,192,85217,1,8,0:0:0:0:
256,192,85533,1,0,0:0:0:0:
256,192,85691,1,0,0:0:0:0:
256,192,85849,1,8,0:0:0:0:
256,192,86007,1,8,0:0:0:0:
256,192,86165,1,0,0:0:0:0:
256,192,86322,1,0,0:0:0:0:
256,192,86480,1,8,0:0:0:0:
256,192,86797,1,0,0:0:0:0:
256,192,86954,1,0,0:0:0:0:
256,192,87112,1,8,0:0:0:0:
256,192,87270,1,0,0:0:0:0:
256,192,87428,1,8,0:0:0:0:
256,192,87507,1,8,0:0:0:0:
256,192,87586,1,0,0:0:0:0:
256,192,87743,1,8,0:0:0:0:
256,192,87901,1,0,0:0:0:0:
256,192,88059,1,8,0:0:0:0:
256,192,88138,1,8,0:0:0:0:
256,192,88217,1,0,0:0:0:0:
256,192,88375,1,8,0:0:0:0:
256,192,88691,1,4,0:0:0:0:
256,192,89007,1,4,0:0:0:0:
256,192,89322,1,8,0:0:0:0:
256,192,89402,1,8,0:0:0:0:
256,192,89480,1,0,0:0:0:0:
256,192,89638,1,8,0:0:0:0:
256,192,89718,1,8,0:0:0:0:
256,192,89797,1,0,0:0:0:0:
256,192,89955,1,4,0:0:0:0:
256,192,90270,1,8,0:0:0:0:
256,192,90428,1,0,0:0:0:0:
256,192,90586,1,8,0:0:0:0:
256,192,90665,1,8,0:0:0:0:
256,192,90744,1,0,0:0:0:0:
256,192,90902,1,8,0:0:0:0:
256,192,91060,1,0,0:0:0:0:
256,192,91139,1,0,0:0:0:0:
256,192,91218,1,8,0:0:0:0:
256,192,91376,1,0,0:0:0:0:
256,192,91534,1,8,0:0:0:0:
256,192,91691,1,0,0:0:0:0:
256,192,91849,1,8,0:0:0:0:
256,192,92007,1,0,0:0:0:0:
256,192,92086,1,0,0:0:0:0:
256,192,92165,1,8,0:0:0:0:
256,192,92323,1,0,0:0:0:0:
256,192,92402,1,0,0:0:0:0:
256,192,92481,1,0,0:0:0:0:
256,192,92797,1,8,0:0:0:0:
256,192,92955,1,0,0:0:0:0:
256,192,93112,1,8,0:0:0:0:
256,192,93191,1,0,0:0:0:0:
256,192,93270,1,0,0:0:0:0:
256,192,93428,1,8,0:0:0:0:
256,192,93586,1,0,0:0:0:0:
256,192,93665,1,0,0:0:0:0:
256,192,93744,1,8,0:0:0:0:
256,192,93902,1,0,0:0:0:0:
256,192,94060,1,8,0:0:0:0:
256,192,94218,1,0,0:0:0:0:
256,192,94376,1,8,0:0:0:0:
256,192,94455,1,0,0:0:0:0:
256,192,94534,1,0,0:0:0:0:
256,192,94612,1,0,0:0:0:0:
256,192,94691,1,8,0:0:0:0:
256,192,94849,1,0,0:0:0:0:
256,192,95007,1,4,0:0:0:0:
256,192,95323,1,8,0:0:0:0:
256,192,95481,1,0,0:0:0:0:
256,192,95639,1,8,0:0:0:0:
256,192,95718,1,8,0:0:0:0:
256,192,95797,1,0,0:0:0:0:
256,192,95955,1,0,0:0:0:0:
256,192,96113,1,8,0:0:0:0:
256,192,96270,1,0,0:0:0:0:
256,192,96428,1,0,0:0:0:0:
256,192,96586,1,8,0:0:0:0:
256,192,96744,1,0,0:0:0:0:
256,192,96902,1,8,0:0:0:0:
256,192,97060,1,0,0:0:0:0:
256,192,97139,1,0,0:0:0:0:
256,192,97218,1,8,0:0:0:0:
256,192,97376,1,0,0:0:0:0:
256,192,97455,1,0,0:0:0:0:
256,192,97534,1,0,0:0:0:0:
256,192,97850,1,8,0:0:0:0:
256,192,98008,1,0,0:0:0:0:
256,192,98165,1,8,0:0:0:0:
256,192,98244,1,8,0:0:0:0:
256,192,98323,1,0,0:0:0:0:
256,192,98481,1,0,0:0:0:0:
256,192,98639,1,8,0:0:0:0:
256,192,98797,1,0,0:0:0:0:
256,192,98955,1,0,0:0:0:0:
256,192,99112,1,0,0:0:0:0:
256,192,99271,1,8,0:0:0:0:
256,192,99429,1,0,0:0:0:0:
256,192,99586,1,8,0:0:0:0:
256,192,99665,1,8,0:0:0:0:
256,192,99744,1,0,0:0:0:0:
256,192,100060,1,4,0:0:0:0:
256,192,100376,1,0,0:0:0:0:
256,192,100691,1,0,0:0:0:0:
256,192,101007,1,0,0:0:0:0:
256,192,101323,1,0,0:0:0:0:
256,192,101481,1,8,0:0:0:0:
256,192,101639,1,8,0:0:0:0:
256,192,101797,1,0,0:0:0:0:
256,192,101955,1,8,0:0:0:0:
256,192,102112,1,0,0:0:0:0:
256,192,102270,1,8,0:0:0:0:
256,192,102586,1,0,0:0:0:0:
256,192,102902,1,0,0:0:0:0:
256,192,103218,1,0,0:0:0:0:
256,192,103534,1,0,0:0:0:0:
256,192,103849,1,0,0:0:0:0:
256,192,104007,1,8,0:0:0:0:
256,192,104165,1,8,0:0:0:0:
256,192,104323,1,0,0:0:0:0:
256,192,104481,1,8,0:0:0:0:
256,192,104639,1,0,0:0:0:0:
256,192,104797,1,8,0:0:0:0:
256,192,104955,1,0,0:0:0:0:
256,192,105034,1,8,0:0:0:0:
256,192,105112,1,0,0:0:0:0:
256,192,105428,1,8,0:0:0:0:
256,192,105744,1,0,0:0:0:0:
256,192,106060,1,8,0:0:0:0:
256,192,106376,1,0,0:0:0:0:
256,192,106534,1,8,0:0:0:0:
256,192,106691,1,8,0:0:0:0:
256,192,106849,1,0,0:0:0:0:
256,192,107007,1,8,0:0:0:0:
256,192,107165,1,0,0:0:0:0:
256,192,107323,1,8,0:0:0:0:
256,192,107639,1,0,0:0:0:0:
256,192,107955,1,8,0:0:0:0:
256,192,108270,1,0,0:0:0:0:
256,192,108586,1,8,0:0:0:0:
256,192,108902,1,0,0:0:0:0:
256,192,109060,1,8,0:0:0:0:
256,192,109218,1,8,0:0:0:0:
256,192,109376,1,0,0:0:0:0:
256,192,109534,1,8,0:0:0:0:
256,192,109691,1,0,0:0:0:0:
256,192,109849,1,8,0:0:0:0:
256,192,110007,1,8,0:0:0:0:
256,192,110086,1,8,0:0:0:0:
256,192,110165,1,0,0:0:0:0:
256,192,110481,1,8,0:0:0:0:
256,192,110797,1,0,0:0:0:0:
256,192,111112,1,8,0:0:0:0:
256,192,111428,1,0,0:0:0:0:
256,192,111586,1,8,0:0:0:0:
256,192,111665,1,0,0:0:0:0:
256,192,111743,1,8,0:0:0:0:
256,192,111901,1,0,0:0:0:0:
256,192,112059,1,8,0:0:0:0:
255,188,112139,1,0,0:0:0:0:
256,192,112218,1,0,0:0:0:0:
256,192,112376,1,8,0:0:0:0:
256,192,112691,1,0,0:0:0:0:
256,192,113007,1,8,0:0:0:0:
256,192,113323,1,0,0:0:0:0:
256,192,113639,1,8,0:0:0:0:
256,192,113955,1,0,0:0:0:0:
256,192,114112,1,8,0:0:0:0:
256,192,114191,1,0,0:0:0:0:
256,192,114269,1,8,0:0:0:0:
256,192,114427,1,0,0:0:0:0:
256,192,114585,1,8,0:0:0:0:
255,188,114665,1,0,0:0:0:0:
256,192,114744,1,0,0:0:0:0:
256,192,114902,1,8,0:0:0:0:
256,192,115139,1,0,0:0:0:0:
256,192,115218,1,8,0:0:0:0:
256,192,115376,1,8,0:0:0:0:
256,192,115534,1,4,0:0:0:0:
256,192,115770,1,0,0:0:0:0:
256,192,115849,1,8,0:0:0:0:
256,192,116007,1,8,0:0:0:0:
256,192,116165,1,4,0:0:0:0:
256,192,116402,1,0,0:0:0:0:
256,192,116481,1,8,0:0:0:0:
256,192,116639,1,8,0:0:0:0:
256,192,116797,1,4,0:0:0:0:
256,192,117034,1,0,0:0:0:0:
256,192,117112,1,8,0:0:0:0:
256,192,117270,1,8,0:0:0:0:
256,192,117428,1,4,0:0:0:0:
256,192,117744,1,0,0:0:0:0:
256,192,117823,1,0,0:0:0:0:
256,192,117902,1,8,0:0:0:0:
256,192,118060,1,4,0:0:0:0:
256,192,118376,1,8,0:0:0:0:
256,192,118455,1,8,0:0:0:0:
256,192,118534,1,0,0:0:0:0:
256,192,118691,1,4,0:0:0:0:
256,192,119007,1,14,0:0:0:0:
256,192,119323,1,14,0:0:0:0:
256,192,119639,1,8,0:0:0:0:
256,192,119718,1,8,0:0:0:0:
256,192,119797,1,0,0:0:0:0:
256,192,119876,1,0,0:0:0:0:
256,192,119955,1,8,0:0:0:0:
256,192,120034,1,8,0:0:0:0:
256,192,120112,1,0,0:0:0:0:
256,192,120270,1,0,0:0:0:0:
256,192,120428,1,0,0:0:0:0:
256,192,120586,1,8,0:0:0:0:
256,192,120744,1,0,0:0:0:0:
256,192,120902,1,0,0:0:0:0:
256,192,120981,1,0,0:0:0:0:
256,192,121060,1,0,0:0:0:0:
256,192,121218,1,0,0:0:0:0:
256,192,121376,1,6,0:0:0:0:
256,192,121691,1,0,0:0:0:0:
256,192,121849,1,8,0:0:0:0:
256,192,122007,1,0,0:0:0:0:
256,192,122086,1,0,0:0:0:0:
256,192,122165,1,8,0:0:0:0:
256,192,122323,1,0,0:0:0:0:
256,192,122481,1,8,0:0:0:0:
256,192,122797,1,0,0:0:0:0:
256,192,122955,1,0,0:0:0:0:
256,192,123112,1,8,0:0:0:0:
256,192,123270,1,0,0:0:0:0:
256,192,123428,1,0,0:0:0:0:
256,192,123507,1,0,0:0:0:0:
256,192,123586,1,0,0:0:0:0:
256,192,123744,1,0,0:0:0:0:
256,192,123902,1,6,0:0:0:0:
256,192,124218,1,0,0:0:0:0:
256,192,124376,1,8,0:0:0:0:
256,192,124455,1,8,0:0:0:0:
256,192,124534,1,8,0:0:0:0:
256,192,124691,1,0,0:0:0:0:
256,192,124770,1,0,0:0:0:0:
256,192,124849,1,0,0:0:0:0:
256,192,125007,1,8,0:0:0:0:
256,192,125323,1,0,0:0:0:0:
256,192,125481,1,0,0:0:0:0:
256,192,125639,1,8,0:0:0:0:
256,192,125797,1,0,0:0:0:0:
256,192,125955,1,0,0:0:0:0:
256,192,126034,1,0,0:0:0:0:
256,192,126112,1,0,0:0:0:0:
256,192,126270,1,0,0:0:0:0:
256,192,126428,1,6,0:0:0:0:
256,192,126744,1,0,0:0:0:0:
256,192,126902,1,8,0:0:0:0:
256,192,127060,1,0,0:0:0:0:
256,192,127139,1,0,0:0:0:0:
256,192,127218,1,8,0:0:0:0:
256,192,127376,1,0,0:0:0:0:
256,192,127455,1,0,0:0:0:0:
256,192,127534,1,8,0:0:0:0:
256,192,127849,1,4,0:0:0:0:
256,192,128323,1,4,0:0:0:0:
256,192,128797,1,6,0:0:0:0:
256,192,129270,1,8,0:0:0:0:
256,192,129428,1,8,0:0:0:0:
256,192,129586,1,8,0:0:0:0:
256,192,129744,1,4,0:0:0:0:
256,192,130376,1,4,0:0:0:0:
256,192,130692,1,8,0:0:0:0:
256,192,131007,1,0,0:0:0:0:
256,192,131165,1,0,0:0:0:0:
256,192,131323,1,8,0:0:0:0:
256,192,131639,1,0,0:0:0:0:
256,192,131797,1,0,0:0:0:0:
256,192,131955,1,8,0:0:0:0:
256,192,132113,1,0,0:0:0:0:
256,192,132192,1,0,0:0:0:0:
256,192,132271,1,0,0:0:0:0:
256,192,132428,1,0,0:0:0:0:
256,192,132586,1,8,0:0:0:0:
256,192,132744,1,8,0:0:0:0:
256,192,132902,1,0,0:0:0:0:
256,192,133218,1,8,0:0:0:0:
256,192,133534,1,0,0:0:0:0:
256,192,133692,1,0,0:0:0:0:
256,192,133849,1,8,0:0:0:0:
256,192,134165,1,0,0:0:0:0:
256,192,134323,1,0,0:0:0:0:
256,192,134481,1,8,0:0:0:0:
256,192,134560,1,8,0:0:0:0:
256,192,134639,1,0,0:0:0:0:
256,192,134797,1,8,0:0:0:0:
256,192,134876,1,0,0:0:0:0:
256,192,134955,1,0,0:0:0:0:
256,192,135113,1,8,0:0:0:0:
256,192,135271,1,0,0:0:0:0:
256,192,135428,1,0,0:0:0:0:
256,192,135744,1,8,0:0:0:0:
256,192,135902,1,0,0:0:0:0:
256,192,136060,1,0,0:0:0:0:
256,192,136376,1,8,0:0:0:0:
256,192,136692,1,0,0:0:0:0:
256,192,136849,1,0,0:0:0:0:
256,192,137007,1,8,0:0:0:0:
256,192,137165,1,0,0:0:0:0:
256,192,137323,1,8,0:0:0:0:
256,192,137639,1,8,0:0:0:0:
256,192,137955,1,0,0:0:0:0:
256,192,138034,1,0,0:0:0:0:
256,192,138113,1,0,0:0:0:0:
256,192,138271,1,8,0:0:0:0:
256,192,138428,1,0,0:0:0:0:
256,192,138744,1,0,0:0:0:0:
256,192,138902,1,8,0:0:0:0:
256,192,139218,1,8,0:0:0:0:
256,192,139297,1,8,0:0:0:0:
256,192,139376,1,0,0:0:0:0:
256,192,139534,1,8,0:0:0:0:
256,192,139613,1,8,0:0:0:0:
256,192,139692,1,0,0:0:0:0:
256,192,139849,1,0,0:0:0:0:
256,192,139928,1,0,0:0:0:0:
256,192,140007,1,0,0:0:0:0:
256,192,140086,1,0,0:0:0:0:
256,192,140165,1,8,0:0:0:0:
256,192,140481,1,4,0:0:0:0:
256,192,140797,1,8,0:0:0:0:
256,192,141113,1,0,0:0:0:0:
256,192,141271,1,0,0:0:0:0:
256,192,141428,1,8,0:0:0:0:
256,192,141744,1,0,0:0:0:0:
256,192,141902,1,0,0:0:0:0:
256,192,142060,1,8,0:0:0:0:
256,192,142218,1,0,0:0:0:0:
256,192,142297,1,0,0:0:0:0:
256,192,142376,1,0,0:0:0:0:
256,192,142534,1,0,0:0:0:0:
256,192,142692,1,8,0:0:0:0:
256,192,142849,1,8,0:0:0:0:
256,192,143007,1,0,0:0:0:0:
256,192,143323,1,8,0:0:0:0:
256,192,143639,1,0,0:0:0:0:
256,192,143797,1,0,0:0:0:0:
256,192,143955,1,8,0:0:0:0:
256,192,144113,1,8,0:0:0:0:
256,192,144271,1,0,0:0:0:0:
256,192,144428,1,0,0:0:0:0:
256,192,144586,1,8,0:0:0:0:
256,192,144744,1,0,0:0:0:0:
256,192,145060,1,0,0:0:0:0:
256,192,145218,1,8,0:0:0:0:
256,192,145376,1,0,0:0:0:0:
256,192,145534,1,8,0:0:0:0:
256,192,145613,1,8,0:0:0:0:
256,192,145692,1,0,0:0:0:0:
256,192,145849,1,8,0:0:0:0:
256,192,146007,1,0,0:0:0:0:
256,192,146165,1,8,0:0:0:0:
256,192,146244,1,8,0:0:0:0:
256,192,146323,1,0,0:0:0:0:
256,192,146481,1,8,0:0:0:0:
256,192,146797,1,4,0:0:0:0:
256,192,147113,1,4,0:0:0:0:
256,192,147428,1,8,0:0:0:0:
256,192,147507,1,8,0:0:0:0:
256,192,147586,1,0,0:0:0:0:
256,192,147665,1,0,0:0:0:0:
256,192,147744,1,8,0:0:0:0:
256,192,147823,1,8,0:0:0:0:
256,192,147902,1,0,0:0:0:0:
256,192,148060,1,4,0:0:0:0:
256,192,148376,1,8,0:0:0:0:
256,192,148691,1,0,0:0:0:0:
256,192,148849,1,0,0:0:0:0:
256,192,149007,1,8,0:0:0:0:
256,192,149323,1,0,0:0:0:0:
256,192,149481,1,0,0:0:0:0:
256,192,149639,1,8,0:0:0:0:
256,192,149797,1,0,0:0:0:0:
256,192,149876,1,0,0:0:0:0:
256,192,149955,1,0,0:0:0:0:
256,192,150112,1,0,0:0:0:0:
256,192,150270,1,8,0:0:0:0:
256,192,150428,1,8,0:0:0:0:
256,192,150586,1,0,0:0:0:0:
256,192,150902,1,8,0:0:0:0:
256,192,151218,1,0,0:0:0:0:
256,192,151376,1,0,0:0:0:0:
256,192,151533,1,8,0:0:0:0:
256,192,151849,1,0,0:0:0:0:
256,192,152007,1,0,0:0:0:0:
256,192,152165,1,8,0:0:0:0:
256,192,152244,1,8,0:0:0:0:
256,192,152323,1,0,0:0:0:0:
256,192,152481,1,8,0:0:0:0:
256,192,152560,1,0,0:0:0:0:
256,192,152639,1,0,0:0:0:0:
256,192,152797,1,8,0:0:0:0:
256,192,152955,1,0,0:0:0:0:
256,192,153112,1,0,0:0:0:0:
256,192,153428,1,8,0:0:0:0:
256,192,153586,1,0,0:0:0:0:
256,192,153744,1,0,0:0:0:0:
256,192,153902,1,0,0:0:0:0:
256,192,154060,1,8,0:0:0:0:
256,192,154376,1,0,0:0:0:0:
256,192,154533,1,0,0:0:0:0:
256,192,154612,1,0,0:0:0:0:
256,192,154691,1,8,0:0:0:0:
256,192,154849,1,0,0:0:0:0:
256,192,155007,1,8,0:0:0:0:
256,192,155323,1,8,0:0:0:0:
256,192,155639,1,0,0:0:0:0:
256,192,155718,1,0,0:0:0:0:
256,192,155797,1,0,0:0:0:0:
256,192,155955,1,8,0:0:0:0:
256,192,156112,1,0,0:0:0:0:
256,192,156428,1,0,0:0:0:0:
256,192,156586,1,8,0:0:0:0:
256,192,156902,1,8,0:0:0:0:
256,192,156981,1,8,0:0:0:0:
256,192,157060,1,0,0:0:0:0:
256,192,157218,1,8,0:0:0:0:
256,192,157297,1,8,0:0:0:0:
256,192,157376,1,0,0:0:0:0:
256,192,157533,1,0,0:0:0:0:
256,192,157612,1,0,0:0:0:0:
256,192,157691,1,0,0:0:0:0:
256,192,157770,1,0,0:0:0:0:
256,192,157849,1,8,0:0:0:0:
256,192,158165,1,4,0:0:0:0:
256,192,158481,1,8,0:0:0:0:
256,192,158797,1,0,0:0:0:0:
256,192,158955,1,0,0:0:0:0:
256,192,159112,1,8,0:0:0:0:
256,192,159428,1,0,0:0:0:0:
256,192,159586,1,0,0:0:0:0:
256,192,159744,1,8,0:0:0:0:
256,192,159902,1,0,0:0:0:0:
256,192,159981,1,0,0:0:0:0:
256,192,160060,1,0,0:0:0:0:
256,192,160218,1,0,0:0:0:0:
256,192,160376,1,8,0:0:0:0:
256,192,160533,1,8,0:0:0:0:
256,192,160691,1,0,0:0:0:0:
256,192,161007,1,8,0:0:0:0:
256,192,161323,1,0,0:0:0:0:
256,192,161481,1,0,0:0:0:0:
256,192,161639,1,8,0:0:0:0:
256,192,161955,1,0,0:0:0:0:
256,192,162112,1,0,0:0:0:0:
256,192,162270,1,8,0:0:0:0:
256,192,162428,1,0,0:0:0:0:
256,192,162586,1,0,0:0:0:0:
256,192,162744,1,0,0:0:0:0:
256,192,162823,1,0,0:0:0:0:
256,192,162902,1,8,0:0:0:0:
256,192,162981,1,8,0:0:0:0:
256,192,163060,1,0,0:0:0:0:
256,192,163218,1,12,0:0:0:0:
256,192,164481,1,6,0:0:0:0:
256,192,165744,1,6,0:0:0:0:
256,192,167007,1,4,0:0:0:0:
256,192,167323,1,4,0:0:0:0:
256,192,167639,1,8,0:0:0:0:
256,192,167955,1,8,0:0:0:0:
256,192,168270,1,4,0:0:0:0:
256,192,168586,1,8,0:0:0:0:
256,192,168744,1,0,0:0:0:0:
256,192,168823,1,0,0:0:0:0:
256,192,168902,1,8,0:0:0:0:
256,192,169059,1,0,0:0:0:0:
256,192,169217,1,8,0:0:0:0:
256,192,169375,1,0,0:0:0:0:
256,192,169454,1,0,0:0:0:0:
256,192,169533,1,0,0:0:0:0:
256,192,169691,1,0,0:0:0:0:
256,192,169849,1,8,0:0:0:0:
256,192,170007,1,0,0:0:0:0:
256,192,170165,1,8,0:0:0:0:
256,192,170244,1,8,0:0:0:0:
256,192,170323,1,0,0:0:0:0:
256,192,170481,1,0,0:0:0:0:
256,192,170638,1,0,0:0:0:0:
256,192,170717,1,0,0:0:0:0:
256,192,170796,1,8,0:0:0:0:
256,192,170954,1,0,0:0:0:0:
256,192,171112,1,8,0:0:0:0:
256,192,171270,1,0,0:0:0:0:
256,192,171349,1,0,0:0:0:0:
256,192,171428,1,8,0:0:0:0:
256,192,171586,1,0,0:0:0:0:
256,192,171744,1,8,0:0:0:0:
256,192,171902,1,0,0:0:0:0:
256,192,171981,1,0,0:0:0:0:
256,192,172059,1,0,0:0:0:0:
256,192,172217,1,0,0:0:0:0:
256,192,172375,1,8,0:0:0:0:
256,192,172454,1,8,0:0:0:0:
256,192,172533,1,0,0:0:0:0:
256,192,172691,1,8,0:0:0:0:
256,192,172849,1,0,0:0:0:0:
256,192,173007,1,8,0:0:0:0:
256,192,173165,1,0,0:0:0:0:
256,192,173323,1,4,0:0:0:0:
256,192,173638,1,8,0:0:0:0:
256,192,173796,1,0,0:0:0:0:
256,192,173875,1,0,0:0:0:0:
256,192,173954,1,8,0:0:0:0:
256,192,174112,1,0,0:0:0:0:
256,192,174270,1,8,0:0:0:0:
256,192,174428,1,0,0:0:0:0:
256,192,174507,1,0,0:0:0:0:
256,192,174586,1,0,0:0:0:0:
256,192,174744,1,0,0:0:0:0:
256,192,174902,1,8,0:0:0:0:
256,192,175059,1,0,0:0:0:0:
256,192,175217,1,8,0:0:0:0:
256,192,175296,1,8,0:0:0:0:
256,192,175375,1,0,0:0:0:0:
256,192,175533,1,0,0:0:0:0:
256,192,175691,1,0,0:0:0:0:
256,192,175770,1,0,0:0:0:0:
256,192,175849,1,8,0:0:0:0:
256,192,176007,1,0,0:0:0:0:
256,192,176165,1,8,0:0:0:0:
256,192,176323,1,0,0:0:0:0:
256,192,176402,1,0,0:0:0:0:
256,192,176481,1,8,0:0:0:0:
256,192,176638,1,0,0:0:0:0:
256,192,176796,1,8,0:0:0:0:
256,192,176954,1,0,0:0:0:0:
256,192,177033,1,0,0:0:0:0:
256,192,177112,1,0,0:0:0:0:
256,192,177270,1,0,0:0:0:0:
256,192,177428,1,8,0:0:0:0:
256,192,177507,1,8,0:0:0:0:
256,192,177586,1,0,0:0:0:0:
256,192,177744,1,8,0:0:0:0:
256,192,177902,1,8,0:0:0:0:
256,192,178059,1,8,0:0:0:0:
256,192,178138,1,8,0:0:0:0:
256,192,178217,1,8,0:0:0:0:
256,195,178375,1,4,0:0:0:0:
256,195,178691,1,8,0:0:0:0:
256,195,178849,1,0,0:0:0:0:
256,195,179165,1,0,0:0:0:0:
256,195,179323,1,8,0:0:0:0:
256,195,179638,1,6,0:0:0:0:
256,192,180902,5,6,0:0:0:0:
