osu file format v14

[General]
AudioFilename: audio.mp3
AudioLeadIn: 0
PreviewTime: 51143
Countdown: 0
SampleSet: Soft
StackLeniency: 0.7
Mode: 3
LetterboxInBreaks: 0
SpecialStyle: 0
WidescreenStoryboard: 1

[Editor]
Bookmarks: 638,7659,20903,41489,51542,61755
DistanceSpacing: 0.8
BeatDivisor: 4
GridSize: 4
TimelineZoom: 2.699999

[Metadata]
Title:BANG!BANG!BANG! short ver.
TitleUnicode:BANG!BANG!BANG! short ver.
Artist:Silent Siren
ArtistUnicode:Silent Siren
Creator:[ Archvii ]
Version:hitsound
Source:
Tags:Silent Sirenメジャー6thシングル Sumire Yoshida Hinako Umemura Aina Yamauchi Yukako Kurosaka EMI Records rakh2502 dudehacker
BeatmapID:1975684
BeatmapSetID:936784

[Difficulty]
HPDrainRate:9
CircleSize:9
OverallDifficulty:8.5
ApproachRate:5
SliderMultiplier:1.4
SliderTickRate:1

[Events]
//Background and Video events
0,0,"42941190.jpg",0,0
//Break Periods
//Storyboard Layer 0 (Background)
//Storyboard Layer 1 (Fail)
//Storyboard Layer 2 (Pass)
//Storyboard Layer 3 (Foreground)
//Storyboard Sound Samples

[TimingPoints]
690,319.148936170213,4,2,1,70,1,0
1150,319.148936170213,4,2,1,70,1,0
1940,319.148936170213,4,2,1,70,1,0
2400,319.148936170213,4,2,1,70,1,0
3200,319.148936170213,4,2,1,70,1,0
51551,-100,4,2,1,70,0,1
71338,-100,4,2,1,70,0,0

[HitObjects]
369,192,690,5,8,0:0:0:0:
142,192,690,1,0,0:0:0:70:LR_Drum Finish.wav
312,192,849,1,0,0:0:0:70:LR_Drum Rpd vFast.wav
312,192,1009,1,0,0:0:0:70:LR_Drum Rpd vFast.wav
369,192,1142,1,8,0:0:0:0:
142,192,1142,1,0,0:0:0:70:LR_Drum Finish.wav
312,192,1309,1,0,0:0:0:70:LR_Drum Rpd vFast.wav
312,192,1469,1,0,0:0:0:70:LR_Drum Rpd vFast.wav
312,192,1628,1,0,0:0:0:70:LR_Drum Rpd vFast.wav
312,192,1788,1,0,0:0:0:70:LR_Drum Rpd vFast.wav
369,192,1940,1,8,0:0:0:0:
142,192,1940,1,0,0:0:0:70:LR_Drum Finish.wav
312,192,2099,1,0,0:0:0:70:LR_Drum Rpd vFast.wav
312,192,2259,1,0,0:0:0:70:LR_Drum Rpd vFast.wav
369,192,2392,1,8,0:0:0:0:
142,192,2392,1,0,0:0:0:70:LR_Drum Finish.wav
312,192,2559,1,0,0:0:0:70:LR_Drum Rpd vFast.wav
312,192,2719,1,0,0:0:0:70:LR_Drum Rpd vFast.wav
312,192,2878,1,0,0:0:0:70:LR_Drum Rpd vFast.wav
312,192,3038,1,0,0:0:0:70:LR_Drum Rpd vFast.wav
28,192,3200,1,0,0:0:0:20:LR_Drum Hit Drop High.wav
28,192,3359,1,0,0:0:0:20:LR_Drum Hit Drop High.wav
28,192,3519,1,0,0:0:0:20:LR_Drum Hit Drop High.wav
28,192,3678,1,0,0:0:0:20:LR_Drum Hit Drop High.wav
85,192,3838,1,0,0:0:0:40:LR_Drum Hit Drop High.wav
85,192,3997,1,0,0:0:0:40:LR_Drum Hit Drop High.wav
85,192,4157,1,0,0:0:0:40:LR_Drum Hit Drop High.wav
85,192,4317,1,0,0:0:0:40:LR_Drum Hit Drop High.wav
142,192,4476,1,0,0:0:0:50:LR_Drum Hit Drop High.wav
142,192,4636,1,0,0:0:0:50:LR_Drum Hit Drop High.wav
199,192,4795,1,0,0:0:0:60:LR_Drum Hit Drop High.wav
199,192,4955,1,0,0:0:0:60:LR_Drum Hit Drop High.wav
312,192,5114,1,0,0:0:0:70:LR_Drum Hit Drop High.wav
369,192,5274,1,0,0:0:0:80:LR_Drum Hit Drop High.wav
426,192,5434,1,0,0:0:0:90:LR_Drum Hit Drop High.wav
483,192,5593,1,4,0:0:0:0:
199,192,7668,1,0,0:0:0:70:Tom1.wav
369,192,7747,1,8,0:0:0:0:
369,192,7827,1,8,0:0:0:0:
369,192,7907,1,8,0:0:0:0:
369,192,7987,1,8,0:0:0:0:
142,192,8146,1,2,0:0:0:0:
483,192,8146,1,0,0:0:0:70:CrashRight.wav
256,192,8465,1,4,0:0:0:0:
369,192,8625,1,8,0:0:0:0:
256,192,8785,1,4,0:0:0:0:
142,192,8944,1,2,0:0:0:0:
256,192,9104,1,4,0:0:0:0:
369,192,9263,1,8,0:0:0:0:
256,192,9423,1,4,0:0:0:0:
142,192,9582,1,2,0:0:0:0:
256,192,9742,1,4,0:0:0:0:
369,192,9902,1,8,0:0:0:0:
256,192,10061,1,4,0:0:0:0:
142,192,10221,1,2,0:0:0:0:
256,192,10380,1,4,0:0:0:0:
369,192,10540,1,8,0:0:0:0:
256,192,10700,1,4,0:0:0:0:
142,192,10859,1,2,0:0:0:0:
256,192,11019,1,4,0:0:0:0:
369,192,11178,1,8,0:0:0:0:
256,192,11338,1,4,0:0:0:0:
142,192,11497,1,2,0:0:0:0:
369,192,11497,1,8,0:0:0:0:
369,192,11577,1,8,0:0:0:0:
369,192,11657,1,8,0:0:0:0:
369,192,11737,1,8,0:0:0:0:
369,192,11817,1,8,0:0:0:0:
142,192,11976,1,2,0:0:0:0:
256,192,11976,1,4,0:0:0:0:
142,192,12295,1,2,0:0:0:0:
256,192,12295,1,4,0:0:0:0:
256,192,12614,1,4,0:0:0:0:
142,192,12614,1,2,0:0:0:0:
142,192,12934,1,2,0:0:0:0:
256,192,12934,1,4,0:0:0:0:
142,192,13253,1,2,0:0:0:0:
483,192,13253,1,0,0:0:0:70:CrashRight.wav
142,192,13572,1,2,0:0:0:0:
369,192,13731,1,8,0:0:0:0:
256,192,13891,1,4,0:0:0:0:
142,192,14051,1,2,0:0:0:0:
256,192,14210,1,4,0:0:0:0:
369,192,14370,1,8,0:0:0:0:
256,192,14529,1,4,0:0:0:0:
142,192,14689,1,2,0:0:0:0:
256,192,14848,1,4,0:0:0:0:
369,192,15008,1,8,0:0:0:0:
256,192,15168,1,4,0:0:0:0:
142,192,15327,1,2,0:0:0:0:
256,192,15487,1,4,0:0:0:0:
369,192,15646,1,8,0:0:0:0:
256,192,15806,1,4,0:0:0:0:
142,192,15965,1,2,0:0:0:0:
256,192,16125,1,4,0:0:0:0:
369,192,16285,1,8,0:0:0:0:
256,192,16444,1,4,0:0:0:0:
142,192,16604,1,2,0:0:0:0:
369,192,16604,1,8,0:0:0:0:
369,192,16684,1,8,0:0:0:0:
369,192,16763,1,8,0:0:0:0:
369,192,16843,1,8,0:0:0:0:
369,192,16923,1,8,0:0:0:0:
142,192,17082,1,2,0:0:0:0:
256,192,17082,1,4,0:0:0:0:
142,192,17402,1,2,0:0:0:0:
256,192,17402,1,4,0:0:0:0:
256,192,17721,1,4,0:0:0:0:
142,192,17721,1,2,0:0:0:0:
199,192,18040,1,0,0:0:0:70:Tom1.wav
256,192,18200,1,0,0:0:0:70:Tom2.wav
312,192,18359,1,0,0:0:0:70:Tom3.wav
142,192,18519,1,2,0:0:0:0:
483,192,18519,1,0,0:0:0:70:CrashRight.wav
142,192,18838,1,2,0:0:0:0:
142,192,19157,1,2,0:0:0:0:
142,192,19476,1,2,0:0:0:0:
142,192,19795,1,2,0:0:0:0:
369,192,19955,1,8,0:0:0:0:
369,192,20114,1,8,0:0:0:0:
369,192,20274,1,8,0:0:0:0:
369,192,20434,1,8,0:0:0:0:
369,192,20593,1,8,0:0:0:0:
369,192,20753,1,8,0:0:0:0:
142,192,20912,1,2,0:0:0:0:
483,192,20912,1,0,0:0:0:70:CrashRight.wav
142,192,21231,1,2,0:0:0:0:
369,192,21391,1,8,0:0:0:0:
142,192,21710,1,2,0:0:0:0:
142,192,21870,1,2,0:0:0:0:
369,192,22029,1,8,0:0:0:0:
142,192,22348,1,2,0:0:0:0:
369,192,22668,1,8,0:0:0:0:
142,192,22987,1,2,0:0:0:0:
142,192,23146,1,2,0:0:0:0:
369,192,23306,1,8,0:0:0:0:
142,192,23465,1,2,0:0:0:0:
142,192,23785,1,2,0:0:0:0:
369,192,23944,1,8,0:0:0:0:
142,192,24263,1,2,0:0:0:0:
142,192,24423,1,2,0:0:0:0:
369,192,24582,1,8,0:0:0:0:
142,192,24902,1,2,0:0:0:0:
369,192,25221,1,8,0:0:0:0:
142,192,25540,1,2,0:0:0:0:
142,192,25700,1,2,0:0:0:0:
369,192,25859,1,8,0:0:0:0:
142,192,26019,1,2,0:0:0:0:
142,192,26338,1,2,0:0:0:0:
369,192,26497,1,8,0:0:0:0:
142,192,26817,1,2,0:0:0:0:
142,192,26976,1,2,0:0:0:0:
369,192,27136,1,8,0:0:0:0:
142,192,27455,1,2,0:0:0:0:
369,192,27774,1,8,0:0:0:0:
142,192,28093,1,2,0:0:0:0:
142,192,28253,1,2,0:0:0:0:
369,192,28412,1,8,0:0:0:0:
142,192,28572,1,2,0:0:0:0:
142,192,28891,1,2,0:0:0:0:
369,192,29051,1,8,0:0:0:0:
142,192,29370,1,2,0:0:0:0:
142,192,29529,1,2,0:0:0:0:
369,192,29689,1,8,0:0:0:0:
142,192,30008,1,2,0:0:0:0:
142,192,30168,1,2,0:0:0:0:
369,192,30327,1,8,0:0:0:0:
142,192,30646,1,2,0:0:0:0:
369,192,30965,1,8,0:0:0:0:
142,192,31125,1,2,0:0:0:0:
483,192,31125,1,0,0:0:0:70:CrashRight.wav
142,192,31444,1,2,0:0:0:0:
369,192,31604,1,8,0:0:0:0:
142,192,31923,1,2,0:0:0:0:
142,192,32082,1,2,0:0:0:0:
369,192,32242,1,8,0:0:0:0:
142,192,32561,1,2,0:0:0:0:
369,192,32880,1,8,0:0:0:0:
142,192,33200,1,2,0:0:0:0:
142,192,33359,1,2,0:0:0:0:
369,192,33519,1,8,0:0:0:0:
142,192,33678,1,2,0:0:0:0:
142,192,33997,1,2,0:0:0:0:
369,192,34157,1,8,0:0:0:0:
142,192,34476,1,2,0:0:0:0:
142,192,34636,1,2,0:0:0:0:
369,192,34795,1,8,0:0:0:0:
142,192,35114,1,2,0:0:0:0:
369,192,35434,1,8,0:0:0:0:
142,192,35753,1,2,0:0:0:0:
142,192,35912,1,2,0:0:0:0:
369,192,36072,1,8,0:0:0:0:
142,192,36231,1,2,0:0:0:0:
142,192,36551,1,2,0:0:0:0:
369,192,36710,1,8,0:0:0:0:
142,192,37029,1,2,0:0:0:0:
142,192,37189,1,2,0:0:0:0:
369,192,37348,1,8,0:0:0:0:
142,192,37668,1,2,0:0:0:0:
369,192,37987,1,8,0:0:0:0:
142,192,38306,1,2,0:0:0:0:
142,192,38465,1,2,0:0:0:0:
369,192,38625,1,8,0:0:0:0:
142,192,38785,1,2,0:0:0:0:
142,192,39104,1,2,0:0:0:0:
369,192,39263,1,8,0:0:0:0:
142,192,39582,1,2,0:0:0:0:
142,192,39742,1,2,0:0:0:0:
369,192,39902,1,8,0:0:0:0:
142,192,40221,1,2,0:0:0:0:
142,192,40380,1,2,0:0:0:0:
369,192,40540,1,8,0:0:0:0:
199,192,40859,1,0,0:0:0:70:Tom1.wav
256,192,41019,1,0,0:0:0:70:Tom3.wav
312,192,41178,1,0,0:0:0:70:Tom3.wav
256,192,41338,1,0,0:0:0:70:Tom3.wav
142,192,41497,1,2,0:0:0:0:
483,192,41497,1,0,0:0:0:70:CrashRight.wav
142,192,41817,1,2,0:0:0:0:
256,192,41976,1,0,0:0:0:70:Tom1.wav
142,192,42136,1,2,0:0:0:0:
142,192,42455,1,2,0:0:0:0:
312,192,42455,1,0,0:0:0:70:Tom2.wav
142,192,42774,1,2,0:0:0:0:
256,192,42934,1,0,0:0:0:70:Tom1.wav
142,192,43093,1,2,0:0:0:0:
256,192,43253,1,0,0:0:0:70:Tom1.wav
142,192,43412,1,2,0:0:0:0:
142,192,43731,1,2,0:0:0:0:
312,192,43731,1,0,0:0:0:70:Tom2.wav
483,192,44051,1,0,0:0:0:70:CrashRight.wav
142,192,44051,1,2,0:0:0:0:
142,192,44370,1,2,0:0:0:0:
256,192,44529,1,0,0:0:0:70:Tom1.wav
142,192,44689,1,2,0:0:0:0:
142,192,45008,1,2,0:0:0:0:
312,192,45008,1,0,0:0:0:70:Tom2.wav
142,192,45327,1,2,0:0:0:0:
256,192,45487,1,0,0:0:0:70:Tom1.wav
142,192,45646,1,2,0:0:0:0:
256,192,45806,1,0,0:0:0:70:Tom1.wav
142,192,45965,1,2,0:0:0:0:
256,192,46125,1,0,0:0:0:70:Tom1.wav
142,192,46285,1,2,0:0:0:0:
312,192,46285,1,0,0:0:0:70:Tom2.wav
483,192,46604,1,0,0:0:0:70:CrashRight.wav
142,192,46604,1,2,0:0:0:0:
369,192,46923,1,8,0:0:0:0:
142,192,47082,1,2,0:0:0:0:
369,192,47242,1,8,0:0:0:0:
142,192,47402,1,2,0:0:0:0:
369,192,47561,1,8,0:0:0:0:
369,192,47880,1,8,0:0:0:0:
142,192,48040,1,2,0:0:0:0:
369,192,48200,1,8,0:0:0:0:
142,192,48359,1,2,0:0:0:0:
369,192,48519,1,8,0:0:0:0:
142,192,48678,1,2,0:0:0:0:
369,192,48838,1,8,0:0:0:0:
483,192,49157,1,0,0:0:0:70:CrashRight.wav
369,192,49157,1,8,0:0:0:0:
142,192,49317,1,2,0:0:0:0:
142,192,49476,1,2,0:0:0:0:
369,192,49636,1,8,0:0:0:0:
483,192,49636,1,0,0:0:0:70:CrashRight.wav
142,192,49795,1,2,0:0:0:0:
142,192,49955,1,2,0:0:0:0:
369,192,50114,1,8,0:0:0:0:
369,192,50274,1,8,0:0:0:0:
142,192,50593,1,2,0:0:0:0:
369,192,50753,1,8,0:0:0:0:
369,192,50912,1,8,0:0:0:0:
256,192,50912,1,4,0:0:0:0:
483,192,51551,1,0,0:0:0:70:CrashRight.wav
142,192,51551,1,2,0:0:0:0:
142,192,51870,1,2,0:0:0:0:
369,192,52029,1,8,0:0:0:0:
142,192,52348,1,2,0:0:0:0:
142,192,52508,1,2,0:0:0:0:
369,192,52668,1,8,0:0:0:0:
142,192,52987,1,2,0:0:0:0:
369,192,53306,1,8,0:0:0:0:
142,192,53625,1,2,0:0:0:0:
142,192,53785,1,2,0:0:0:0:
369,192,53944,1,8,0:0:0:0:
142,192,54104,1,2,0:0:0:0:
142,192,54423,1,2,0:0:0:0:
369,192,54582,1,8,0:0:0:0:
142,192,54902,1,2,0:0:0:0:
142,192,55061,1,2,0:0:0:0:
369,192,55221,1,8,0:0:0:0:
142,192,55540,1,2,0:0:0:0:
142,192,55700,1,2,0:0:0:0:
369,192,55859,1,8,0:0:0:0:
142,192,56178,1,2,0:0:0:0:
142,192,56338,1,2,0:0:0:0:
369,192,56497,1,8,0:0:0:0:
142,192,56657,1,2,0:0:0:0:
483,192,56657,1,0,0:0:0:70:CrashRight.wav
142,192,56976,1,2,0:0:0:0:
369,192,57136,1,8,0:0:0:0:
142,192,57455,1,2,0:0:0:0:
142,192,57614,1,2,0:0:0:0:
369,192,57774,1,8,0:0:0:0:
142,192,57934,1,2,0:0:0:0:
483,192,57934,1,0,0:0:0:70:CrashRight.wav
142,192,58253,1,2,0:0:0:0:
369,192,58412,1,8,0:0:0:0:
142,192,58731,1,2,0:0:0:0:
142,192,58891,1,2,0:0:0:0:
369,192,59051,1,8,0:0:0:0:
142,192,59370,1,2,0:0:0:0:
369,192,59689,1,8,0:0:0:0:
142,192,60008,1,2,0:0:0:0:
142,192,60168,1,2,0:0:0:0:
369,192,60327,1,8,0:0:0:0:
369,192,60487,1,8,0:0:0:0:
199,192,60487,1,4,0:0:0:0:
369,192,60806,1,8,0:0:0:0:
199,192,60806,1,4,0:0:0:0:
369,192,61125,1,8,0:0:0:0:
199,192,61125,1,4,0:0:0:0:
256,192,61444,1,0,0:0:0:70:Tom1.wav
312,192,61604,1,0,0:0:0:70:Tom2.wav
483,192,61763,1,0,0:0:0:70:CrashRight.wav
142,192,61763,1,2,0:0:0:0:
142,192,62082,1,2,0:0:0:0:
369,192,62242,1,8,0:0:0:0:
142,192,62561,1,2,0:0:0:0:
142,192,62721,1,2,0:0:0:0:
369,192,62880,1,8,0:0:0:0:
142,192,63200,1,2,0:0:0:0:
369,192,63519,1,8,0:0:0:0:
142,192,63838,1,2,0:0:0:0:
142,192,63997,1,2,0:0:0:0:
369,192,64157,1,8,0:0:0:0:
142,192,64317,1,2,0:0:0:0:
142,192,64636,1,2,0:0:0:0:
369,192,64795,1,8,0:0:0:0:
142,192,65114,1,2,0:0:0:0:
142,192,65274,1,2,0:0:0:0:
369,192,65434,1,8,0:0:0:0:
142,192,65753,1,2,0:0:0:0:
142,192,65912,1,2,0:0:0:0:
369,192,66072,1,8,0:0:0:0:
142,192,66391,1,2,0:0:0:0:
142,192,66551,1,2,0:0:0:0:
369,192,66710,1,8,0:0:0:0:
142,192,66870,1,2,0:0:0:0:
483,192,66870,1,0,0:0:0:70:CrashRight.wav
142,192,67189,1,2,0:0:0:0:
369,192,67348,1,8,0:0:0:0:
142,192,67668,1,2,0:0:0:0:
142,192,67827,1,2,0:0:0:0:
369,192,67987,1,8,0:0:0:0:
142,192,68146,1,2,0:0:0:0:
483,192,68146,1,0,0:0:0:70:CrashRight.wav
142,192,68465,1,2,0:0:0:0:
369,192,68625,1,8,0:0:0:0:
142,192,68944,1,2,0:0:0:0:
142,192,69104,1,2,0:0:0:0:
369,192,69263,1,8,0:0:0:0:
142,192,69582,1,2,0:0:0:0:
369,192,69902,1,8,0:0:0:0:
142,192,70221,1,2,0:0:0:0:
142,192,70380,1,2,0:0:0:0:
369,192,70540,1,8,0:0:0:0:
369,192,70700,1,8,0:0:0:0:
199,192,70700,1,4,0:0:0:0:
369,192,71019,1,8,0:0:0:0:
199,192,71019,1,4,0:0:0:0:
369,192,71338,1,8,0:0:0:0:
199,192,71338,1,4,0:0:0:0:
369,192,71657,1,8,0:0:0:0:
369,192,71737,1,8,0:0:0:0:
369,192,71817,1,8,0:0:0:0:
369,192,71896,1,8,0:0:0:0:
369,192,71976,1,8,0:0:0:0:
369,192,72056,1,8,0:0:0:0:
142,192,72136,1,2,0:0:0:0:
256,192,72295,1,4,0:0:0:0:
369,192,72455,1,8,0:0:0:0:
256,192,72614,1,4,0:0:0:0:
142,192,72774,1,2,0:0:0:0:
256,192,72934,1,4,0:0:0:0:
369,192,73093,1,8,0:0:0:0:
256,192,73253,1,4,0:0:0:0:
142,192,73412,1,2,0:0:0:0:
256,192,73572,1,4,0:0:0:0:
369,192,73731,1,8,0:0:0:0:
256,192,73891,1,4,0:0:0:0:
142,192,74051,1,2,0:0:0:0:
256,192,74210,1,4,0:0:0:0:
369,192,74370,1,8,0:0:0:0:
256,192,74529,1,4,0:0:0:0:
142,192,74689,1,2,0:0:0:0:
256,192,74848,1,4,0:0:0:0:
369,192,75008,1,8,0:0:0:0:
256,192,75168,1,4,0:0:0:0:
142,192,75327,1,2,0:0:0:0:
256,192,75487,1,4,0:0:0:0:
369,192,75646,1,8,0:0:0:0:
256,192,75806,1,4,0:0:0:0:
142,192,75965,1,2,0:0:0:0:
256,192,76125,1,4,0:0:0:0:
369,192,76285,1,8,0:0:0:0:
256,192,76444,1,4,0:0:0:0:
142,192,76604,1,2,0:0:0:0:
256,192,76763,1,4,0:0:0:0:
369,192,76923,1,8,0:0:0:0:
256,192,77082,1,4,0:0:0:0:
142,192,77242,1,2,0:0:0:0:
369,192,77561,1,8,0:0:0:0:
142,192,77880,1,2,0:0:0:0:
199,192,78040,1,0,0:0:0:70:Tom1.wav
256,192,78200,1,0,0:0:0:70:Tom2.wav
312,192,78359,1,0,0:0:0:70:Tom3.wav
369,192,78519,1,8,0:0:0:0:
85,192,78519,1,4,0:0:0:0:
369,192,78838,1,8,0:0:0:0:
85,192,78838,1,4,0:0:0:0:
369,192,81870,1,8,0:0:0:0:
199,192,82029,1,0,0:0:0:70:Tom3.wav
369,192,82189,1,8,0:0:0:0:
