osu file format v14

[General]
AudioFilename: audio.mp3
AudioLeadIn: 0
PreviewTime: 51143
Countdown: 0
SampleSet: Soft
StackLeniency: 0.7
Mode: 3
LetterboxInBreaks: 0
SpecialStyle: 0
WidescreenStoryboard: 1

[Editor]
DistanceSpacing: 0.8
BeatDivisor: 4
GridSize: 4
TimelineZoom: 1

[Metadata]
Title:BANG!BANG!BANG! short ver.
TitleUnicode:BANG!BANG!BANG! short ver.
Artist:Silent Siren
ArtistUnicode:Silent Siren
Creator:[ Archvii ]
Version:Normal
Source:
Tags:Silent Sirenメジャー6thシングル Sumire Yoshida Hinako Umemura Aina Yamauchi Yukako Kurosaka EMI Records rakh2502 dudehacker
BeatmapID:1959081
BeatmapSetID:936784

[Difficulty]
HPDrainRate:7.5
CircleSize:4
OverallDifficulty:7
ApproachRate:5
SliderMultiplier:1.4
SliderTickRate:1

[Events]
//Background and Video events
0,0,"42941190.jpg",0,0
//Break Periods
//Storyboard Layer 0 (Background)
//Storyboard Layer 1 (Fail)
//Storyboard Layer 2 (Pass)
//Storyboard Layer 3 (Foreground)
//Storyboard Layer 4 (Overlay)
//Storyboard Sound Samples
Sample,1142,0,"soft-hitclap.wav",0
Sample,1142,0,"LR_Drum Finish.wav",70
Sample,2392,0,"soft-hitclap.wav",0
Sample,2392,0,"LR_Drum Finish.wav",70
Sample,7747,0,"soft-hitclap.wav",0
Sample,7907,0,"soft-hitclap.wav",0
Sample,8465,0,"soft-hitfinish.wav",0
Sample,8785,0,"soft-hitfinish.wav",0
Sample,9104,0,"soft-hitfinish.wav",0
Sample,10221,0,"soft-hitwhistle.wav",0
Sample,10859,0,"soft-hitwhistle.wav",0
Sample,11019,0,"soft-hitfinish.wav",0
Sample,11338,0,"soft-hitfinish.wav",0
Sample,11577,0,"soft-hitclap.wav",0
Sample,11737,0,"soft-hitclap.wav",0
Sample,13572,0,"soft-hitwhistle.wav",0
Sample,13891,0,"soft-hitfinish.wav",0
Sample,14210,0,"soft-hitfinish.wav",0
Sample,15327,0,"soft-hitwhistle.wav",0
Sample,15965,0,"soft-hitwhistle.wav",0
Sample,16125,0,"soft-hitfinish.wav",0
Sample,16444,0,"soft-hitfinish.wav",0
Sample,16684,0,"soft-hitclap.wav",0
Sample,16843,0,"soft-hitclap.wav",0
Sample,18519,0,"CrashRight.wav",70
Sample,21231,0,"soft-hitwhistle.wav",0
Sample,21870,0,"soft-hitwhistle.wav",0
Sample,24423,0,"soft-hitwhistle.wav",0
Sample,26338,0,"soft-hitwhistle.wav",0
Sample,26976,0,"soft-hitwhistle.wav",0
Sample,29529,0,"soft-hitwhistle.wav",0
Sample,30168,0,"soft-hitwhistle.wav",0
Sample,31125,0,"CrashRight.wav",70
Sample,32082,0,"soft-hitwhistle.wav",0
Sample,34636,0,"soft-hitwhistle.wav",0
Sample,41338,0,"Tom3.wav",70
Sample,42455,0,"Tom2.wav",70
Sample,43731,0,"Tom2.wav",70
Sample,45008,0,"Tom2.wav",70
Sample,46285,0,"Tom2.wav",70
Sample,47082,0,"soft-hitwhistle.wav",0
Sample,47402,0,"soft-hitwhistle.wav",0
Sample,48040,0,"soft-hitwhistle.wav",0
Sample,48359,0,"soft-hitwhistle.wav",0
Sample,48678,0,"soft-hitwhistle.wav",0
Sample,49157,0,"CrashRight.wav",70
Sample,49317,0,"soft-hitwhistle.wav",0
Sample,49795,0,"soft-hitwhistle.wav",0
Sample,51870,0,"soft-hitwhistle.wav",0
Sample,52508,0,"soft-hitwhistle.wav",0
Sample,53785,0,"soft-hitwhistle.wav",0
Sample,55061,0,"soft-hitwhistle.wav",0
Sample,55700,0,"soft-hitwhistle.wav",0
Sample,57455,0,"soft-hitwhistle.wav",0
Sample,58731,0,"soft-hitwhistle.wav",0
Sample,62082,0,"soft-hitwhistle.wav",0
Sample,62721,0,"soft-hitwhistle.wav",0
Sample,63997,0,"soft-hitwhistle.wav",0
Sample,65274,0,"soft-hitwhistle.wav",0
Sample,65912,0,"soft-hitwhistle.wav",0
Sample,67668,0,"soft-hitwhistle.wav",0
Sample,68944,0,"soft-hitwhistle.wav",0
Sample,71737,0,"soft-hitclap.wav",0
Sample,71896,0,"soft-hitclap.wav",0
Sample,72056,0,"soft-hitclap.wav",0
Sample,72295,0,"soft-hitfinish.wav",0
Sample,72614,0,"soft-hitfinish.wav",0
Sample,72934,0,"soft-hitfinish.wav",0
Sample,73253,0,"soft-hitfinish.wav",0
Sample,73572,0,"soft-hitfinish.wav",0
Sample,73891,0,"soft-hitfinish.wav",0
Sample,74210,0,"soft-hitfinish.wav",0
Sample,74529,0,"soft-hitfinish.wav",0
Sample,74848,0,"soft-hitfinish.wav",0
Sample,75168,0,"soft-hitfinish.wav",0
Sample,75487,0,"soft-hitfinish.wav",0
Sample,75806,0,"soft-hitfinish.wav",0
Sample,76125,0,"soft-hitfinish.wav",0
Sample,76444,0,"soft-hitfinish.wav",0
Sample,77082,0,"soft-hitfinish.wav",0

[TimingPoints]
690,319.148936170213,4,2,1,70,1,0
1150,319.148936170213,4,2,1,70,1,0
1940,319.148936170213,4,2,1,70,1,0
2400,319.148936170213,4,2,1,70,1,0
3200,319.148936170213,4,2,1,70,1,0
51551,-100,4,2,1,70,0,1
71338,-100,4,2,1,70,0,0

[HitObjects]
64,192,690,5,8,0:0:0:0:
448,192,690,1,0,0:0:0:70:LR_Drum Finish.wav
192,192,849,1,0,0:0:0:70:LR_Drum Rpd vFast.wav
320,192,1009,1,0,0:0:0:70:LR_Drum Rpd vFast.wav
64,192,1150,1,0,0:0:0:0:
192,192,1150,1,0,0:0:0:0:
448,192,1309,1,0,0:0:0:70:LR_Drum Rpd vFast.wav
320,192,1469,1,0,0:0:0:70:LR_Drum Rpd vFast.wav
64,192,1628,1,0,0:0:0:70:LR_Drum Rpd vFast.wav
192,192,1788,1,0,0:0:0:70:LR_Drum Rpd vFast.wav
320,192,1940,1,8,0:0:0:0:
448,192,1940,1,0,0:0:0:70:LR_Drum Finish.wav
192,192,2099,1,0,0:0:0:70:LR_Drum Rpd vFast.wav
64,192,2259,1,0,0:0:0:70:LR_Drum Rpd vFast.wav
192,192,2400,1,0,0:0:0:0:
320,192,2400,1,0,0:0:0:0:
448,192,2559,1,0,0:0:0:70:LR_Drum Rpd vFast.wav
320,192,2719,1,0,0:0:0:70:LR_Drum Rpd vFast.wav
64,192,2878,1,0,0:0:0:70:LR_Drum Rpd vFast.wav
192,192,3038,1,0,0:0:0:70:LR_Drum Rpd vFast.wav
448,192,3197,1,0,0:0:0:0:
320,192,3200,1,0,0:0:0:20:LR_Drum Hit Drop High.wav
64,192,3359,1,0,0:0:0:20:LR_Drum Hit Drop High.wav
192,192,3519,1,0,0:0:0:20:LR_Drum Hit Drop High.wav
448,192,3678,1,0,0:0:0:20:LR_Drum Hit Drop High.wav
320,192,3838,1,0,0:0:0:40:LR_Drum Hit Drop High.wav
64,192,3997,1,0,0:0:0:40:LR_Drum Hit Drop High.wav
192,192,4157,1,0,0:0:0:40:LR_Drum Hit Drop High.wav
320,192,4317,1,0,0:0:0:40:LR_Drum Hit Drop High.wav
448,192,4476,1,0,0:0:0:50:LR_Drum Hit Drop High.wav
64,192,4636,1,0,0:0:0:50:LR_Drum Hit Drop High.wav
192,192,4795,1,0,0:0:0:60:LR_Drum Hit Drop High.wav
448,192,4955,1,0,0:0:0:60:LR_Drum Hit Drop High.wav
320,192,5114,1,0,0:0:0:70:LR_Drum Hit Drop High.wav
64,192,5274,1,0,0:0:0:80:LR_Drum Hit Drop High.wav
192,192,5434,1,0,0:0:0:90:LR_Drum Hit Drop High.wav
320,192,5593,1,4,0:0:0:0:
448,192,5593,1,0,0:0:0:0:
64,192,7668,1,0,0:0:0:70:Tom1.wav
192,192,7827,1,8,0:0:0:0:
320,192,7987,1,8,0:0:0:0:
64,192,8146,1,2,0:0:0:0:
448,192,8146,128,0,8625:0:0:0:70:CrashRight.wav
192,192,8625,1,8,0:0:0:0:
64,192,8944,128,2,9263:0:0:0:0:
448,192,9263,1,8,0:0:0:0:
320,192,9423,1,4,0:0:0:0:
64,192,9582,1,2,0:0:0:0:
64,192,9742,1,4,0:0:0:0:
320,192,9902,1,8,0:0:0:0:
192,192,10061,128,4,10380:0:0:0:0:
448,192,10380,1,4,0:0:0:0:
320,192,10540,1,8,0:0:0:0:
64,192,10700,128,4,11178:0:0:0:0:
192,192,10700,1,0,0:0:0:0:
448,192,11178,128,8,11497:0:0:0:0:
320,192,11497,1,10,0:0:0:0:
192,192,11657,1,8,0:0:0:0:
64,192,11817,1,8,0:0:0:0:
320,192,11976,1,2,0:0:0:0:
448,192,11976,1,4,0:0:0:0:
320,192,12295,1,2,0:0:0:0:
448,192,12295,1,4,0:0:0:0:
64,192,12614,1,4,0:0:0:0:
192,192,12614,1,2,0:0:0:0:
64,192,12934,1,2,0:0:0:0:
192,192,12934,1,4,0:0:0:0:
320,192,13093,1,0,0:0:0:0:
64,192,13253,128,2,13731:0:0:0:0:
448,192,13253,1,0,0:0:0:70:CrashRight.wav
320,192,13731,1,8,0:0:0:0:
448,192,14051,128,2,14370:0:0:0:0:
64,192,14370,1,8,0:0:0:0:
192,192,14529,1,4,0:0:0:0:
448,192,14689,1,2,0:0:0:0:
448,192,14848,1,4,0:0:0:0:
192,192,15008,1,8,0:0:0:0:
320,192,15168,128,4,15487:0:0:0:0:
64,192,15487,1,4,0:0:0:0:
192,192,15646,1,8,0:0:0:0:
320,192,15806,1,4,0:0:0:0:
448,192,15806,128,0,16285:0:0:0:0:
64,192,16285,128,8,16604:0:0:0:0:
192,192,16604,1,10,0:0:0:0:
320,192,16763,1,8,0:0:0:0:
448,192,16923,1,8,0:0:0:0:
64,192,17082,1,2,0:0:0:0:
192,192,17082,1,4,0:0:0:0:
64,192,17402,1,2,0:0:0:0:
192,192,17402,1,4,0:0:0:0:
192,192,17721,1,4,0:0:0:0:
320,192,17721,1,2,0:0:0:0:
448,192,18040,1,0,0:0:0:70:Tom1.wav
320,192,18200,1,0,0:0:0:70:Tom2.wav
192,192,18359,1,0,0:0:0:70:Tom3.wav
64,192,18519,128,2,19157:0:0:0:0:
448,192,18519,1,0,0:0:0:70:CrashRight.wav
320,192,18838,1,2,0:0:0:0:
192,192,19157,1,2,0:0:0:0:
448,192,19157,128,0,19795:0:0:0:0:
64,192,19476,1,2,0:0:0:0:
320,192,19795,1,2,0:0:0:0:
64,192,19955,1,8,0:0:0:0:
448,192,20114,1,8,0:0:0:0:
192,192,20274,1,8,0:0:0:0:
320,192,20434,1,8,0:0:0:0:
64,192,20593,1,8,0:0:0:0:
448,192,20753,1,8,0:0:0:0:
64,192,20912,128,2,21391:0:0:0:0:
320,192,20912,1,0,0:0:0:70:CrashRight.wav
448,192,21391,1,8,0:0:0:0:
320,192,21710,1,2,0:0:0:0:
64,192,22029,1,8,0:0:0:0:
192,192,22029,1,0,0:0:0:0:
448,192,22348,1,2,0:0:0:0:
192,192,22668,1,8,0:0:0:0:
320,192,22668,1,0,0:0:0:0:
64,192,22987,1,2,0:0:0:0:
64,192,23146,1,2,0:0:0:0:
192,192,23306,1,8,0:0:0:0:
320,192,23306,1,0,0:0:0:0:
448,192,23465,128,2,23785:0:0:0:0:
64,192,23785,1,2,0:0:0:0:
192,192,23944,1,8,0:0:0:0:
320,192,23944,1,0,0:0:0:0:
192,192,24263,1,2,0:0:0:0:
320,192,24582,1,8,0:0:0:0:
448,192,24582,1,0,0:0:0:0:
64,192,24902,1,2,0:0:0:0:
192,192,25221,1,8,0:0:0:0:
320,192,25221,1,0,0:0:0:0:
448,192,25540,1,2,0:0:0:0:
448,192,25700,1,2,0:0:0:0:
192,192,25859,1,8,0:0:0:0:
320,192,25859,1,0,0:0:0:0:
64,192,26019,128,2,26338:0:0:0:0:
448,192,26338,1,2,0:0:0:0:
192,192,26497,1,8,0:0:0:0:
320,192,26497,1,0,0:0:0:0:
320,192,26817,1,2,0:0:0:0:
64,192,27136,1,8,0:0:0:0:
192,192,27136,1,0,0:0:0:0:
448,192,27455,1,2,0:0:0:0:
192,192,27774,1,8,0:0:0:0:
320,192,27774,1,0,0:0:0:0:
64,192,28093,1,2,0:0:0:0:
64,192,28253,1,2,0:0:0:0:
192,192,28412,1,8,0:0:0:0:
320,192,28412,1,0,0:0:0:0:
448,192,28572,128,2,28891:0:0:0:0:
64,192,28891,1,2,0:0:0:0:
192,192,29051,1,8,0:0:0:0:
320,192,29051,1,0,0:0:0:0:
192,192,29370,1,2,0:0:0:0:
320,192,29689,1,8,0:0:0:0:
448,192,29689,1,0,0:0:0:0:
448,192,30008,1,2,0:0:0:0:
192,192,30327,1,8,0:0:0:0:
320,192,30327,1,0,0:0:0:0:
64,192,30646,1,2,0:0:0:0:
64,192,30806,1,0,0:0:0:0:
192,192,30965,1,8,0:0:0:0:
320,192,30965,1,0,0:0:0:0:
64,192,31125,128,2,31444:0:0:0:0:
448,192,31125,1,0,0:0:0:70:CrashRight.wav
448,192,31444,1,2,0:0:0:0:
192,192,31604,1,8,0:0:0:0:
320,192,31604,1,0,0:0:0:0:
64,192,31923,1,2,0:0:0:0:
64,192,32242,1,8,0:0:0:0:
448,192,32242,1,0,0:0:0:0:
192,192,32561,1,2,0:0:0:0:
320,192,32880,1,8,0:0:0:0:
448,192,32880,1,0,0:0:0:0:
64,192,33200,1,2,0:0:0:0:
64,192,33359,1,2,0:0:0:0:
192,192,33519,1,8,0:0:0:0:
320,192,33519,1,0,0:0:0:0:
448,192,33678,128,2,33997:0:0:0:0:
64,192,33997,1,2,0:0:0:0:
192,192,34157,1,8,0:0:0:0:
320,192,34157,1,0,0:0:0:0:
320,192,34476,1,2,0:0:0:0:
64,192,34795,1,8,0:0:0:0:
192,192,34795,1,0,0:0:0:0:
448,192,35114,1,2,0:0:0:0:
192,192,35434,1,8,0:0:0:0:
320,192,35434,1,0,0:0:0:0:
448,192,35753,1,2,0:0:0:0:
448,192,35912,1,2,0:0:0:0:
192,192,36072,1,8,0:0:0:0:
320,192,36072,1,0,0:0:0:0:
64,192,36231,128,2,36551:0:0:0:0:
448,192,36551,1,2,0:0:0:0:
192,192,36710,1,8,0:0:0:0:
320,192,36710,1,0,0:0:0:0:
64,192,37029,1,2,0:0:0:0:
64,192,37189,1,2,0:0:0:0:
320,192,37348,1,8,0:0:0:0:
448,192,37348,1,0,0:0:0:0:
64,192,37668,1,2,0:0:0:0:
192,192,37668,1,0,0:0:0:0:
64,192,37987,1,8,0:0:0:0:
320,192,37987,1,0,0:0:0:0:
448,192,38306,1,2,0:0:0:0:
448,192,38465,1,2,0:0:0:0:
192,192,38625,1,8,0:0:0:0:
320,192,38625,1,0,0:0:0:0:
64,192,38785,128,2,39104:0:0:0:0:
448,192,39104,1,2,0:0:0:0:
192,192,39263,1,8,0:0:0:0:
320,192,39263,1,0,0:0:0:0:
64,192,39582,1,2,0:0:0:0:
192,192,39742,1,2,0:0:0:0:
320,192,39902,1,8,0:0:0:0:
448,192,39902,1,0,0:0:0:0:
448,192,40221,1,2,0:0:0:0:
320,192,40380,1,2,0:0:0:0:
64,192,40540,1,8,0:0:0:0:
192,192,40540,1,0,0:0:0:0:
64,192,40859,1,0,0:0:0:70:Tom1.wav
192,192,41019,1,0,0:0:0:70:Tom3.wav
320,192,41178,1,0,0:0:0:70:Tom3.wav
64,192,41497,1,2,0:0:0:0:
448,192,41497,1,0,0:0:0:70:CrashRight.wav
448,192,41817,1,2,0:0:0:0:
320,192,41976,1,0,0:0:0:70:Tom1.wav
192,192,42136,1,2,0:0:0:0:
64,192,42455,1,2,0:0:0:0:
448,192,42774,1,2,0:0:0:0:
320,192,42934,1,0,0:0:0:70:Tom1.wav
64,192,43093,1,2,0:0:0:0:
192,192,43253,1,0,0:0:0:70:Tom1.wav
320,192,43412,1,2,0:0:0:0:
448,192,43731,1,2,0:0:0:0:
64,192,44051,1,2,0:0:0:0:
192,192,44051,1,0,0:0:0:70:CrashRight.wav
320,192,44370,1,2,0:0:0:0:
64,192,44529,1,0,0:0:0:70:Tom1.wav
448,192,44689,1,2,0:0:0:0:
320,192,45008,1,2,0:0:0:0:
64,192,45327,1,2,0:0:0:0:
192,192,45487,1,0,0:0:0:70:Tom1.wav
448,192,45646,1,2,0:0:0:0:
320,192,45806,1,0,0:0:0:70:Tom1.wav
64,192,45965,1,2,0:0:0:0:
192,192,46125,1,0,0:0:0:70:Tom1.wav
448,192,46285,1,2,0:0:0:0:
64,192,46604,1,2,0:0:0:0:
192,192,46604,1,0,0:0:0:70:CrashRight.wav
320,192,46923,1,8,0:0:0:0:
448,192,46923,128,0,47242:0:0:0:0:
64,192,47242,128,8,47561:0:0:0:0:
192,192,47242,1,0,0:0:0:0:
320,192,47561,128,0,47880:0:0:0:0:
448,192,47561,1,8,0:0:0:0:
64,192,47880,1,8,0:0:0:0:
192,192,47880,128,0,48200:0:0:0:0:
320,192,48200,1,8,0:0:0:0:
448,192,48200,128,0,48519:0:0:0:0:
64,192,48519,128,8,48838:0:0:0:0:
192,192,48519,1,0,0:0:0:0:
320,192,48838,128,8,49157:0:0:0:0:
448,192,48838,1,0,0:0:0:0:
64,192,49157,1,8,0:0:0:0:
448,192,49476,1,2,0:0:0:0:
192,192,49636,1,8,0:0:0:0:
320,192,49636,1,0,0:0:0:70:CrashRight.wav
64,192,49955,1,2,0:0:0:0:
192,192,50114,1,8,0:0:0:0:
320,192,50274,1,8,0:0:0:0:
448,192,50274,1,0,0:0:0:0:
192,192,50593,1,2,0:0:0:0:
192,192,50753,1,8,0:0:0:0:
64,192,50912,1,8,0:0:0:0:
448,192,50912,1,4,0:0:0:0:
320,192,51231,1,0,0:0:0:0:
192,192,51391,1,0,0:0:0:0:
64,192,51551,1,2,0:0:0:0:
448,192,51551,128,0,52029:0:0:0:70:CrashRight.wav
64,192,52029,1,8,0:0:0:0:
192,192,52029,128,0,52348:0:0:0:0:
320,192,52348,1,2,0:0:0:0:
64,192,52668,1,8,0:0:0:0:
448,192,52668,1,0,0:0:0:0:
320,192,52987,1,2,0:0:0:0:
64,192,53306,1,8,0:0:0:0:
192,192,53306,1,0,0:0:0:0:
448,192,53625,1,2,0:0:0:0:
192,192,53944,1,8,0:0:0:0:
320,192,53944,1,0,0:0:0:0:
448,192,54104,128,2,54423:0:0:0:0:
64,192,54423,1,2,0:0:0:0:
192,192,54582,1,8,0:0:0:0:
320,192,54582,1,0,0:0:0:0:
448,192,54902,1,2,0:0:0:0:
64,192,55221,1,8,0:0:0:0:
192,192,55221,1,0,0:0:0:0:
448,192,55540,1,2,0:0:0:0:
192,192,55859,1,8,0:0:0:0:
320,192,55859,1,0,0:0:0:0:
64,192,56178,1,2,0:0:0:0:
448,192,56338,1,2,0:0:0:0:
320,192,56497,1,8,0:0:0:0:
64,192,56657,1,2,0:0:0:0:
192,192,56657,1,0,0:0:0:70:CrashRight.wav
320,192,56976,1,2,0:0:0:0:
192,192,57136,1,8,0:0:0:0:
64,192,57295,1,0,0:0:0:0:
64,192,57614,1,2,0:0:0:0:
192,192,57774,1,8,0:0:0:0:
320,192,57934,1,2,0:0:0:0:
448,192,57934,1,0,0:0:0:70:CrashRight.wav
192,192,58253,1,2,0:0:0:0:
320,192,58412,1,8,0:0:0:0:
448,192,58572,1,0,0:0:0:0:
192,192,58891,1,2,0:0:0:0:
320,192,59051,1,8,0:0:0:0:
448,192,59051,1,0,0:0:0:0:
448,192,59370,1,2,0:0:0:0:
64,192,59529,1,0,0:0:0:0:
192,192,59689,1,8,0:0:0:0:
320,192,59689,1,0,0:0:0:0:
64,192,60008,1,2,0:0:0:0:
448,192,60168,1,2,0:0:0:0:
192,192,60327,1,8,0:0:0:0:
64,192,60487,128,8,60806:0:0:0:0:
320,192,60487,1,4,0:0:0:0:
320,192,60806,128,8,61125:0:0:0:0:
448,192,60806,1,4,0:0:0:0:
64,192,61125,128,8,61285:0:0:0:0:
192,192,61125,1,4,0:0:0:0:
192,192,61444,1,0,0:0:0:70:Tom1.wav
320,192,61604,1,0,0:0:0:70:Tom2.wav
64,192,61763,128,2,62242:0:0:0:0:
448,192,61763,1,0,0:0:0:70:CrashRight.wav
320,192,62242,128,8,62561:0:0:0:0:
448,192,62242,1,0,0:0:0:0:
192,192,62561,1,2,0:0:0:0:
64,192,62880,1,8,0:0:0:0:
448,192,62880,1,0,0:0:0:0:
192,192,63200,1,2,0:0:0:0:
320,192,63519,1,8,0:0:0:0:
448,192,63519,1,0,0:0:0:0:
64,192,63838,1,2,0:0:0:0:
192,192,64157,1,8,0:0:0:0:
320,192,64157,1,0,0:0:0:0:
64,192,64317,128,2,64636:0:0:0:0:
448,192,64636,1,2,0:0:0:0:
192,192,64795,1,8,0:0:0:0:
320,192,64795,1,0,0:0:0:0:
64,192,65114,1,2,0:0:0:0:
320,192,65434,1,8,0:0:0:0:
448,192,65434,1,0,0:0:0:0:
64,192,65753,1,2,0:0:0:0:
192,192,66072,1,8,0:0:0:0:
320,192,66072,1,0,0:0:0:0:
448,192,66391,1,2,0:0:0:0:
64,192,66551,1,2,0:0:0:0:
192,192,66710,1,8,0:0:0:0:
320,192,66870,1,2,0:0:0:0:
448,192,66870,1,0,0:0:0:70:CrashRight.wav
192,192,67189,1,2,0:0:0:0:
320,192,67348,1,8,0:0:0:0:
448,192,67508,1,0,0:0:0:0:
448,192,67827,1,2,0:0:0:0:
320,192,67987,1,8,0:0:0:0:
64,192,68146,1,2,0:0:0:0:
192,192,68146,1,0,0:0:0:70:CrashRight.wav
320,192,68465,1,2,0:0:0:0:
192,192,68625,1,8,0:0:0:0:
64,192,68785,1,0,0:0:0:0:
320,192,69104,1,2,0:0:0:0:
64,192,69263,1,8,0:0:0:0:
192,192,69263,1,0,0:0:0:0:
64,192,69582,1,2,0:0:0:0:
448,192,69742,1,0,0:0:0:0:
192,192,69902,1,8,0:0:0:0:
320,192,69902,1,0,0:0:0:0:
448,192,70221,1,2,0:0:0:0:
64,192,70380,1,2,0:0:0:0:
320,192,70540,1,8,0:0:0:0:
192,192,70700,1,8,0:0:0:0:
448,192,70700,128,4,71019:0:0:0:0:
64,192,71019,1,8,0:0:0:0:
192,192,71019,128,4,71338:0:0:0:0:
320,192,71338,1,8,0:0:0:0:
448,192,71338,128,4,71497:0:0:0:0:
64,192,71657,1,8,0:0:0:0:
192,192,71817,1,8,0:0:0:0:
320,192,71976,1,8,0:0:0:0:
64,192,72136,1,2,0:0:0:0:
448,192,72455,1,8,0:0:0:0:
320,192,72774,1,2,0:0:0:0:
192,192,73093,1,8,0:0:0:0:
448,192,73412,1,2,0:0:0:0:
64,192,73731,1,8,0:0:0:0:
320,192,74051,1,2,0:0:0:0:
192,192,74370,1,8,0:0:0:0:
64,192,74689,1,2,0:0:0:0:
320,192,75008,1,8,0:0:0:0:
448,192,75327,1,2,0:0:0:0:
192,192,75646,1,8,0:0:0:0:
64,192,75965,1,2,0:0:0:0:
320,192,76285,1,8,0:0:0:0:
64,192,76604,1,2,0:0:0:0:
192,192,76763,1,4,0:0:0:0:
320,192,76923,1,8,0:0:0:0:
448,192,77242,128,2,77880:0:0:0:0:
320,192,77561,1,8,0:0:0:0:
64,192,77880,1,2,0:0:0:0:
192,192,78040,1,0,0:0:0:70:Tom1.wav
448,192,78200,1,0,0:0:0:70:Tom2.wav
320,192,78359,1,0,0:0:0:70:Tom3.wav
64,192,78519,1,8,0:0:0:0:
192,192,78519,128,4,78838:0:0:0:0:
320,192,78838,128,8,79795:0:0:0:0:
448,192,78838,1,4,0:0:0:0:
320,192,81870,1,8,0:0:0:0:
192,192,82029,1,0,0:0:0:70:Tom3.wav
64,192,82189,1,8,0:0:0:0:
448,192,82189,1,0,0:0:0:0:
