osu file format v14

[General]
AudioFilename: audio.mp3
AudioLeadIn: 0
PreviewTime: 51162
Countdown: 1
SampleSet: Normal
StackLeniency: 0.7
Mode: 1
LetterboxInBreaks: 0
WidescreenStoryboard: 0

[Editor]
DistanceSpacing: 0.7
BeatDivisor: 4
GridSize: 32
TimelineZoom: 2.5

[Metadata]
Title:BANG!BANG!BANG!
TitleUnicode:BANG!BANG!BANG!
Artist:Silent Siren
ArtistUnicode:Silent Siren
Creator:yassu-
Version:Inner Oni
Source:
Tags:
BeatmapID:1501718
BeatmapSetID:710418

[Difficulty]
HPDrainRate:5
CircleSize:5
OverallDifficulty:5
ApproachRate:5
SliderMultiplier:1.4
SliderTickRate:1

[Events]
//Background and Video events
0,0,"anime-girl-wear-a-beautiful-blue-dress-summer-time_5120x3200[1].jpg",0,0
//Break Periods
//Storyboard Layer 0 (Background)
//Storyboard Layer 1 (Fail)
//Storyboard Layer 2 (Pass)
//Storyboard Layer 3 (Foreground)
//Storyboard Sound Samples

[TimingPoints]
654,319.148936170213,4,1,0,100,1,0
51558,-100,4,1,0,100,0,1
79643,-100,4,1,0,100,0,0
115388,-100,4,1,0,100,0,1
143473,-100,4,1,0,100,0,0
195813,-100,4,1,0,100,0,1
223898,-100,4,1,0,100,0,0

[HitObjects]
256,192,654,5,2,0:0:0:0:
256,192,813,1,0,0:0:0:0:
256,192,973,1,0,0:0:0:0:
256,192,1132,1,2,0:0:0:0:
256,192,1292,1,0,0:0:0:0:
256,192,1451,1,0,0:0:0:0:
256,192,1611,1,0,0:0:0:0:
256,192,1771,1,0,0:0:0:0:
256,192,1930,1,2,0:0:0:0:
256,192,2090,1,0,0:0:0:0:
256,192,2249,1,0,0:0:0:0:
256,192,2409,1,2,0:0:0:0:
256,192,2568,1,0,0:0:0:0:
256,192,2728,1,0,0:0:0:0:
256,192,2888,1,0,0:0:0:0:
256,192,3207,1,6,0:0:0:0:
256,192,3366,1,2,0:0:0:0:
256,192,3526,1,0,0:0:0:0:
256,192,3685,1,2,0:0:0:0:
256,192,3845,1,2,0:0:0:0:
256,192,4005,1,0,0:0:0:0:
256,192,4164,1,2,0:0:0:0:
256,192,4324,1,0,0:0:0:0:
256,192,4483,1,2,0:0:0:0:
256,192,4643,1,2,0:0:0:0:
256,192,4802,1,0,0:0:0:0:
256,192,4962,1,2,0:0:0:0:
256,192,5122,1,2,0:0:0:0:
256,192,5281,1,0,0:0:0:0:
256,192,5441,1,4,0:0:0:0:
256,192,5600,1,2,0:0:0:0:
256,192,7675,1,0,0:0:0:0:
256,192,7755,1,0,0:0:0:0:
256,192,7834,1,0,0:0:0:0:
256,192,7914,1,0,0:0:0:0:
256,192,7994,1,0,0:0:0:0:
256,192,8154,1,6,0:0:0:0:
256,192,8473,1,0,0:0:0:0:
256,192,8632,1,2,0:0:0:0:
256,192,8792,1,0,0:0:0:0:
256,192,8951,1,2,0:0:0:0:
256,192,9031,1,2,0:0:0:0:
256,192,9111,1,0,0:0:0:0:
256,192,9271,1,2,0:0:0:0:
256,192,9430,1,2,0:0:0:0:
256,192,9510,1,0,0:0:0:0:
256,192,9590,1,2,0:0:0:0:
256,192,9669,1,2,0:0:0:0:
256,192,9749,1,0,0:0:0:0:
256,192,9909,1,2,0:0:0:0:
256,192,10068,1,0,0:0:0:0:
256,192,10148,1,2,0:0:0:0:
256,192,10228,1,2,0:0:0:0:
256,192,10308,1,2,0:0:0:0:
256,192,10388,1,0,0:0:0:0:
256,192,10547,1,0,0:0:0:0:
256,192,10707,1,2,0:0:0:0:
256,192,11026,1,0,0:0:0:0:
256,192,11185,1,2,0:0:0:0:
256,192,11345,1,0,0:0:0:0:
256,192,11505,1,2,0:0:0:0:
256,192,11584,1,2,0:0:0:0:
256,192,11664,1,2,0:0:0:0:
256,192,11744,1,2,0:0:0:0:
256,192,11824,1,2,0:0:0:0:
256,192,11983,1,4,0:0:0:0:
256,192,12302,1,4,0:0:0:0:
256,192,12462,1,2,0:0:0:0:
256,192,12622,1,4,0:0:0:0:
256,192,12941,1,4,0:0:0:0:
256,192,13100,1,0,0:0:0:0:
256,192,13260,1,6,0:0:0:0:
256,192,13579,1,0,0:0:0:0:
256,192,13739,1,2,0:0:0:0:
256,192,13898,1,0,0:0:0:0:
256,192,14058,1,2,0:0:0:0:
256,192,14138,1,2,0:0:0:0:
256,192,14217,1,0,0:0:0:0:
256,192,14377,1,2,0:0:0:0:
256,192,14536,1,2,0:0:0:0:
256,192,14616,1,0,0:0:0:0:
256,192,14696,1,2,0:0:0:0:
256,192,14776,1,2,0:0:0:0:
256,192,14856,1,0,0:0:0:0:
256,192,15015,1,2,0:0:0:0:
256,192,15175,1,0,0:0:0:0:
256,192,15255,1,2,0:0:0:0:
256,192,15334,1,2,0:0:0:0:
256,192,15414,1,2,0:0:0:0:
256,192,15494,1,0,0:0:0:0:
256,192,15654,1,0,0:0:0:0:
256,192,15813,1,2,0:0:0:0:
256,192,16132,1,0,0:0:0:0:
256,192,16292,1,2,0:0:0:0:
256,192,16451,1,0,0:0:0:0:
256,192,16611,1,2,0:0:0:0:
256,192,16691,1,2,0:0:0:0:
256,192,16771,1,2,0:0:0:0:
256,192,16850,1,2,0:0:0:0:
256,192,16930,1,2,0:0:0:0:
256,192,17090,1,4,0:0:0:0:
256,192,17409,1,4,0:0:0:0:
256,192,17568,1,2,0:0:0:0:
256,192,17728,1,4,0:0:0:0:
256,192,18047,1,0,0:0:0:0:
256,192,18207,1,0,0:0:0:0:
256,192,18366,1,0,0:0:0:0:
256,192,18526,1,6,0:0:0:0:
256,192,18845,1,2,0:0:0:0:
256,192,19164,1,2,0:0:0:0:
256,192,19483,1,2,0:0:0:0:
256,192,19802,1,0,0:0:0:0:
256,192,19962,1,2,0:0:0:0:
256,192,20122,1,2,0:0:0:0:
256,192,20281,1,0,0:0:0:0:
256,192,20441,1,2,0:0:0:0:
256,192,20600,1,2,0:0:0:0:
256,192,20760,1,0,0:0:0:0:
256,192,20919,1,6,0:0:0:0:
256,192,21239,1,0,0:0:0:0:
256,192,21398,1,2,0:0:0:0:
256,192,21558,1,0,0:0:0:0:
256,192,21717,1,2,0:0:0:0:
256,192,21877,1,0,0:0:0:0:
256,192,22036,1,2,0:0:0:0:
256,192,22196,1,2,0:0:0:0:
256,192,22356,1,0,0:0:0:0:
256,192,22515,1,0,0:0:0:0:
256,192,22675,1,2,0:0:0:0:
256,192,22834,1,2,0:0:0:0:
256,192,22994,1,0,0:0:0:0:
256,192,23313,1,2,0:0:0:0:
256,192,23473,1,0,0:0:0:0:
256,192,23792,1,0,0:0:0:0:
256,192,23951,1,2,0:0:0:0:
256,192,24271,1,0,0:0:0:0:
256,192,24430,1,0,0:0:0:0:
256,192,24590,1,2,0:0:0:0:
256,192,24749,1,2,0:0:0:0:
256,192,24909,1,0,0:0:0:0:
256,192,25068,1,0,0:0:0:0:
256,192,25228,1,2,0:0:0:0:
256,192,25388,1,0,0:0:0:0:
256,192,25547,1,2,0:0:0:0:
256,192,25866,1,2,0:0:0:0:
256,192,26026,1,0,0:0:0:0:
256,192,26345,1,0,0:0:0:0:
256,192,26505,1,2,0:0:0:0:
256,192,26664,1,2,0:0:0:0:
256,192,26824,1,0,0:0:0:0:
256,192,26983,1,0,0:0:0:0:
256,192,27143,1,2,0:0:0:0:
256,192,27302,1,2,0:0:0:0:
256,192,27462,1,0,0:0:0:0:
256,192,27781,1,2,0:0:0:0:
256,192,27941,1,0,0:0:0:0:
256,192,28100,1,0,0:0:0:0:
256,192,28260,1,0,0:0:0:0:
256,192,28419,1,2,0:0:0:0:
256,192,28579,1,0,0:0:0:0:
256,192,28898,1,0,0:0:0:0:
256,192,29058,1,2,0:0:0:0:
256,192,29377,1,0,0:0:0:0:
256,192,29536,1,0,0:0:0:0:
256,192,29696,1,2,0:0:0:0:
256,192,29856,1,2,0:0:0:0:
256,192,30015,1,0,0:0:0:0:
256,192,30334,1,2,0:0:0:0:
256,192,30494,1,0,0:0:0:0:
256,192,30654,1,2,0:0:0:0:
256,192,30813,1,2,0:0:0:0:
256,192,31132,1,4,0:0:0:0:
256,192,31451,1,0,0:0:0:0:
256,192,31611,1,2,0:0:0:0:
256,192,31771,1,0,0:0:0:0:
256,192,31850,5,0,0:0:0:0:
256,192,31930,1,2,0:0:0:0:
256,192,32090,1,0,0:0:0:0:
256,192,32249,1,2,0:0:0:0:
256,192,32329,1,2,0:0:0:0:
256,192,32409,1,0,0:0:0:0:
256,192,32568,1,0,0:0:0:0:
256,192,32728,1,2,0:0:0:0:
256,192,32808,1,2,0:0:0:0:
256,192,32888,1,2,0:0:0:0:
256,192,33047,1,2,0:0:0:0:
256,192,33207,1,0,0:0:0:0:
256,192,33526,1,2,0:0:0:0:
256,192,33685,1,0,0:0:0:0:
256,192,34005,1,0,0:0:0:0:
256,192,34164,1,2,0:0:0:0:
256,192,34483,1,0,0:0:0:0:
256,192,34643,1,0,0:0:0:0:
256,192,34723,1,0,0:0:0:0:
256,192,34802,1,2,0:0:0:0:
256,192,34962,1,2,0:0:0:0:
256,192,35122,1,0,0:0:0:0:
256,192,35281,1,0,0:0:0:0:
256,192,35441,1,2,0:0:0:0:
256,192,35600,1,0,0:0:0:0:
256,192,35760,1,2,0:0:0:0:
256,192,36079,1,2,0:0:0:0:
256,192,36239,1,0,0:0:0:0:
256,192,36558,1,0,0:0:0:0:
256,192,36717,1,2,0:0:0:0:
256,192,36877,1,2,0:0:0:0:
256,192,36957,1,2,0:0:0:0:
256,192,37036,1,0,0:0:0:0:
256,192,37196,1,0,0:0:0:0:
256,192,37356,1,2,0:0:0:0:
256,192,37435,1,2,0:0:0:0:
256,192,37515,1,0,0:0:0:0:
256,192,37675,1,2,0:0:0:0:
256,192,37994,1,2,0:0:0:0:
256,192,38154,1,0,0:0:0:0:
256,192,38233,1,0,0:0:0:0:
256,192,38313,1,0,0:0:0:0:
256,192,38473,1,0,0:0:0:0:
256,192,38632,1,2,0:0:0:0:
256,192,38792,1,0,0:0:0:0:
256,192,39111,1,0,0:0:0:0:
256,192,39271,1,2,0:0:0:0:
256,192,39590,1,0,0:0:0:0:
256,192,39749,1,0,0:0:0:0:
256,192,39829,1,0,0:0:0:0:
256,192,39909,1,2,0:0:0:0:
256,192,40068,1,2,0:0:0:0:
256,192,40228,1,0,0:0:0:0:
256,192,40547,1,2,0:0:0:0:
256,192,40707,1,0,0:0:0:0:
256,192,40866,1,2,0:0:0:0:
256,192,41026,1,2,0:0:0:0:
256,192,41185,1,0,0:0:0:0:
256,192,41505,1,4,0:0:0:0:
256,192,41824,1,0,0:0:0:0:
256,192,41983,1,0,0:0:0:0:
256,192,42302,1,0,0:0:0:0:
256,192,42462,1,2,0:0:0:0:
256,192,42781,1,0,0:0:0:0:
256,192,42941,1,0,0:0:0:0:
256,192,43100,1,2,0:0:0:0:
256,192,43260,1,2,0:0:0:0:
256,192,43419,1,0,0:0:0:0:
256,192,43739,1,2,0:0:0:0:
256,192,44058,1,4,0:0:0:0:
256,192,44377,1,2,0:0:0:0:
256,192,44536,1,0,0:0:0:0:
256,192,44696,1,0,0:0:0:0:
256,192,45015,1,2,0:0:0:0:
256,192,45334,1,0,0:0:0:0:
256,192,45494,1,0,0:0:0:0:
256,192,45654,1,2,0:0:0:0:
256,192,45813,1,2,0:0:0:0:
256,192,45973,1,0,0:0:0:0:
256,192,46132,1,0,0:0:0:0:
256,192,46292,1,2,0:0:0:0:
256,192,46611,1,6,0:0:0:0:
256,192,46930,1,2,0:0:0:0:
256,192,47090,1,0,0:0:0:0:
256,192,47249,1,2,0:0:0:0:
256,192,47409,1,0,0:0:0:0:
256,192,47489,1,0,0:0:0:0:
256,192,47568,1,2,0:0:0:0:
256,192,47728,1,0,0:0:0:0:
256,192,47888,1,2,0:0:0:0:
256,192,47967,1,2,0:0:0:0:
256,192,48047,1,0,0:0:0:0:
256,192,48207,1,2,0:0:0:0:
256,192,48366,1,0,0:0:0:0:
256,192,48446,1,0,0:0:0:0:
256,192,48526,1,2,0:0:0:0:
256,192,48606,1,2,0:0:0:0:
256,192,48685,1,0,0:0:0:0:
256,192,48845,1,2,0:0:0:0:
256,192,49005,1,0,0:0:0:0:
256,192,49084,1,0,0:0:0:0:
256,192,49164,1,2,0:0:0:0:
256,192,49324,1,0,0:0:0:0:
256,192,49404,1,0,0:0:0:0:
256,192,49483,1,0,0:0:0:0:
256,192,49643,1,2,0:0:0:0:
256,192,49802,1,0,0:0:0:0:
256,192,49882,1,0,0:0:0:0:
256,192,49962,1,0,0:0:0:0:
256,192,50122,1,6,0:0:0:0:
256,192,50281,1,6,0:0:0:0:
256,192,50600,1,4,0:0:0:0:
256,192,50760,1,4,0:0:0:0:
256,192,50919,1,4,0:0:0:0:
256,192,51239,1,2,0:0:0:0:
256,192,51398,1,2,0:0:0:0:
256,192,51558,1,4,0:0:0:0:
256,192,51717,1,2,0:0:0:0:
256,192,51797,1,2,0:0:0:0:
256,192,51877,1,0,0:0:0:0:
256,192,52036,1,2,0:0:0:0:
256,192,52196,1,0,0:0:0:0:
256,192,52276,1,0,0:0:0:0:
256,192,52356,1,2,0:0:0:0:
256,192,52435,1,0,0:0:0:0:
256,192,52595,1,0,0:0:0:0:
256,192,52675,1,2,0:0:0:0:
256,192,52834,1,2,0:0:0:0:
256,192,52994,1,0,0:0:0:0:
256,192,53154,1,0,0:0:0:0:
256,192,53473,1,4,0:0:0:0:
256,192,53792,1,2,0:0:0:0:
256,192,53951,1,2,0:0:0:0:
256,192,54111,1,0,0:0:0:0:
256,192,54271,1,2,0:0:0:0:
256,192,54350,1,0,0:0:0:0:
256,192,54510,1,0,0:0:0:0:
256,192,54590,1,2,0:0:0:0:
256,192,54749,1,0,0:0:0:0:
256,192,54909,1,2,0:0:0:0:
256,192,54989,1,2,0:0:0:0:
256,192,55068,1,0,0:0:0:0:
256,192,55148,1,0,0:0:0:0:
256,192,55228,1,2,0:0:0:0:
256,192,55388,1,0,0:0:0:0:
256,192,55547,1,2,0:0:0:0:
256,192,55707,1,2,0:0:0:0:
256,192,55866,1,0,0:0:0:0:
256,192,56026,1,0,0:0:0:0:
256,192,56345,1,0,0:0:0:0:
256,192,56505,1,2,0:0:0:0:
256,192,56664,1,4,0:0:0:0:
256,192,56824,1,2,0:0:0:0:
256,192,56904,1,2,0:0:0:0:
256,192,56983,1,0,0:0:0:0:
256,192,57143,1,2,0:0:0:0:
256,192,57302,1,0,0:0:0:0:
256,192,57382,1,0,0:0:0:0:
256,192,57462,1,2,0:0:0:0:
256,192,57542,1,2,0:0:0:0:
256,192,57622,1,0,0:0:0:0:
256,192,57781,1,2,0:0:0:0:
256,192,57941,1,4,0:0:0:0:
256,192,58100,1,2,0:0:0:0:
256,192,58180,1,2,0:0:0:0:
256,192,58260,1,0,0:0:0:0:
256,192,58419,1,2,0:0:0:0:
256,192,58579,1,0,0:0:0:0:
256,192,58659,1,0,0:0:0:0:
256,192,58739,1,2,0:0:0:0:
256,192,58818,1,2,0:0:0:0:
256,192,58898,1,0,0:0:0:0:
256,192,59058,1,2,0:0:0:0:
256,192,59217,1,2,0:0:0:0:
256,192,59297,1,2,0:0:0:0:
256,192,59377,1,0,0:0:0:0:
256,192,59536,1,0,0:0:0:0:
256,192,59696,1,2,0:0:0:0:
256,192,59856,1,2,0:0:0:0:
256,192,59935,1,2,0:0:0:0:
256,192,60015,1,0,0:0:0:0:
256,192,60095,1,2,0:0:0:0:
256,192,60175,1,0,0:0:0:0:
256,192,60255,1,0,0:0:0:0:
256,192,60334,1,2,0:0:0:0:
256,192,60494,1,4,0:0:0:0:
256,192,60813,1,4,0:0:0:0:
256,192,61132,1,6,0:0:0:0:
256,192,61451,1,0,0:0:0:0:
256,192,61611,1,0,0:0:0:0:
256,192,61771,1,4,0:0:0:0:
256,192,61930,1,2,0:0:0:0:
256,192,62010,1,2,0:0:0:0:
256,192,62090,1,0,0:0:0:0:
256,192,62249,1,2,0:0:0:0:
256,192,62409,1,0,0:0:0:0:
256,192,62489,1,0,0:0:0:0:
256,192,62568,1,2,0:0:0:0:
256,192,62648,1,0,0:0:0:0:
256,192,62808,1,0,0:0:0:0:
256,192,62888,1,2,0:0:0:0:
256,192,63047,1,2,0:0:0:0:
256,192,63207,1,0,0:0:0:0:
256,192,63366,1,0,0:0:0:0:
256,192,63685,1,4,0:0:0:0:
256,192,64005,1,2,0:0:0:0:
256,192,64164,1,2,0:0:0:0:
256,192,64324,1,0,0:0:0:0:
256,192,64483,1,2,0:0:0:0:
256,192,64563,1,0,0:0:0:0:
256,192,64723,1,0,0:0:0:0:
256,192,64802,1,2,0:0:0:0:
256,192,64962,1,0,0:0:0:0:
256,192,65122,1,2,0:0:0:0:
256,192,65201,1,2,0:0:0:0:
256,192,65281,1,0,0:0:0:0:
256,192,65361,1,0,0:0:0:0:
256,192,65441,1,2,0:0:0:0:
256,192,65600,1,0,0:0:0:0:
256,192,65760,1,2,0:0:0:0:
256,192,65919,1,2,0:0:0:0:
256,192,66079,1,0,0:0:0:0:
256,192,66239,1,0,0:0:0:0:
256,192,66558,1,0,0:0:0:0:
256,192,66717,1,2,0:0:0:0:
256,192,66877,1,4,0:0:0:0:
256,192,67036,1,2,0:0:0:0:
256,192,67116,1,2,0:0:0:0:
256,192,67196,1,0,0:0:0:0:
256,192,67356,1,2,0:0:0:0:
256,192,67515,1,0,0:0:0:0:
256,192,67595,1,0,0:0:0:0:
256,192,67675,1,2,0:0:0:0:
256,192,67755,1,2,0:0:0:0:
256,192,67834,1,0,0:0:0:0:
256,192,67994,1,2,0:0:0:0:
256,192,68154,1,4,0:0:0:0:
256,192,68313,1,2,0:0:0:0:
256,192,68393,1,2,0:0:0:0:
256,192,68473,1,0,0:0:0:0:
256,192,68632,1,2,0:0:0:0:
256,192,68792,1,0,0:0:0:0:
256,192,68872,1,0,0:0:0:0:
256,192,68951,1,2,0:0:0:0:
256,192,69031,1,2,0:0:0:0:
256,192,69111,1,0,0:0:0:0:
256,192,69271,1,2,0:0:0:0:
256,192,69430,1,0,0:0:0:0:
256,192,69510,1,0,0:0:0:0:
256,192,69590,1,2,0:0:0:0:
256,192,69749,1,0,0:0:0:0:
256,192,69909,1,2,0:0:0:0:
256,192,70068,1,0,0:0:0:0:
256,192,70148,1,0,0:0:0:0:
256,192,70228,1,2,0:0:0:0:
256,192,70308,1,0,0:0:0:0:
256,192,70388,1,2,0:0:0:0:
256,192,70467,1,2,0:0:0:0:
256,192,70547,1,0,0:0:0:0:
256,192,70707,1,6,0:0:0:0:
256,192,71026,1,6,0:0:0:0:
256,192,71345,1,4,0:0:0:0:
256,192,71664,1,2,0:0:0:0:
256,192,71744,1,2,0:0:0:0:
256,192,71824,1,2,0:0:0:0:
256,192,71904,1,2,0:0:0:0:
256,192,71983,1,2,0:0:0:0:
256,192,72063,1,2,0:0:0:0:
256,192,72143,1,0,0:0:0:0:
256,192,72302,1,0,0:0:0:0:
256,192,72462,1,2,0:0:0:0:
256,192,72622,1,0,0:0:0:0:
256,192,72701,1,0,0:0:0:0:
256,192,72781,1,0,0:0:0:0:
256,192,72941,1,0,0:0:0:0:
256,192,73100,1,2,0:0:0:0:
256,192,73260,1,0,0:0:0:0:
256,192,73340,1,2,0:0:0:0:
256,192,73419,1,0,0:0:0:0:
256,192,73579,1,0,0:0:0:0:
256,192,73739,1,2,0:0:0:0:
256,192,73898,1,0,0:0:0:0:
256,192,73978,1,0,0:0:0:0:
256,192,74058,1,2,0:0:0:0:
256,192,74217,1,0,0:0:0:0:
256,192,74377,1,2,0:0:0:0:
256,192,74536,1,2,0:0:0:0:
256,192,74616,1,2,0:0:0:0:
256,192,74696,1,0,0:0:0:0:
256,192,75015,1,6,0:0:0:0:
256,192,75334,1,0,0:0:0:0:
256,192,75494,1,0,0:0:0:0:
256,192,75654,1,6,0:0:0:0:
256,192,75813,1,0,0:0:0:0:
256,192,76132,1,0,0:0:0:0:
256,192,76292,1,6,0:0:0:0:
256,192,76611,1,0,0:0:0:0:
256,192,76771,1,0,0:0:0:0:
256,192,76930,1,6,0:0:0:0:
256,192,77249,1,4,0:0:0:0:
256,192,77409,1,2,0:0:0:0:
256,192,77489,1,2,0:0:0:0:
256,192,77568,1,0,0:0:0:0:
256,192,77728,1,2,0:0:0:0:
256,192,77888,1,0,0:0:0:0:
256,192,78047,1,2,0:0:0:0:
256,192,78127,1,0,0:0:0:0:
256,192,78207,1,2,0:0:0:0:
256,192,78286,1,2,0:0:0:0:
256,192,78366,1,0,0:0:0:0:
256,192,78526,1,6,0:0:0:0:
256,192,78845,1,6,0:0:0:0:
256,192,79164,5,0,0:0:0:0:
256,192,79324,1,0,0:0:0:0:
256,192,79483,1,0,0:0:0:0:
256,192,79643,1,2,0:0:0:0:
256,192,81717,1,0,0:0:0:0:
256,192,81797,1,0,0:0:0:0:
256,192,81877,1,0,0:0:0:0:
256,192,81957,1,0,0:0:0:0:
256,192,82036,1,0,0:0:0:0:
256,192,82196,1,6,0:0:0:0:
256,192,82515,1,0,0:0:0:0:
256,192,82675,1,2,0:0:0:0:
256,192,82834,1,0,0:0:0:0:
256,192,82994,1,2,0:0:0:0:
256,192,83074,1,2,0:0:0:0:
256,192,83154,1,0,0:0:0:0:
256,192,83313,1,2,0:0:0:0:
256,192,83473,1,2,0:0:0:0:
256,192,83552,1,0,0:0:0:0:
256,192,83632,1,2,0:0:0:0:
256,192,83712,1,2,0:0:0:0:
256,192,83792,1,0,0:0:0:0:
256,192,83951,1,2,0:0:0:0:
256,192,84111,1,0,0:0:0:0:
256,192,84191,1,2,0:0:0:0:
256,192,84271,1,2,0:0:0:0:
256,192,84350,1,2,0:0:0:0:
256,192,84430,1,0,0:0:0:0:
256,192,84590,1,0,0:0:0:0:
256,192,84749,1,2,0:0:0:0:
256,192,85068,1,0,0:0:0:0:
256,192,85228,1,2,0:0:0:0:
256,192,85388,1,0,0:0:0:0:
256,192,85547,1,2,0:0:0:0:
256,192,85627,1,2,0:0:0:0:
256,192,85707,1,2,0:0:0:0:
256,192,85786,1,2,0:0:0:0:
256,192,85866,1,2,0:0:0:0:
256,192,86026,1,4,0:0:0:0:
256,192,86345,1,4,0:0:0:0:
256,192,86505,1,2,0:0:0:0:
256,192,86664,1,4,0:0:0:0:
256,192,86983,1,4,0:0:0:0:
256,192,87143,1,0,0:0:0:0:
256,192,87302,1,6,0:0:0:0:
256,192,87622,1,0,0:0:0:0:
256,192,87781,1,2,0:0:0:0:
256,192,87941,1,0,0:0:0:0:
256,192,88100,1,2,0:0:0:0:
256,192,88180,1,2,0:0:0:0:
256,192,88260,1,0,0:0:0:0:
256,192,88419,1,2,0:0:0:0:
256,192,88579,1,2,0:0:0:0:
256,192,88659,1,0,0:0:0:0:
256,192,88739,1,2,0:0:0:0:
256,192,88818,1,2,0:0:0:0:
256,192,88898,1,0,0:0:0:0:
256,192,89058,1,2,0:0:0:0:
256,192,89217,1,0,0:0:0:0:
256,192,89297,1,2,0:0:0:0:
256,192,89377,1,2,0:0:0:0:
256,192,89457,1,2,0:0:0:0:
256,192,89536,1,0,0:0:0:0:
256,192,89696,1,0,0:0:0:0:
256,192,89856,1,2,0:0:0:0:
256,192,90175,1,0,0:0:0:0:
256,192,90334,1,2,0:0:0:0:
256,192,90494,1,0,0:0:0:0:
256,192,90654,1,2,0:0:0:0:
256,192,90733,1,2,0:0:0:0:
256,192,90813,1,2,0:0:0:0:
256,192,90893,1,2,0:0:0:0:
256,192,90973,1,2,0:0:0:0:
256,192,91132,1,4,0:0:0:0:
256,192,91451,1,4,0:0:0:0:
256,192,91611,1,2,0:0:0:0:
256,192,91771,1,4,0:0:0:0:
256,192,92090,1,0,0:0:0:0:
256,192,92249,1,0,0:0:0:0:
256,192,92409,1,0,0:0:0:0:
256,192,92568,1,6,0:0:0:0:
256,192,92888,1,2,0:0:0:0:
256,192,93207,1,2,0:0:0:0:
256,192,93526,1,2,0:0:0:0:
256,192,93845,1,0,0:0:0:0:
256,192,94005,1,2,0:0:0:0:
256,192,94164,1,2,0:0:0:0:
256,192,94324,1,0,0:0:0:0:
256,192,94483,1,2,0:0:0:0:
256,192,94643,1,2,0:0:0:0:
256,192,94802,1,2,0:0:0:0:
256,192,94962,1,4,0:0:0:0:
256,192,95281,1,0,0:0:0:0:
256,192,95441,1,2,0:0:0:0:
256,192,95600,1,0,0:0:0:0:
256,192,95760,1,2,0:0:0:0:
256,192,95919,1,0,0:0:0:0:
256,192,96079,1,2,0:0:0:0:
256,192,96239,1,2,0:0:0:0:
256,192,96398,1,0,0:0:0:0:
256,192,96558,1,2,0:0:0:0:
256,192,96717,1,2,0:0:0:0:
256,192,96877,1,2,0:0:0:0:
256,192,97036,1,0,0:0:0:0:
256,192,97356,1,2,0:0:0:0:
256,192,97515,1,0,0:0:0:0:
256,192,97834,1,0,0:0:0:0:
256,192,97994,1,2,0:0:0:0:
256,192,98313,1,0,0:0:0:0:
256,192,98473,1,0,0:0:0:0:
256,192,98632,1,2,0:0:0:0:
256,192,98792,1,0,0:0:0:0:
256,192,98951,1,0,0:0:0:0:
256,192,99111,1,2,0:0:0:0:
256,192,99271,1,2,0:0:0:0:
256,192,99430,1,0,0:0:0:0:
256,192,99590,1,2,0:0:0:0:
256,192,99909,1,2,0:0:0:0:
256,192,100068,1,0,0:0:0:0:
256,192,100388,1,0,0:0:0:0:
256,192,100547,1,2,0:0:0:0:
256,192,100707,1,2,0:0:0:0:
256,192,100866,1,0,0:0:0:0:
256,192,101026,1,0,0:0:0:0:
256,192,101185,1,2,0:0:0:0:
256,192,101345,1,0,0:0:0:0:
256,192,101505,1,2,0:0:0:0:
256,192,101824,1,2,0:0:0:0:
256,192,101983,1,0,0:0:0:0:
256,192,102143,1,0,0:0:0:0:
256,192,102302,1,2,0:0:0:0:
256,192,102462,1,2,0:0:0:0:
256,192,102622,1,0,0:0:0:0:
256,192,102941,1,0,0:0:0:0:
256,192,103100,1,2,0:0:0:0:
256,192,103419,1,0,0:0:0:0:
256,192,103579,1,0,0:0:0:0:
256,192,103739,1,2,0:0:0:0:
256,192,103898,1,2,0:0:0:0:
256,192,104058,1,0,0:0:0:0:
256,192,104377,1,2,0:0:0:0:
256,192,104536,1,0,0:0:0:0:
256,192,104696,1,2,0:0:0:0:
256,192,104856,1,2,0:0:0:0:
256,192,105015,1,0,0:0:0:0:
256,192,105175,1,0,0:0:0:0:
256,192,105334,1,4,0:0:0:0:
256,192,105654,1,0,0:0:0:0:
256,192,105813,1,0,0:0:0:0:
256,192,105973,1,2,0:0:0:0:
256,192,106292,1,2,0:0:0:0:
256,192,106611,1,0,0:0:0:0:
256,192,106771,1,0,0:0:0:0:
256,192,106930,1,2,0:0:0:0:
256,192,107090,1,2,0:0:0:0:
256,192,107249,1,0,0:0:0:0:
256,192,107568,1,2,0:0:0:0:
256,192,107888,1,4,0:0:0:0:
256,192,108207,1,2,0:0:0:0:
256,192,108366,1,0,0:0:0:0:
256,192,108526,1,0,0:0:0:0:
256,192,108685,1,2,0:0:0:0:
256,192,108845,1,2,0:0:0:0:
256,192,109164,1,0,0:0:0:0:
256,192,109324,1,0,0:0:0:0:
256,192,109483,1,2,0:0:0:0:
256,192,109643,1,2,0:0:0:0:
256,192,109802,1,0,0:0:0:0:
256,192,109962,1,0,0:0:0:0:
256,192,110122,1,2,0:0:0:0:
256,192,110441,1,6,0:0:0:0:
256,192,110760,1,2,0:0:0:0:
256,192,110919,1,0,0:0:0:0:
256,192,111079,1,2,0:0:0:0:
256,192,111239,1,0,0:0:0:0:
256,192,111318,1,0,0:0:0:0:
256,192,111398,1,2,0:0:0:0:
256,192,111558,1,0,0:0:0:0:
256,192,111717,1,2,0:0:0:0:
256,192,111797,1,2,0:0:0:0:
256,192,111877,1,0,0:0:0:0:
256,192,112036,1,2,0:0:0:0:
256,192,112196,1,0,0:0:0:0:
256,192,112276,1,0,0:0:0:0:
256,192,112356,1,2,0:0:0:0:
256,192,112435,1,2,0:0:0:0:
256,192,112515,1,0,0:0:0:0:
256,192,112675,1,2,0:0:0:0:
256,192,112834,1,0,0:0:0:0:
256,192,112914,5,0,0:0:0:0:
256,192,112994,1,2,0:0:0:0:
256,192,113154,1,0,0:0:0:0:
256,192,113233,1,0,0:0:0:0:
256,192,113313,1,0,0:0:0:0:
256,192,113473,1,2,0:0:0:0:
256,192,113632,1,0,0:0:0:0:
256,192,113712,1,0,0:0:0:0:
256,192,113792,1,0,0:0:0:0:
256,192,113951,1,6,0:0:0:0:
256,192,114111,1,6,0:0:0:0:
256,192,114430,1,4,0:0:0:0:
256,192,114590,1,4,0:0:0:0:
256,192,114749,1,4,0:0:0:0:
256,192,115068,1,2,0:0:0:0:
256,192,115148,1,2,0:0:0:0:
256,192,115228,1,2,0:0:0:0:
256,192,115388,1,4,0:0:0:0:
256,192,115547,1,2,0:0:0:0:
256,192,115627,1,2,0:0:0:0:
256,192,115707,1,0,0:0:0:0:
256,192,115866,1,2,0:0:0:0:
256,192,116026,1,0,0:0:0:0:
256,192,116106,1,0,0:0:0:0:
256,192,116185,1,2,0:0:0:0:
256,192,116265,1,0,0:0:0:0:
256,192,116425,1,0,0:0:0:0:
256,192,116505,1,2,0:0:0:0:
256,192,116664,1,2,0:0:0:0:
256,192,116824,1,0,0:0:0:0:
256,192,116983,1,0,0:0:0:0:
256,192,117302,1,4,0:0:0:0:
256,192,117622,1,2,0:0:0:0:
256,192,117781,1,2,0:0:0:0:
256,192,117941,1,0,0:0:0:0:
256,192,118100,1,2,0:0:0:0:
256,192,118180,1,0,0:0:0:0:
256,192,118340,1,0,0:0:0:0:
256,192,118419,1,2,0:0:0:0:
256,192,118579,1,0,0:0:0:0:
256,192,118739,1,2,0:0:0:0:
256,192,118818,1,2,0:0:0:0:
256,192,118898,1,0,0:0:0:0:
256,192,118978,1,0,0:0:0:0:
256,192,119058,1,2,0:0:0:0:
256,192,119217,1,0,0:0:0:0:
256,192,119377,1,2,0:0:0:0:
256,192,119536,1,2,0:0:0:0:
256,192,119696,1,0,0:0:0:0:
256,192,119856,1,0,0:0:0:0:
256,192,120175,1,0,0:0:0:0:
256,192,120334,1,2,0:0:0:0:
256,192,120494,1,4,0:0:0:0:
256,192,120654,1,2,0:0:0:0:
256,192,120733,1,2,0:0:0:0:
256,192,120813,1,0,0:0:0:0:
256,192,120973,1,2,0:0:0:0:
256,192,121132,1,0,0:0:0:0:
256,192,121212,1,0,0:0:0:0:
256,192,121292,1,2,0:0:0:0:
256,192,121372,1,2,0:0:0:0:
256,192,121451,1,0,0:0:0:0:
256,192,121611,1,2,0:0:0:0:
256,192,121771,1,4,0:0:0:0:
256,192,121930,1,2,0:0:0:0:
256,192,122010,1,2,0:0:0:0:
256,192,122090,1,0,0:0:0:0:
256,192,122249,1,2,0:0:0:0:
256,192,122409,1,0,0:0:0:0:
256,192,122489,1,0,0:0:0:0:
256,192,122568,1,2,0:0:0:0:
256,192,122648,1,2,0:0:0:0:
256,192,122728,1,0,0:0:0:0:
256,192,122888,1,2,0:0:0:0:
256,192,123047,1,2,0:0:0:0:
256,192,123127,1,2,0:0:0:0:
256,192,123207,1,0,0:0:0:0:
256,192,123286,1,0,0:0:0:0:
256,192,123366,1,0,0:0:0:0:
256,192,123526,1,2,0:0:0:0:
256,192,123685,1,2,0:0:0:0:
256,192,123765,1,2,0:0:0:0:
256,192,123845,1,0,0:0:0:0:
256,192,123925,1,2,0:0:0:0:
256,192,124005,1,0,0:0:0:0:
256,192,124084,1,0,0:0:0:0:
256,192,124164,1,2,0:0:0:0:
256,192,124324,1,4,0:0:0:0:
256,192,124643,1,4,0:0:0:0:
256,192,124962,1,6,0:0:0:0:
256,192,125281,1,0,0:0:0:0:
256,192,125441,1,0,0:0:0:0:
256,192,125600,1,4,0:0:0:0:
256,192,125760,1,2,0:0:0:0:
256,192,125840,1,2,0:0:0:0:
256,192,125919,1,0,0:0:0:0:
256,192,126079,1,2,0:0:0:0:
256,192,126239,1,0,0:0:0:0:
256,192,126318,1,0,0:0:0:0:
256,192,126398,1,2,0:0:0:0:
256,192,126478,1,0,0:0:0:0:
256,192,126638,1,0,0:0:0:0:
256,192,126717,1,2,0:0:0:0:
256,192,126877,1,2,0:0:0:0:
256,192,127036,1,0,0:0:0:0:
256,192,127196,1,0,0:0:0:0:
256,192,127515,1,4,0:0:0:0:
256,192,127834,1,2,0:0:0:0:
256,192,127994,1,2,0:0:0:0:
256,192,128154,1,0,0:0:0:0:
256,192,128313,1,2,0:0:0:0:
256,192,128393,1,0,0:0:0:0:
256,192,128552,1,0,0:0:0:0:
256,192,128632,1,2,0:0:0:0:
256,192,128792,1,0,0:0:0:0:
256,192,128951,1,2,0:0:0:0:
256,192,129031,1,2,0:0:0:0:
256,192,129111,1,0,0:0:0:0:
256,192,129191,1,0,0:0:0:0:
256,192,129271,1,2,0:0:0:0:
256,192,129430,1,0,0:0:0:0:
256,192,129590,1,2,0:0:0:0:
256,192,129749,1,2,0:0:0:0:
256,192,129909,1,0,0:0:0:0:
256,192,130068,1,0,0:0:0:0:
256,192,130388,1,0,0:0:0:0:
256,192,130547,1,2,0:0:0:0:
256,192,130707,1,4,0:0:0:0:
256,192,130866,1,2,0:0:0:0:
256,192,130946,1,2,0:0:0:0:
256,192,131026,1,0,0:0:0:0:
256,192,131185,1,2,0:0:0:0:
256,192,131345,1,0,0:0:0:0:
256,192,131425,1,0,0:0:0:0:
256,192,131505,1,2,0:0:0:0:
256,192,131584,1,2,0:0:0:0:
256,192,131664,1,0,0:0:0:0:
256,192,131824,1,2,0:0:0:0:
256,192,131983,1,4,0:0:0:0:
256,192,132143,1,2,0:0:0:0:
256,192,132223,1,2,0:0:0:0:
256,192,132302,1,0,0:0:0:0:
256,192,132462,1,2,0:0:0:0:
256,192,132622,1,0,0:0:0:0:
256,192,132701,1,0,0:0:0:0:
256,192,132781,1,2,0:0:0:0:
256,192,132861,1,2,0:0:0:0:
256,192,132941,1,0,0:0:0:0:
256,192,133100,1,2,0:0:0:0:
256,192,133260,1,0,0:0:0:0:
256,192,133340,1,0,0:0:0:0:
256,192,133419,1,2,0:0:0:0:
256,192,133499,1,0,0:0:0:0:
256,192,133579,1,0,0:0:0:0:
256,192,133739,1,2,0:0:0:0:
256,192,133898,1,0,0:0:0:0:
256,192,133978,1,0,0:0:0:0:
256,192,134058,1,2,0:0:0:0:
256,192,134138,1,0,0:0:0:0:
256,192,134217,1,2,0:0:0:0:
256,192,134297,1,2,0:0:0:0:
256,192,134377,1,0,0:0:0:0:
256,192,134536,1,6,0:0:0:0:
256,192,134856,1,6,0:0:0:0:
256,192,135175,1,4,0:0:0:0:
256,192,135494,1,2,0:0:0:0:
256,192,135574,1,2,0:0:0:0:
256,192,135654,1,2,0:0:0:0:
256,192,135733,1,2,0:0:0:0:
256,192,135813,1,2,0:0:0:0:
256,192,135893,1,2,0:0:0:0:
256,192,135973,1,0,0:0:0:0:
256,192,136132,1,0,0:0:0:0:
256,192,136292,1,2,0:0:0:0:
256,192,136372,1,2,0:0:0:0:
256,192,136451,1,0,0:0:0:0:
256,192,136531,1,0,0:0:0:0:
256,192,136611,1,0,0:0:0:0:
256,192,136771,1,0,0:0:0:0:
256,192,136930,1,2,0:0:0:0:
256,192,137090,1,0,0:0:0:0:
256,192,137169,1,2,0:0:0:0:
256,192,137249,1,0,0:0:0:0:
256,192,137409,1,0,0:0:0:0:
256,192,137568,1,2,0:0:0:0:
256,192,137648,1,2,0:0:0:0:
256,192,137728,1,0,0:0:0:0:
256,192,137808,1,0,0:0:0:0:
256,192,137888,1,2,0:0:0:0:
256,192,138047,1,0,0:0:0:0:
256,192,138207,1,2,0:0:0:0:
256,192,138366,1,2,0:0:0:0:
256,192,138446,1,2,0:0:0:0:
256,192,138526,1,0,0:0:0:0:
256,192,138845,1,6,0:0:0:0:
256,192,139164,1,0,0:0:0:0:
256,192,139324,1,0,0:0:0:0:
256,192,139483,1,6,0:0:0:0:
256,192,139643,1,0,0:0:0:0:
256,192,139962,1,0,0:0:0:0:
256,192,140122,1,6,0:0:0:0:
256,192,140441,1,0,0:0:0:0:
256,192,140600,1,0,0:0:0:0:
256,192,140760,1,6,0:0:0:0:
256,192,141079,1,4,0:0:0:0:
256,192,141239,1,2,0:0:0:0:
256,192,141318,1,2,0:0:0:0:
256,192,141398,1,0,0:0:0:0:
256,192,141558,1,2,0:0:0:0:
256,192,141717,1,0,0:0:0:0:
256,192,141877,1,2,0:0:0:0:
256,192,141957,1,0,0:0:0:0:
256,192,142036,1,2,0:0:0:0:
256,192,142116,1,2,0:0:0:0:
256,192,142196,1,0,0:0:0:0:
256,192,142356,1,6,0:0:0:0:
256,192,142675,1,6,0:0:0:0:
256,192,142994,1,0,0:0:0:0:
256,192,143154,1,0,0:0:0:0:
256,192,143313,1,0,0:0:0:0:
256,192,143473,1,2,0:0:0:0:
256,192,145707,1,2,0:0:0:0:
256,192,145866,1,0,0:0:0:0:
256,192,146026,1,0,0:0:0:0:
256,192,146185,1,4,0:0:0:0:
256,192,146505,1,2,0:0:0:0:
256,192,146664,1,2,0:0:0:0:
256,192,146824,1,0,0:0:0:0:
256,192,147143,1,2,0:0:0:0:
256,192,147302,1,0,0:0:0:0:
256,192,147622,1,0,0:0:0:0:
256,192,147781,1,2,0:0:0:0:
256,192,147941,1,2,0:0:0:0:
256,192,148100,1,0,0:0:0:0:
256,192,148419,1,2,0:0:0:0:
256,192,148739,1,0,0:0:0:0:
256,192,149058,1,2,0:0:0:0:
256,192,149217,1,2,0:0:0:0:
256,192,149377,1,0,0:0:0:0:
256,192,149696,1,2,0:0:0:0:
256,192,149856,1,0,0:0:0:0:
256,192,150175,1,0,0:0:0:0:
256,192,150334,1,2,0:0:0:0:
256,192,150494,1,2,0:0:0:0:
256,192,150654,1,0,0:0:0:0:
256,192,150973,1,6,0:0:0:0:
256,192,151292,1,0,0:0:0:0:
256,192,151451,1,0,0:0:0:0:
256,192,151611,1,2,0:0:0:0:
256,192,151771,1,2,0:0:0:0:
256,192,151930,1,0,0:0:0:0:
256,192,152249,1,2,0:0:0:0:
256,192,152409,1,0,0:0:0:0:
256,192,152728,1,0,0:0:0:0:
256,192,152888,1,2,0:0:0:0:
256,192,153047,1,2,0:0:0:0:
256,192,153207,1,0,0:0:0:0:
256,192,153526,1,2,0:0:0:0:
256,192,153845,1,0,0:0:0:0:
256,192,154005,1,0,0:0:0:0:
256,192,154164,1,2,0:0:0:0:
256,192,154324,1,2,0:0:0:0:
256,192,154483,1,0,0:0:0:0:
256,192,154802,1,2,0:0:0:0:
256,192,154962,1,0,0:0:0:0:
256,192,155281,1,0,0:0:0:0:
256,192,155441,1,2,0:0:0:0:
256,192,155600,1,2,0:0:0:0:
256,192,155760,1,0,0:0:0:0:
256,192,155919,1,0,0:0:0:0:
256,192,156079,1,2,0:0:0:0:
256,192,156398,1,0,0:0:0:0:
256,192,156558,1,2,0:0:0:0:
256,192,156877,1,2,0:0:0:0:
256,192,157036,1,0,0:0:0:0:
256,192,157196,1,0,0:0:0:0:
256,192,157276,1,0,0:0:0:0:
256,192,157356,1,2,0:0:0:0:
256,192,157515,1,0,0:0:0:0:
256,192,157834,1,0,0:0:0:0:
256,192,157994,1,2,0:0:0:0:
256,192,158154,1,0,0:0:0:0:
256,192,158313,1,6,0:0:0:0:
256,192,158632,1,6,0:0:0:0:
256,192,158951,1,2,0:0:0:0:
256,192,159111,1,0,0:0:0:0:
256,192,159430,1,0,0:0:0:0:
256,192,159590,1,2,0:0:0:0:
256,192,159909,1,2,0:0:0:0:
256,192,160068,1,2,0:0:0:0:
256,192,160148,1,2,0:0:0:0:
256,192,160228,1,0,0:0:0:0:
256,192,160388,1,0,0:0:0:0:
256,192,160547,1,2,0:0:0:0:
256,192,160707,1,0,0:0:0:0:
256,192,160866,1,6,0:0:0:0:
256,192,161185,1,6,0:0:0:0:
256,192,161505,1,0,0:0:0:0:
256,192,161824,1,2,0:0:0:0:
256,192,161983,1,2,0:0:0:0:
256,192,162143,1,0,0:0:0:0:
256,192,162302,1,0,0:0:0:0:
256,192,162382,1,0,0:0:0:0:
256,192,162462,1,2,0:0:0:0:
256,192,162622,1,0,0:0:0:0:
256,192,162941,1,0,0:0:0:0:
256,192,163100,1,2,0:0:0:0:
256,192,163260,1,0,0:0:0:0:
256,192,163419,1,2,0:0:0:0:
256,192,163499,1,2,0:0:0:0:
256,192,163579,1,2,0:0:0:0:
256,192,163659,1,2,0:0:0:0:
256,192,163739,1,2,0:0:0:0:
256,192,163818,1,2,0:0:0:0:
256,192,163898,1,2,0:0:0:0:
256,192,164058,1,4,0:0:0:0:
256,192,164696,1,4,0:0:0:0:
256,192,165334,1,6,0:0:0:0:
256,192,165654,1,6,0:0:0:0:
256,192,165973,1,2,0:0:0:0:
256,192,166052,1,0,0:0:0:0:
256,192,166132,1,0,0:0:0:0:
256,192,166212,1,0,0:0:0:0:
256,192,166292,1,2,0:0:0:0:
256,192,166611,1,4,0:0:0:0:
256,192,166771,1,0,0:0:0:0:
256,192,166930,1,2,0:0:0:0:
256,192,167090,1,0,0:0:0:0:
256,192,167169,1,0,0:0:0:0:
256,192,167249,1,0,0:0:0:0:
256,192,167409,1,0,0:0:0:0:
256,192,167568,1,2,0:0:0:0:
256,192,167728,1,0,0:0:0:0:
256,192,167808,1,0,0:0:0:0:
256,192,167888,1,2,0:0:0:0:
256,192,168047,1,0,0:0:0:0:
256,192,168207,1,2,0:0:0:0:
256,192,168366,1,0,0:0:0:0:
256,192,168446,1,0,0:0:0:0:
256,192,168526,1,0,0:0:0:0:
256,192,168685,1,0,0:0:0:0:
256,192,168845,1,2,0:0:0:0:
256,192,169005,1,2,0:0:0:0:
256,192,169164,1,0,0:0:0:0:
256,192,169324,1,0,0:0:0:0:
256,192,169483,1,2,0:0:0:0:
256,192,169643,1,0,0:0:0:0:
256,192,169723,1,0,0:0:0:0:
256,192,169802,1,2,0:0:0:0:
256,192,169882,1,2,0:0:0:0:
256,192,169962,1,2,0:0:0:0:
256,192,170042,1,2,0:0:0:0:
256,192,170122,1,2,0:0:0:0:
256,192,170281,1,4,0:0:0:0:
256,192,170600,1,4,0:0:0:0:
256,192,170919,1,4,0:0:0:0:
256,192,171239,1,2,0:0:0:0:
256,192,171398,1,2,0:0:0:0:
256,192,171717,1,2,0:0:0:0:
256,192,171877,1,2,0:0:0:0:
256,192,172036,1,2,0:0:0:0:
256,192,172196,1,2,0:0:0:0:
256,192,172356,1,0,0:0:0:0:
256,192,172515,1,0,0:0:0:0:
256,192,172675,1,0,0:0:0:0:
256,192,172834,1,6,0:0:0:0:
256,192,173154,1,0,0:0:0:0:
256,192,173313,1,2,0:0:0:0:
256,192,173473,1,0,0:0:0:0:
256,192,173552,1,0,0:0:0:0:
256,192,173632,1,0,0:0:0:0:
256,192,173792,1,0,0:0:0:0:
256,192,173951,1,2,0:0:0:0:
256,192,174111,1,0,0:0:0:0:
256,192,174191,1,0,0:0:0:0:
256,192,174271,1,2,0:0:0:0:
256,192,174430,1,2,0:0:0:0:
256,192,174590,1,2,0:0:0:0:
256,192,174749,1,2,0:0:0:0:
256,192,174909,1,0,0:0:0:0:
256,192,175068,1,0,0:0:0:0:
256,192,175228,1,0,0:0:0:0:
256,192,175388,1,6,0:0:0:0:
256,192,175707,1,0,0:0:0:0:
256,192,175866,1,2,0:0:0:0:
256,192,176026,1,0,0:0:0:0:
256,192,176106,1,0,0:0:0:0:
256,192,176185,1,2,0:0:0:0:
256,192,176265,1,2,0:0:0:0:
256,192,176345,1,2,0:0:0:0:
256,192,176425,1,2,0:0:0:0:
256,192,176505,1,2,0:0:0:0:
256,192,176824,1,2,0:0:0:0:
256,192,176983,1,2,0:0:0:0:
256,192,177143,1,2,0:0:0:0:
256,192,177302,1,2,0:0:0:0:
256,192,177462,1,0,0:0:0:0:
256,192,177622,1,0,0:0:0:0:
256,192,177781,1,0,0:0:0:0:
256,192,177941,1,6,0:0:0:0:
256,192,178260,1,0,0:0:0:0:
256,192,178419,1,2,0:0:0:0:
256,192,178579,1,0,0:0:0:0:
256,192,178659,1,0,0:0:0:0:
256,192,178739,1,2,0:0:0:0:
256,192,178898,1,0,0:0:0:0:
256,192,179058,1,2,0:0:0:0:
256,192,179217,1,0,0:0:0:0:
256,192,179297,1,0,0:0:0:0:
256,192,179377,1,0,0:0:0:0:
256,192,179696,1,2,0:0:0:0:
256,192,180015,1,0,0:0:0:0:
256,192,180175,1,0,0:0:0:0:
256,192,180334,1,2,0:0:0:0:
256,192,180654,1,0,0:0:0:0:
256,192,180973,1,2,0:0:0:0:
256,192,181292,1,0,0:0:0:0:
256,192,181451,1,0,0:0:0:0:
256,192,181611,1,2,0:0:0:0:
256,192,181930,1,4,0:0:0:0:
256,192,182090,1,2,0:0:0:0:
256,192,182249,1,2,0:0:0:0:
256,192,182409,1,4,0:0:0:0:
256,192,182568,1,2,0:0:0:0:
256,192,182728,1,2,0:0:0:0:
256,192,182888,1,4,0:0:0:0:
256,192,183047,1,6,0:0:0:0:
256,192,183366,1,0,0:0:0:0:
256,192,183526,1,2,0:0:0:0:
256,192,183685,1,2,0:0:0:0:
256,192,183845,1,2,0:0:0:0:
256,192,184005,1,2,0:0:0:0:
256,192,184164,1,2,0:0:0:0:
256,192,184324,1,2,0:0:0:0:
256,192,184643,5,6,0:0:0:0:
256,192,184962,1,6,0:0:0:0:
256,192,185600,5,4,0:0:0:0:
256,192,186079,1,2,0:0:0:0:
256,192,186239,1,2,0:0:0:0:
256,192,186717,1,2,0:0:0:0:
256,192,187356,1,2,0:0:0:0:
256,192,187515,1,2,0:0:0:0:
256,192,187994,1,2,0:0:0:0:
256,192,188632,1,2,0:0:0:0:
256,192,188792,1,2,0:0:0:0:
256,192,189271,1,2,0:0:0:0:
256,192,189909,1,2,0:0:0:0:
256,192,190068,1,2,0:0:0:0:
256,192,190547,1,2,0:0:0:0:
256,192,191185,1,2,0:0:0:0:
256,192,191345,1,2,0:0:0:0:
256,192,191824,1,2,0:0:0:0:
256,192,192462,1,2,0:0:0:0:
256,192,192622,1,2,0:0:0:0:
256,192,193100,1,2,0:0:0:0:
256,192,193419,1,0,0:0:0:0:
256,192,193739,1,2,0:0:0:0:
256,192,193898,1,2,0:0:0:0:
256,192,194058,1,0,0:0:0:0:
256,192,194377,1,2,0:0:0:0:
256,192,194536,1,4,0:0:0:0:
256,192,194856,1,4,0:0:0:0:
256,192,195175,1,4,0:0:0:0:
256,192,195494,1,6,0:0:0:0:
256,192,195654,1,6,0:0:0:0:
256,192,195813,1,4,0:0:0:0:
256,192,195973,1,2,0:0:0:0:
256,192,196052,1,2,0:0:0:0:
256,192,196132,1,0,0:0:0:0:
256,192,196212,1,0,0:0:0:0:
256,192,196292,1,2,0:0:0:0:
256,192,196451,1,0,0:0:0:0:
256,192,196531,1,0,0:0:0:0:
256,192,196611,1,2,0:0:0:0:
256,192,196691,1,0,0:0:0:0:
256,192,196850,1,0,0:0:0:0:
256,192,196930,1,2,0:0:0:0:
256,192,197090,1,2,0:0:0:0:
256,192,197249,1,0,0:0:0:0:
256,192,197409,1,0,0:0:0:0:
256,192,197728,1,4,0:0:0:0:
256,192,198047,1,6,0:0:0:0:
256,192,198207,1,6,0:0:0:0:
256,192,198366,1,0,0:0:0:0:
256,192,198526,1,2,0:0:0:0:
256,192,198606,1,0,0:0:0:0:
256,192,198765,1,0,0:0:0:0:
256,192,198845,1,2,0:0:0:0:
256,192,198925,1,2,0:0:0:0:
256,192,199005,1,0,0:0:0:0:
256,192,199164,1,2,0:0:0:0:
256,192,199244,1,2,0:0:0:0:
256,192,199324,1,0,0:0:0:0:
256,192,199404,1,0,0:0:0:0:
256,192,199483,1,2,0:0:0:0:
256,192,199643,1,0,0:0:0:0:
256,192,199802,1,2,0:0:0:0:
256,192,199962,1,2,0:0:0:0:
256,192,200122,1,0,0:0:0:0:
256,192,200281,1,2,0:0:0:0:
256,192,200600,1,0,0:0:0:0:
256,192,200760,1,2,0:0:0:0:
256,192,200919,1,4,0:0:0:0:
256,192,201079,1,2,0:0:0:0:
256,192,201159,1,2,0:0:0:0:
256,192,201239,1,0,0:0:0:0:
256,192,201398,1,2,0:0:0:0:
256,192,201478,1,2,0:0:0:0:
256,192,201558,1,0,0:0:0:0:
256,192,201638,1,0,0:0:0:0:
256,192,201717,1,2,0:0:0:0:
256,192,201797,1,2,0:0:0:0:
256,192,201877,1,0,0:0:0:0:
256,192,202036,1,2,0:0:0:0:
256,192,202196,1,4,0:0:0:0:
256,192,202356,1,2,0:0:0:0:
256,192,202435,1,2,0:0:0:0:
256,192,202515,1,0,0:0:0:0:
256,192,202675,1,2,0:0:0:0:
256,192,202755,1,2,0:0:0:0:
256,192,202834,1,0,0:0:0:0:
256,192,202914,1,0,0:0:0:0:
256,192,202994,1,2,0:0:0:0:
256,192,203074,1,2,0:0:0:0:
256,192,203154,1,0,0:0:0:0:
256,192,203313,1,2,0:0:0:0:
256,192,203473,1,2,0:0:0:0:
256,192,203552,1,2,0:0:0:0:
256,192,203632,1,0,0:0:0:0:
256,192,203792,1,0,0:0:0:0:
256,192,203951,1,2,0:0:0:0:
256,192,204111,1,2,0:0:0:0:
256,192,204191,1,2,0:0:0:0:
256,192,204271,1,0,0:0:0:0:
256,192,204350,1,2,0:0:0:0:
256,192,204430,1,2,0:0:0:0:
256,192,204510,1,0,0:0:0:0:
256,192,204590,1,2,0:0:0:0:
256,192,204749,1,4,0:0:0:0:
256,192,205068,1,4,0:0:0:0:
256,192,205388,1,6,0:0:0:0:
256,192,205707,1,4,0:0:0:0:
256,192,205866,1,4,0:0:0:0:
256,192,206026,1,6,0:0:0:0:
256,192,206185,1,2,0:0:0:0:
256,192,206265,1,2,0:0:0:0:
256,192,206345,1,0,0:0:0:0:
256,192,206425,1,0,0:0:0:0:
256,192,206505,1,2,0:0:0:0:
256,192,206664,1,0,0:0:0:0:
256,192,206744,1,0,0:0:0:0:
256,192,206824,1,2,0:0:0:0:
256,192,206904,1,0,0:0:0:0:
256,192,207063,1,0,0:0:0:0:
256,192,207143,1,2,0:0:0:0:
256,192,207302,1,2,0:0:0:0:
256,192,207462,1,0,0:0:0:0:
256,192,207622,1,0,0:0:0:0:
256,192,207941,1,4,0:0:0:0:
256,192,208260,1,6,0:0:0:0:
256,192,208419,1,6,0:0:0:0:
256,192,208579,1,0,0:0:0:0:
256,192,208739,1,2,0:0:0:0:
256,192,208818,1,0,0:0:0:0:
256,192,208978,1,0,0:0:0:0:
256,192,209058,1,2,0:0:0:0:
256,192,209138,1,2,0:0:0:0:
256,192,209217,1,0,0:0:0:0:
256,192,209377,1,2,0:0:0:0:
256,192,209457,1,2,0:0:0:0:
256,192,209536,1,0,0:0:0:0:
256,192,209616,1,0,0:0:0:0:
256,192,209696,1,2,0:0:0:0:
256,192,209856,1,0,0:0:0:0:
256,192,210015,1,2,0:0:0:0:
256,192,210175,1,2,0:0:0:0:
256,192,210334,1,0,0:0:0:0:
256,192,210494,1,2,0:0:0:0:
256,192,210813,1,0,0:0:0:0:
256,192,210973,1,2,0:0:0:0:
256,192,211132,1,4,0:0:0:0:
256,192,211292,1,2,0:0:0:0:
256,192,211372,1,2,0:0:0:0:
256,192,211451,1,0,0:0:0:0:
256,192,211611,1,2,0:0:0:0:
256,192,211691,1,2,0:0:0:0:
256,192,211771,1,0,0:0:0:0:
256,192,211850,1,0,0:0:0:0:
256,192,211930,1,2,0:0:0:0:
256,192,212010,1,2,0:0:0:0:
256,192,212090,1,0,0:0:0:0:
256,192,212249,1,2,0:0:0:0:
256,192,212409,1,4,0:0:0:0:
256,192,212568,1,2,0:0:0:0:
256,192,212648,1,2,0:0:0:0:
256,192,212728,1,0,0:0:0:0:
256,192,212888,1,2,0:0:0:0:
256,192,212967,1,2,0:0:0:0:
256,192,213047,1,0,0:0:0:0:
256,192,213127,1,0,0:0:0:0:
256,192,213207,1,2,0:0:0:0:
256,192,213286,1,2,0:0:0:0:
256,192,213366,1,0,0:0:0:0:
256,192,213526,1,2,0:0:0:0:
256,192,213685,1,0,0:0:0:0:
256,192,213765,1,0,0:0:0:0:
256,192,213845,1,2,0:0:0:0:
256,192,214005,1,0,0:0:0:0:
256,192,214164,1,2,0:0:0:0:
256,192,214324,1,0,0:0:0:0:
256,192,214404,1,2,0:0:0:0:
256,192,214483,1,2,0:0:0:0:
256,192,214563,1,0,0:0:0:0:
256,192,214643,1,2,0:0:0:0:
256,192,214723,1,2,0:0:0:0:
256,192,214802,1,0,0:0:0:0:
256,192,214962,1,6,0:0:0:0:
256,192,215281,1,6,0:0:0:0:
256,192,215600,1,4,0:0:0:0:
256,192,215919,1,2,0:0:0:0:
256,192,215999,1,2,0:0:0:0:
256,192,216079,1,2,0:0:0:0:
256,192,216159,1,2,0:0:0:0:
256,192,216239,1,2,0:0:0:0:
256,192,216318,1,2,0:0:0:0:
256,192,216398,1,0,0:0:0:0:
256,192,216558,1,0,0:0:0:0:
256,192,216717,1,2,0:0:0:0:
256,192,216797,1,2,0:0:0:0:
256,192,216877,1,0,0:0:0:0:
256,192,216957,1,0,0:0:0:0:
256,192,217036,1,0,0:0:0:0:
256,192,217196,1,0,0:0:0:0:
256,192,217356,1,2,0:0:0:0:
256,192,217435,1,0,0:0:0:0:
256,192,217515,1,0,0:0:0:0:
256,192,217595,1,2,0:0:0:0:
256,192,217675,1,0,0:0:0:0:
256,192,217834,1,0,0:0:0:0:
256,192,217994,1,2,0:0:0:0:
256,192,218074,1,2,0:0:0:0:
256,192,218154,1,0,0:0:0:0:
256,192,218233,1,0,0:0:0:0:
256,192,218313,1,2,0:0:0:0:
256,192,218473,1,0,0:0:0:0:
256,192,218632,1,2,0:0:0:0:
256,192,218712,1,0,0:0:0:0:
256,192,218792,1,2,0:0:0:0:
256,192,218872,1,2,0:0:0:0:
256,192,218951,1,0,0:0:0:0:
256,192,219271,1,6,0:0:0:0:
256,192,219590,1,0,0:0:0:0:
256,192,219749,1,0,0:0:0:0:
256,192,219909,1,6,0:0:0:0:
256,192,220068,1,0,0:0:0:0:
256,192,220228,1,2,0:0:0:0:
256,192,220388,1,0,0:0:0:0:
256,192,220547,1,6,0:0:0:0:
256,192,220866,1,0,0:0:0:0:
256,192,221026,1,0,0:0:0:0:
256,192,221185,1,6,0:0:0:0:
256,192,221505,1,4,0:0:0:0:
256,192,221664,1,2,0:0:0:0:
256,192,221744,1,2,0:0:0:0:
256,192,221824,1,0,0:0:0:0:
256,192,221904,1,0,0:0:0:0:
256,192,221983,1,2,0:0:0:0:
256,192,222063,1,2,0:0:0:0:
256,192,222143,1,0,0:0:0:0:
256,192,222223,1,0,0:0:0:0:
256,192,222302,1,2,0:0:0:0:
256,192,222382,1,0,0:0:0:0:
256,192,222462,1,2,0:0:0:0:
256,192,222542,1,2,0:0:0:0:
256,192,222622,1,0,0:0:0:0:
256,192,222781,1,6,0:0:0:0:
256,192,223100,1,6,0:0:0:0:
256,192,223419,1,0,0:0:0:0:
256,192,223579,1,0,0:0:0:0:
256,192,223739,1,0,0:0:0:0:
256,192,223898,1,2,0:0:0:0:
256,192,225973,1,0,0:0:0:0:
256,192,226052,1,0,0:0:0:0:
256,192,226132,1,0,0:0:0:0:
256,192,226212,1,0,0:0:0:0:
256,192,226292,1,0,0:0:0:0:
256,192,226451,1,6,0:0:0:0:
256,192,226771,1,0,0:0:0:0:
256,192,226930,1,2,0:0:0:0:
256,192,227090,1,0,0:0:0:0:
256,192,227169,1,0,0:0:0:0:
256,192,227249,1,2,0:0:0:0:
256,192,227329,1,2,0:0:0:0:
256,192,227409,1,0,0:0:0:0:
256,192,227568,1,2,0:0:0:0:
256,192,227728,1,2,0:0:0:0:
256,192,227808,1,0,0:0:0:0:
256,192,227888,1,2,0:0:0:0:
256,192,227967,1,2,0:0:0:0:
256,192,228047,1,0,0:0:0:0:
256,192,228207,1,2,0:0:0:0:
256,192,228286,1,2,0:0:0:0:
256,192,228366,1,0,0:0:0:0:
256,192,228446,1,2,0:0:0:0:
256,192,228526,1,2,0:0:0:0:
256,192,228606,1,2,0:0:0:0:
256,192,228685,1,0,0:0:0:0:
256,192,228845,1,0,0:0:0:0:
256,192,229005,1,2,0:0:0:0:
256,192,229324,1,0,0:0:0:0:
256,192,229483,1,2,0:0:0:0:
256,192,229643,1,0,0:0:0:0:
256,192,229802,1,2,0:0:0:0:
256,192,229882,1,2,0:0:0:0:
256,192,229962,1,2,0:0:0:0:
256,192,230042,1,2,0:0:0:0:
256,192,230122,1,2,0:0:0:0:
256,192,230281,1,4,0:0:0:0:
256,192,230600,1,4,0:0:0:0:
256,192,230919,1,6,0:0:0:0:
256,192,231239,1,4,0:0:0:0:
256,192,231398,1,0,0:0:0:0:
256,192,231558,1,6,0:0:0:0:
256,192,231877,1,0,0:0:0:0:
256,192,232036,1,2,0:0:0:0:
256,192,232196,1,0,0:0:0:0:
256,192,232276,1,0,0:0:0:0:
256,192,232356,1,2,0:0:0:0:
256,192,232435,1,2,0:0:0:0:
256,192,232515,1,0,0:0:0:0:
256,192,232675,1,2,0:0:0:0:
256,192,232834,1,2,0:0:0:0:
256,192,232914,1,0,0:0:0:0:
256,192,232994,1,2,0:0:0:0:
256,192,233074,1,2,0:0:0:0:
256,192,233154,1,0,0:0:0:0:
256,192,233313,1,2,0:0:0:0:
256,192,233393,1,2,0:0:0:0:
256,192,233473,1,0,0:0:0:0:
256,192,233552,1,2,0:0:0:0:
256,192,233632,1,2,0:0:0:0:
256,192,233712,1,2,0:0:0:0:
256,192,233792,1,0,0:0:0:0:
256,192,233951,1,2,0:0:0:0:
256,192,234111,1,0,0:0:0:0:
256,192,234271,1,2,0:0:0:0:
256,192,234430,1,0,0:0:0:0:
256,192,234510,1,0,0:0:0:0:
256,192,234590,1,0,0:0:0:0:
256,192,234749,1,2,0:0:0:0:
256,192,234909,1,0,0:0:0:0:
256,192,234989,1,0,0:0:0:0:
256,192,235068,1,0,0:0:0:0:
256,192,235228,1,2,0:0:0:0:
256,192,235388,1,4,0:0:0:0:
256,192,235707,1,4,0:0:0:0:
256,192,236026,1,6,0:0:0:0:
256,192,236345,1,4,0:0:0:0:
256,192,236505,1,0,0:0:0:0:
256,192,236664,1,6,0:0:0:0:
256,192,236983,1,0,0:0:0:0:
256,192,237143,1,2,0:0:0:0:
256,192,237302,1,0,0:0:0:0:
256,192,237382,1,0,0:0:0:0:
256,192,237462,1,2,0:0:0:0:
256,192,237542,1,2,0:0:0:0:
256,192,237622,1,0,0:0:0:0:
256,192,237781,1,2,0:0:0:0:
256,192,237941,1,2,0:0:0:0:
256,192,238021,1,0,0:0:0:0:
256,192,238100,1,2,0:0:0:0:
256,192,238180,1,2,0:0:0:0:
256,192,238260,1,0,0:0:0:0:
256,192,238419,1,2,0:0:0:0:
256,192,238499,1,2,0:0:0:0:
256,192,238579,1,0,0:0:0:0:
256,192,238659,1,2,0:0:0:0:
256,192,238739,1,2,0:0:0:0:
256,192,238818,1,2,0:0:0:0:
256,192,238898,1,0,0:0:0:0:
256,192,239058,1,2,0:0:0:0:
256,192,239217,1,0,0:0:0:0:
256,192,239377,1,2,0:0:0:0:
256,192,239536,1,0,0:0:0:0:
256,192,239616,1,0,0:0:0:0:
256,192,239696,1,2,0:0:0:0:
256,192,239856,1,0,0:0:0:0:
256,192,240015,1,2,0:0:0:0:
256,192,240095,1,2,0:0:0:0:
256,192,240175,1,2,0:0:0:0:
256,192,240255,1,2,0:0:0:0:
256,192,240334,1,2,0:0:0:0:
256,192,240494,1,4,0:0:0:0:
256,192,240813,1,4,0:0:0:0:
256,192,240973,1,2,0:0:0:0:
256,192,241132,1,4,0:0:0:0:
256,192,241451,1,4,0:0:0:0:
256,192,241611,1,0,0:0:0:0:
256,192,241771,1,6,0:0:0:0:
256,192,242090,1,0,0:0:0:0:
256,192,242249,1,2,0:0:0:0:
256,192,242409,1,0,0:0:0:0:
256,192,242489,1,0,0:0:0:0:
256,192,242568,1,2,0:0:0:0:
256,192,242648,1,2,0:0:0:0:
256,192,242728,1,0,0:0:0:0:
256,192,242888,1,2,0:0:0:0:
256,192,243047,1,2,0:0:0:0:
256,192,243127,1,0,0:0:0:0:
256,192,243207,1,2,0:0:0:0:
256,192,243286,1,2,0:0:0:0:
256,192,243366,1,0,0:0:0:0:
256,192,243526,1,2,0:0:0:0:
256,192,243606,1,2,0:0:0:0:
256,192,243685,1,0,0:0:0:0:
256,192,243765,1,2,0:0:0:0:
256,192,243845,1,2,0:0:0:0:
256,192,243925,1,2,0:0:0:0:
256,192,244005,1,0,0:0:0:0:
256,192,244164,1,2,0:0:0:0:
256,192,244324,1,0,0:0:0:0:
256,192,244483,1,2,0:0:0:0:
256,192,244643,1,0,0:0:0:0:
256,192,244723,1,0,0:0:0:0:
256,192,244802,1,2,0:0:0:0:
256,192,244962,1,0,0:0:0:0:
256,192,245122,1,2,0:0:0:0:
256,192,245201,1,2,0:0:0:0:
256,192,245281,1,2,0:0:0:0:
256,192,245361,1,2,0:0:0:0:
256,192,245441,1,2,0:0:0:0:
256,192,245600,1,4,0:0:0:0:
256,192,245919,1,4,0:0:0:0:
256,192,246079,1,2,0:0:0:0:
256,192,246239,1,4,0:0:0:0:
256,192,246558,1,0,0:0:0:0:
256,192,246638,1,0,0:0:0:0:
256,192,246717,1,2,0:0:0:0:
256,192,246797,1,2,0:0:0:0:
256,192,246877,1,2,0:0:0:0:
256,192,246957,1,2,0:0:0:0:
256,192,247036,1,0,0:0:0:0:
256,192,247196,1,0,0:0:0:0:
256,192,247356,1,2,0:0:0:0:
256,192,247515,1,0,0:0:0:0:
256,192,247675,1,0,0:0:0:0:
256,192,247834,1,0,0:0:0:0:
256,192,247994,1,2,0:0:0:0:
256,192,248154,1,0,0:0:0:0:
256,192,248313,1,0,0:0:0:0:
256,192,248473,1,0,0:0:0:0:
256,192,248632,1,2,0:0:0:0:
256,192,248792,1,2,0:0:0:0:
256,192,248951,1,0,0:0:0:0:
256,192,249111,1,0,0:0:0:0:
256,192,249271,1,4,0:0:0:0:
256,192,249430,1,2,0:0:0:0:
256,192,251664,1,4,0:0:0:0:
256,192,251824,1,4,0:0:0:0:
256,192,251983,1,6,0:0:0:0:
