osu file format v14

[General]
AudioFilename: audio.mp3
AudioLeadIn: 0
PreviewTime: 51135
Countdown: 1
SampleSet: Normal
StackLeniency: 0.7
Mode: 1
LetterboxInBreaks: 0
WidescreenStoryboard: 0

[Editor]
DistanceSpacing: 1
BeatDivisor: 4
GridSize: 4
TimelineZoom: 1

[Metadata]
Title:BANG!BANG!BANG!
TitleUnicode:BANG!BANG!BANG!
Artist:Silent Siren
ArtistUnicode:Silent Siren
Creator:a2805146
Version:Oni
Source:
Tags:Silent Siren BANG!BANG!BANG!
BeatmapID:1400288
BeatmapSetID:661418

[Difficulty]
HPDrainRate:5
CircleSize:5
OverallDifficulty:5.5
ApproachRate:5
SliderMultiplier:1.4
SliderTickRate:1

[Events]
//Background and Video events
0,0,"BG.jpg",0,0
//Break Periods
//Storyboard Layer 0 (Background)
//Storyboard Layer 1 (Fail)
//Storyboard Layer 2 (Pass)
//Storyboard Layer 3 (Foreground)
//Storyboard Sound Samples

[TimingPoints]
5737,319.148936170213,4,1,0,75,1,0
8130,-100,4,1,0,75,0,1
18502,-100,4,1,0,75,0,0
21215,-111.111111111111,4,1,0,70,0,0
31428,-100,4,1,0,70,0,0
41800,-133.333333333333,4,1,0,55,0,0
46907,-117.647058823529,4,1,0,55,0,0
48183,-105.263157894737,4,1,0,55,0,0
49141,-133.333333333333,4,1,0,55,0,0
51534,-100,4,1,0,65,0,1
60471,-90.9090909090909,4,1,0,65,0,0
60790,-83.3333333333333,4,1,0,65,0,0
61109,-76.9230769230769,4,1,0,65,0,0
61428,-100,4,1,0,65,0,0
61747,-100,4,1,0,65,0,1
70683,-90.9090909090909,4,1,0,65,0,0
71002,-83.3333333333333,4,1,0,65,0,0
71322,-76.9230769230769,4,1,0,65,0,0
71481,-100,4,1,0,65,0,0
72119,-100,4,1,0,65,0,1
79779,-100,4,1,0,70,0,0
95258,-100,4,1,0,65,0,0
105311,-133.333333333333,4,1,0,65,0,0
110737,-117.647058823529,4,1,0,55,0,0
112013,-105.263157894737,4,1,0,55,0,0
112971,-133.333333333333,4,1,0,55,0,0
115045,-100,4,1,0,65,0,0
115364,-100,4,1,0,65,0,1
124300,-90.9090909090909,4,1,0,65,0,0
124619,-83.3333333333333,4,1,0,65,0,0
124939,-76.9230769230769,4,1,0,65,0,0
125258,-100,4,1,0,65,0,0
125577,-100,4,1,0,65,0,1
134513,-90.9090909090909,4,1,0,65,0,0
134832,-83.3333333333333,4,1,0,65,0,0
135151,-76.9230769230769,4,1,0,65,0,0
135311,-100,4,1,0,65,0,0
135949,-83.3333333333333,4,1,0,65,0,1
143609,-100,4,1,0,65,0,0
146481,-105.263157894737,4,1,0,35,0,0
147119,-111.111111111111,4,1,0,35,0,0
147758,-117.647058823529,4,1,0,30,0,0
148396,-125,4,1,0,30,0,0
149034,-133.333333333333,4,1,0,25,0,0
149673,-142.857142857143,4,1,0,25,0,0
150311,-153.846153846154,4,1,0,20,0,0
150949,-125,4,1,0,10,0,0

[HitObjects]
256,192,5737,5,0,0:0:0:0:
256,192,6056,1,0,0:0:0:0:
256,192,6375,1,0,0:0:0:0:
256,192,6534,1,0,0:0:0:0:
256,192,6854,1,0,0:0:0:0:
256,192,7173,1,0,0:0:0:0:
256,192,7492,1,0,0:0:0:0:
256,192,7651,1,8,0:0:0:0:
256,192,7811,1,0,0:0:0:0:
256,192,7891,1,0,0:0:0:0:
256,192,7971,1,0,0:0:0:0:
256,192,8130,1,4,0:0:0:0:
256,192,8449,1,0,0:0:0:0:
256,192,8609,1,8,0:0:0:0:
256,192,8928,1,0,0:0:0:0:
256,192,9088,1,0,0:0:0:0:
256,192,9247,1,8,0:0:0:0:
256,192,9407,1,0,0:0:0:0:
256,192,9487,1,0,0:0:0:0:
256,192,9566,1,0,0:0:0:0:
256,192,9726,1,0,0:0:0:0:
256,192,9885,1,8,0:0:0:0:
256,192,10045,1,0,0:0:0:0:
256,192,10125,1,0,0:0:0:0:
256,192,10205,1,0,0:0:0:0:
256,192,10364,1,0,0:0:0:0:
256,192,10524,1,0,0:0:0:0:
256,192,10604,1,0,0:0:0:0:
256,192,10683,1,8,0:0:0:0:
256,192,11002,1,0,0:0:0:0:
256,192,11162,1,8,0:0:0:0:
256,192,11481,1,0,0:0:0:0:
256,192,11561,1,0,0:0:0:0:
256,192,11641,1,0,0:0:0:0:
256,192,11721,1,0,0:0:0:0:
256,192,11800,1,0,0:0:0:0:
256,192,11960,1,4,0:0:0:0:
256,192,12279,1,4,0:0:0:0:
256,192,12598,1,4,0:0:0:0:
256,192,12917,1,4,0:0:0:0:
256,192,13077,1,8,0:0:0:0:
256,192,13237,1,4,0:0:0:0:
256,192,13556,1,0,0:0:0:0:
256,192,13715,1,8,0:0:0:0:
256,192,14034,1,0,0:0:0:0:
256,192,14194,1,0,0:0:0:0:
256,192,14354,1,8,0:0:0:0:
256,192,14513,1,0,0:0:0:0:
256,192,14593,1,0,0:0:0:0:
256,192,14673,1,0,0:0:0:0:
256,192,14832,1,0,0:0:0:0:
256,192,14992,1,8,0:0:0:0:
256,192,15151,1,0,0:0:0:0:
256,192,15231,1,0,0:0:0:0:
256,192,15311,1,0,0:0:0:0:
256,192,15471,1,0,0:0:0:0:
256,192,15630,1,8,0:0:0:0:
256,192,15710,1,0,0:0:0:0:
256,192,15790,1,0,0:0:0:0:
256,192,16109,1,0,0:0:0:0:
256,192,16268,1,8,0:0:0:0:
256,192,16588,1,0,0:0:0:0:
256,192,16747,1,0,0:0:0:0:
256,192,16827,1,0,0:0:0:0:
256,192,16907,1,0,0:0:0:0:
256,192,17066,1,4,0:0:0:0:
256,192,17385,1,4,0:0:0:0:
256,192,17705,1,4,0:0:0:0:
256,192,18024,1,0,0:0:0:0:
256,192,18183,1,8,0:0:0:0:
256,192,18343,1,8,0:0:0:0:
256,192,18502,1,4,0:0:0:0:
256,192,18822,1,0,0:0:0:0:
256,192,19141,1,0,0:0:0:0:
256,192,19460,1,0,0:0:0:0:
256,192,19779,1,0,0:0:0:0:
256,192,19939,1,8,0:0:0:0:
256,192,20098,1,8,0:0:0:0:
256,192,20258,1,8,0:0:0:0:
256,192,20417,1,8,0:0:0:0:
256,192,20577,1,8,0:0:0:0:
256,192,20737,1,8,0:0:0:0:
256,192,20896,1,4,0:0:0:0:
256,192,21215,1,0,0:0:0:0:
256,192,21375,1,8,0:0:0:0:
256,192,21455,1,8,0:0:0:0:
256,192,21534,1,0,0:0:0:0:
256,192,21694,1,8,0:0:0:0:
256,192,21854,1,0,0:0:0:0:
256,192,22013,1,8,0:0:0:0:
256,192,22093,1,8,0:0:0:0:
256,192,22173,1,0,0:0:0:0:
256,192,22332,1,8,0:0:0:0:
256,192,22492,1,8,0:0:0:0:
256,192,22651,1,0,0:0:0:0:
256,192,22811,1,8,0:0:0:0:
256,192,22971,1,0,0:0:0:0:
256,192,23290,1,0,0:0:0:0:
256,192,23928,1,8,0:0:0:0:
256,192,24247,1,0,0:0:0:0:
256,192,24407,1,0,0:0:0:0:
256,192,24566,1,8,0:0:0:0:
256,192,24885,1,0,0:0:0:0:
256,192,25045,1,0,0:0:0:0:
256,192,25205,1,8,0:0:0:0:
256,192,25364,1,0,0:0:0:0:
256,192,25524,1,8,0:0:0:0:
256,192,25843,1,8,0:0:0:0:
256,192,26002,1,0,0:0:0:0:
256,192,26322,1,0,0:0:0:0:
256,192,26481,1,8,0:0:0:0:
256,192,26641,1,8,0:0:0:0:
256,192,26800,1,0,0:0:0:0:
256,192,27119,1,0,0:0:0:0:
256,192,27279,1,0,0:0:0:0:
256,192,27439,1,8,0:0:0:0:
256,192,27758,1,8,0:0:0:0:
256,192,27917,1,0,0:0:0:0:
256,192,28237,1,0,0:0:0:0:
256,192,28396,1,8,0:0:0:0:
256,192,28556,1,0,0:0:0:0:
256,192,28875,1,0,0:0:0:0:
256,192,29034,1,8,0:0:0:0:
256,192,29354,1,0,0:0:0:0:
256,192,29673,1,8,0:0:0:0:
256,192,29832,1,8,0:0:0:0:
256,192,29992,1,0,0:0:0:0:
256,192,30311,1,0,0:0:0:0:
256,192,30630,1,0,0:0:0:0:
256,192,30790,1,8,0:0:0:0:
256,192,31109,1,4,0:0:0:0:
256,192,31428,1,0,0:0:0:0:
256,192,31588,1,8,0:0:0:0:
256,192,31747,1,0,0:0:0:0:
256,192,31907,1,8,0:0:0:0:
256,192,31987,1,8,0:0:0:0:
256,192,32066,1,0,0:0:0:0:
256,192,32226,1,8,0:0:0:0:
256,192,32306,1,8,0:0:0:0:
256,192,32385,1,0,0:0:0:0:
256,192,32545,1,8,0:0:0:0:
256,192,32705,1,8,0:0:0:0:
256,192,32864,1,0,0:0:0:0:
256,192,33024,1,8,0:0:0:0:
256,192,33183,1,0,0:0:0:0:
256,192,33502,1,0,0:0:0:0:
256,192,34141,1,8,0:0:0:0:
256,192,34460,1,0,0:0:0:0:
256,192,34619,1,0,0:0:0:0:
256,192,34779,1,8,0:0:0:0:
256,192,35098,1,0,0:0:0:0:
256,192,35258,1,0,0:0:0:0:
256,192,35417,1,8,0:0:0:0:
256,192,35737,1,8,0:0:0:0:
256,192,36056,1,0,0:0:0:0:
256,192,36215,1,8,0:0:0:0:
256,192,36534,1,0,0:0:0:0:
256,192,36694,1,8,0:0:0:0:
256,192,36854,1,0,0:0:0:0:
256,192,37013,1,0,0:0:0:0:
256,192,37093,1,0,0:0:0:0:
256,192,37173,1,0,0:0:0:0:
256,192,37332,1,8,0:0:0:0:
256,192,37492,1,8,0:0:0:0:
256,192,37651,1,0,0:0:0:0:
256,192,37971,1,0,0:0:0:0:
256,192,38130,1,8,0:0:0:0:
256,192,38449,1,0,0:0:0:0:
256,192,38609,1,8,0:0:0:0:
256,192,38768,1,0,0:0:0:0:
256,192,39088,1,0,0:0:0:0:
256,192,39247,1,8,0:0:0:0:
256,192,39407,1,8,0:0:0:0:
256,192,39566,1,0,0:0:0:0:
256,192,40045,1,0,0:0:0:0:
256,192,40205,1,8,0:0:0:0:
256,192,40524,1,8,0:0:0:0:
256,192,40843,1,8,0:0:0:0:
256,192,41162,1,0,0:0:0:0:
256,192,41481,1,4,0:0:0:0:
256,192,41800,1,0,0:0:0:0:
256,192,41960,1,0,0:0:0:0:
256,192,42119,1,8,0:0:0:0:
256,192,42439,1,0,0:0:0:0:
256,192,42758,1,0,0:0:0:0:
256,192,42917,1,0,0:0:0:0:
256,192,43077,1,8,0:0:0:0:
256,192,43237,1,8,0:0:0:0:
256,192,43396,1,0,0:0:0:0:
256,192,43715,1,0,0:0:0:0:
256,192,44034,1,4,0:0:0:0:
256,192,44354,1,0,0:0:0:0:
256,192,44513,1,0,0:0:0:0:
256,192,44673,1,0,0:0:0:0:
256,192,44992,1,0,0:0:0:0:
256,192,45311,1,0,0:0:0:0:
256,192,45471,1,0,0:0:0:0:
256,192,45630,1,8,0:0:0:0:
256,192,45790,1,8,0:0:0:0:
256,192,45949,1,0,0:0:0:0:
256,192,46029,1,0,0:0:0:0:
256,192,46109,1,0,0:0:0:0:
256,192,46268,1,8,0:0:0:0:
256,192,46588,1,4,0:0:0:0:
256,192,46907,1,0,0:0:0:0:
256,192,47066,1,8,0:0:0:0:
256,192,47226,1,0,0:0:0:0:
256,192,47545,1,0,0:0:0:0:
256,192,47864,1,4,0:0:0:0:
256,192,48183,1,0,0:0:0:0:
256,192,48343,1,8,0:0:0:0:
256,192,48502,1,0,0:0:0:0:
256,192,48822,1,0,0:0:0:0:
256,192,49141,1,4,0:0:0:0:
256,192,49619,1,4,0:0:0:0:
256,192,50098,1,0,0:0:0:0:
256,192,50258,1,0,0:0:0:0:
256,192,50577,1,4,0:0:0:0:
256,192,50737,1,4,0:0:0:0:
256,192,50896,1,4,0:0:0:0:
256,192,51215,1,8,0:0:0:0:
256,192,51375,1,0,0:0:0:0:
256,192,51534,1,12,0:0:0:0:
256,192,51854,1,0,0:0:0:0:
256,192,52013,1,8,0:0:0:0:
256,192,52332,1,0,0:0:0:0:
256,192,52492,1,0,0:0:0:0:
256,192,52572,1,0,0:0:0:0:
256,192,52651,1,8,0:0:0:0:
256,192,52811,1,0,0:0:0:0:
256,192,52971,1,12,0:0:0:0:
256,192,53130,1,12,0:0:0:0:
256,192,53449,1,12,0:0:0:0:
256,192,53768,1,8,0:0:0:0:
256,192,53928,1,0,0:0:0:0:
256,192,54088,1,8,0:0:0:0:
256,192,54407,1,0,0:0:0:0:
256,192,54566,1,8,0:0:0:0:
256,192,54885,1,0,0:0:0:0:
256,192,55045,1,0,0:0:0:0:
256,192,55205,1,8,0:0:0:0:
256,192,55364,1,8,0:0:0:0:
256,192,55524,1,0,0:0:0:0:
256,192,55683,1,8,0:0:0:0:
256,192,55843,1,8,0:0:0:0:
256,192,56002,1,0,0:0:0:0:
256,192,56322,1,0,0:0:0:0:
256,192,56481,1,8,0:0:0:0:
256,192,56641,1,4,0:0:0:0:
256,192,56800,1,0,0:0:0:0:
256,192,56880,1,0,0:0:0:0:
256,192,56960,1,0,0:0:0:0:
256,192,57119,1,0,0:0:0:0:
256,192,57279,1,8,0:0:0:0:
256,192,57439,1,0,0:0:0:0:
256,192,57518,1,0,0:0:0:0:
256,192,57598,1,0,0:0:0:0:
256,192,57758,1,0,0:0:0:0:
256,192,57917,1,4,0:0:0:0:
256,192,58077,1,0,0:0:0:0:
256,192,58157,1,0,0:0:0:0:
256,192,58237,1,0,0:0:0:0:
256,192,58396,1,0,0:0:0:0:
256,192,58556,1,8,0:0:0:0:
256,192,58875,1,0,0:0:0:0:
256,192,59034,1,8,0:0:0:0:
256,192,59194,1,8,0:0:0:0:
256,192,59354,1,0,0:0:0:0:
256,192,59673,1,0,0:0:0:0:
256,192,59992,1,0,0:0:0:0:
256,192,60151,1,0,0:0:0:0:
256,192,60471,1,4,0:0:0:0:
256,192,60790,1,4,0:0:0:0:
256,192,61109,1,4,0:0:0:0:
256,192,61428,1,0,0:0:0:0:
256,192,61588,1,8,0:0:0:0:
256,192,61747,1,4,0:0:0:0:
256,192,62066,1,0,0:0:0:0:
256,192,62226,1,8,0:0:0:0:
256,192,62545,1,0,0:0:0:0:
256,192,62705,1,8,0:0:0:0:
256,192,62864,1,0,0:0:0:0:
256,192,62944,1,0,0:0:0:0:
256,192,63024,1,0,0:0:0:0:
256,192,63183,1,4,0:0:0:0:
256,192,63343,1,4,0:0:0:0:
256,192,63662,1,4,0:0:0:0:
256,192,63981,1,0,0:0:0:0:
256,192,64141,1,8,0:0:0:0:
256,192,64300,1,0,0:0:0:0:
256,192,64619,1,0,0:0:0:0:
256,192,64779,1,8,0:0:0:0:
256,192,65098,1,8,0:0:0:0:
256,192,65258,1,8,0:0:0:0:
256,192,65417,1,0,0:0:0:0:
256,192,65577,1,0,0:0:0:0:
256,192,65737,1,8,0:0:0:0:
256,192,65816,1,8,0:0:0:0:
256,192,65896,1,8,0:0:0:0:
256,192,66056,1,8,0:0:0:0:
256,192,66215,1,0,0:0:0:0:
256,192,66534,1,0,0:0:0:0:
256,192,66694,1,8,0:0:0:0:
256,192,66854,1,4,0:0:0:0:
256,192,67013,1,0,0:0:0:0:
256,192,67093,1,0,0:0:0:0:
256,192,67173,1,0,0:0:0:0:
256,192,67332,1,0,0:0:0:0:
256,192,67492,1,8,0:0:0:0:
256,192,67651,1,0,0:0:0:0:
256,192,67731,1,0,0:0:0:0:
256,192,67811,1,0,0:0:0:0:
256,192,67971,1,0,0:0:0:0:
256,192,68130,1,4,0:0:0:0:
256,192,68290,1,0,0:0:0:0:
256,192,68369,1,0,0:0:0:0:
256,192,68449,1,0,0:0:0:0:
256,192,68609,1,0,0:0:0:0:
256,192,68768,1,8,0:0:0:0:
256,192,69088,1,0,0:0:0:0:
256,192,69247,1,8,0:0:0:0:
256,192,69407,1,8,0:0:0:0:
256,192,69566,1,0,0:0:0:0:
256,192,69885,1,0,0:0:0:0:
256,192,70205,1,0,0:0:0:0:
256,192,70364,1,8,0:0:0:0:
256,192,70683,1,4,0:0:0:0:
256,192,71002,1,4,0:0:0:0:
256,192,71322,1,4,0:0:0:0:
256,192,71481,1,0,0:0:0:0:
256,192,71641,1,8,0:0:0:0:
256,192,71721,1,8,0:0:0:0:
256,192,71800,1,0,0:0:0:0:
256,192,71880,1,0,0:0:0:0:
256,192,71960,1,0,0:0:0:0:
256,192,72119,1,4,0:0:0:0:
256,192,72279,1,0,0:0:0:0:
256,192,72439,1,8,0:0:0:0:
256,192,72598,1,0,0:0:0:0:
256,192,72678,1,0,0:0:0:0:
256,192,72758,1,0,0:0:0:0:
256,192,72917,1,0,0:0:0:0:
256,192,73077,1,8,0:0:0:0:
256,192,73237,1,0,0:0:0:0:
256,192,73396,1,4,0:0:0:0:
256,192,73555,1,0,0:0:0:0:
256,192,73635,1,0,0:0:0:0:
256,192,73715,1,8,0:0:0:0:
256,192,73874,1,0,0:0:0:0:
256,192,74034,1,0,0:0:0:0:
256,192,74114,1,0,0:0:0:0:
256,192,74194,1,0,0:0:0:0:
256,192,74354,1,8,0:0:0:0:
256,192,74513,1,0,0:0:0:0:
256,192,74673,1,4,0:0:0:0:
256,192,74832,1,0,0:0:0:0:
256,192,74992,1,8,0:0:0:0:
256,192,75072,1,0,0:0:0:0:
256,192,75151,1,8,0:0:0:0:
256,192,75231,1,8,0:0:0:0:
256,192,75311,1,0,0:0:0:0:
256,192,75471,1,0,0:0:0:0:
256,192,75630,1,8,0:0:0:0:
256,192,75790,1,0,0:0:0:0:
256,192,76109,1,0,0:0:0:0:
256,192,76268,1,8,0:0:0:0:
256,192,76588,1,0,0:0:0:0:
256,192,76748,1,0,0:0:0:0:
256,192,76907,1,8,0:0:0:0:
256,192,77226,1,4,0:0:0:0:
256,192,77385,1,0,0:0:0:0:
256,192,77465,1,0,0:0:0:0:
256,192,77545,1,0,0:0:0:0:
256,192,77705,1,8,0:0:0:0:
256,192,77864,1,0,0:0:0:0:
256,192,78024,1,0,0:0:0:0:
256,192,78104,1,0,0:0:0:0:
256,192,78183,1,8,0:0:0:0:
256,192,78502,1,4,0:0:0:0:
256,192,78822,1,4,0:0:0:0:
256,192,79141,1,0,0:0:0:0:
256,192,79300,1,0,0:0:0:0:
256,192,79460,1,8,0:0:0:0:
256,192,79619,1,8,0:0:0:0:
256,192,79779,1,0,0:0:0:0:
256,192,80098,1,0,0:0:0:0:
256,192,80417,1,0,0:0:0:0:
256,192,80577,1,0,0:0:0:0:
256,192,80896,1,0,0:0:0:0:
256,192,81215,1,0,0:0:0:0:
256,192,81534,1,0,0:0:0:0:
256,192,81694,1,8,0:0:0:0:
256,192,81854,1,0,0:0:0:0:
256,192,81933,1,0,0:0:0:0:
256,192,82013,1,0,0:0:0:0:
256,192,82173,1,4,0:0:0:0:
256,192,82492,1,0,0:0:0:0:
256,192,82651,1,8,0:0:0:0:
256,192,82971,1,0,0:0:0:0:
256,192,83130,1,0,0:0:0:0:
256,192,83290,1,8,0:0:0:0:
256,192,83449,1,0,0:0:0:0:
256,192,83529,1,0,0:0:0:0:
256,192,83609,1,0,0:0:0:0:
256,192,83768,1,0,0:0:0:0:
256,192,83928,1,8,0:0:0:0:
256,192,84088,1,0,0:0:0:0:
256,192,84167,1,0,0:0:0:0:
256,192,84247,1,0,0:0:0:0:
256,192,84407,1,0,0:0:0:0:
256,192,84566,1,0,0:0:0:0:
256,192,84646,1,0,0:0:0:0:
256,192,84726,1,8,0:0:0:0:
256,192,85045,1,0,0:0:0:0:
256,192,85205,1,8,0:0:0:0:
256,192,85524,1,0,0:0:0:0:
256,192,85604,1,0,0:0:0:0:
256,192,85683,1,0,0:0:0:0:
256,192,85763,1,0,0:0:0:0:
256,192,85843,1,0,0:0:0:0:
256,192,86002,1,4,0:0:0:0:
256,192,86322,1,4,0:0:0:0:
256,192,86641,1,4,0:0:0:0:
256,192,86960,1,4,0:0:0:0:
256,192,87119,1,8,0:0:0:0:
256,192,87279,1,4,0:0:0:0:
256,192,87598,1,0,0:0:0:0:
256,192,87758,1,8,0:0:0:0:
256,192,88077,1,0,0:0:0:0:
256,192,88237,1,0,0:0:0:0:
256,192,88396,1,8,0:0:0:0:
256,192,88556,1,0,0:0:0:0:
256,192,88635,1,0,0:0:0:0:
256,192,88715,1,0,0:0:0:0:
256,192,88875,1,0,0:0:0:0:
256,192,89034,1,8,0:0:0:0:
256,192,89194,1,0,0:0:0:0:
256,192,89274,1,0,0:0:0:0:
256,192,89354,1,0,0:0:0:0:
256,192,89513,1,0,0:0:0:0:
256,192,89673,1,8,0:0:0:0:
256,192,89752,1,0,0:0:0:0:
256,192,89832,1,0,0:0:0:0:
256,192,90151,1,0,0:0:0:0:
256,192,90311,1,8,0:0:0:0:
256,192,90630,1,0,0:0:0:0:
256,192,90790,1,0,0:0:0:0:
256,192,90869,1,0,0:0:0:0:
256,192,90949,1,0,0:0:0:0:
256,192,91109,1,4,0:0:0:0:
256,192,91428,1,4,0:0:0:0:
256,192,91747,1,4,0:0:0:0:
256,192,92066,1,0,0:0:0:0:
256,192,92226,1,8,0:0:0:0:
256,192,92385,1,8,0:0:0:0:
256,192,92545,1,4,0:0:0:0:
256,192,92864,1,0,0:0:0:0:
256,192,93183,1,0,0:0:0:0:
256,192,93502,1,0,0:0:0:0:
256,192,93822,1,0,0:0:0:0:
256,192,93981,1,8,0:0:0:0:
256,192,94141,1,8,0:0:0:0:
256,192,94300,1,8,0:0:0:0:
256,192,94460,1,8,0:0:0:0:
256,192,94619,1,8,0:0:0:0:
256,192,94779,1,8,0:0:0:0:
256,192,94939,1,4,0:0:0:0:
256,192,95258,1,0,0:0:0:0:
256,192,95417,1,8,0:0:0:0:
256,192,95497,1,8,0:0:0:0:
256,192,95577,1,0,0:0:0:0:
256,192,95737,1,8,0:0:0:0:
256,192,95896,1,0,0:0:0:0:
256,192,96056,1,8,0:0:0:0:
256,192,96135,1,8,0:0:0:0:
256,192,96215,1,0,0:0:0:0:
256,192,96375,1,8,0:0:0:0:
256,192,96534,1,8,0:0:0:0:
256,192,96694,1,0,0:0:0:0:
256,192,96854,1,8,0:0:0:0:
256,192,97013,1,0,0:0:0:0:
256,192,97332,1,0,0:0:0:0:
256,192,97971,1,8,0:0:0:0:
256,192,98290,1,0,0:0:0:0:
256,192,98449,1,0,0:0:0:0:
256,192,98609,1,8,0:0:0:0:
256,192,98928,1,0,0:0:0:0:
256,192,99088,1,0,0:0:0:0:
256,192,99247,1,8,0:0:0:0:
256,192,99566,1,8,0:0:0:0:
256,192,99885,1,8,0:0:0:0:
256,192,100045,1,0,0:0:0:0:
256,192,100364,1,0,0:0:0:0:
256,192,100524,1,8,0:0:0:0:
256,192,100683,1,0,0:0:0:0:
256,192,100843,1,0,0:0:0:0:
256,192,100923,1,0,0:0:0:0:
256,192,101002,1,0,0:0:0:0:
256,192,101162,1,8,0:0:0:0:
256,192,101322,1,8,0:0:0:0:
256,192,101481,1,0,0:0:0:0:
256,192,101800,1,0,0:0:0:0:
256,192,101960,1,8,0:0:0:0:
256,192,102279,1,0,0:0:0:0:
256,192,102439,1,8,0:0:0:0:
256,192,102598,1,0,0:0:0:0:
256,192,102917,1,0,0:0:0:0:
256,192,103077,1,8,0:0:0:0:
256,192,103237,1,8,0:0:0:0:
256,192,103396,1,0,0:0:0:0:
256,192,103875,1,0,0:0:0:0:
256,192,104034,1,8,0:0:0:0:
256,192,104354,1,8,0:0:0:0:
256,192,104673,1,8,0:0:0:0:
256,192,104992,1,0,0:0:0:0:
256,192,105311,1,4,0:0:0:0:
256,192,105630,1,0,0:0:0:0:
256,192,105790,1,0,0:0:0:0:
256,192,105949,1,0,0:0:0:0:
256,192,106268,1,0,0:0:0:0:
256,192,106588,1,0,0:0:0:0:
256,192,106747,1,0,0:0:0:0:
256,192,106907,1,8,0:0:0:0:
256,192,107066,1,0,0:0:0:0:
256,192,107226,1,0,0:0:0:0:
256,192,107545,1,0,0:0:0:0:
256,192,107864,1,4,0:0:0:0:
256,192,108183,1,0,0:0:0:0:
256,192,108343,1,0,0:0:0:0:
256,192,108502,1,0,0:0:0:0:
256,192,108822,1,0,0:0:0:0:
256,192,109141,1,0,0:0:0:0:
256,192,109300,1,0,0:0:0:0:
256,192,109460,1,8,0:0:0:0:
256,192,109619,1,8,0:0:0:0:
256,192,109779,1,0,0:0:0:0:
256,192,109859,1,0,0:0:0:0:
256,192,109939,1,0,0:0:0:0:
256,192,110098,1,8,0:0:0:0:
256,192,110417,1,4,0:0:0:0:
256,192,110737,1,0,0:0:0:0:
256,192,110896,1,8,0:0:0:0:
256,192,111056,1,0,0:0:0:0:
256,192,111375,1,0,0:0:0:0:
256,192,111694,1,4,0:0:0:0:
256,192,112013,1,0,0:0:0:0:
256,192,112173,1,8,0:0:0:0:
256,192,112332,1,0,0:0:0:0:
256,192,112651,1,0,0:0:0:0:
256,192,112971,1,4,0:0:0:0:
256,192,113449,1,4,0:0:0:0:
256,192,113928,1,0,0:0:0:0:
256,192,114088,1,0,0:0:0:0:
256,192,114407,1,4,0:0:0:0:
256,192,114566,1,4,0:0:0:0:
256,192,114726,1,4,0:0:0:0:
256,192,115045,1,8,0:0:0:0:
256,192,115205,1,0,0:0:0:0:
256,192,115364,1,12,0:0:0:0:
256,192,115683,1,0,0:0:0:0:
256,192,115843,1,8,0:0:0:0:
256,192,116162,1,0,0:0:0:0:
256,192,116322,1,0,0:0:0:0:
256,192,116401,1,0,0:0:0:0:
256,192,116481,1,8,0:0:0:0:
256,192,116641,1,0,0:0:0:0:
256,192,116800,1,12,0:0:0:0:
256,192,116960,1,12,0:0:0:0:
256,192,117279,1,12,0:0:0:0:
256,192,117598,1,8,0:0:0:0:
256,192,117758,1,0,0:0:0:0:
256,192,117917,1,8,0:0:0:0:
256,192,118237,1,0,0:0:0:0:
256,192,118396,1,8,0:0:0:0:
256,192,118715,1,0,0:0:0:0:
256,192,118875,1,0,0:0:0:0:
256,192,119034,1,8,0:0:0:0:
256,192,119194,1,8,0:0:0:0:
256,192,119354,1,0,0:0:0:0:
256,192,119513,1,8,0:0:0:0:
256,192,119673,1,8,0:0:0:0:
256,192,119832,1,0,0:0:0:0:
256,192,120151,1,0,0:0:0:0:
256,192,120311,1,8,0:0:0:0:
256,192,120471,1,4,0:0:0:0:
256,192,120630,1,0,0:0:0:0:
256,192,120710,1,0,0:0:0:0:
256,192,120790,1,0,0:0:0:0:
256,192,120949,1,0,0:0:0:0:
256,192,121109,1,8,0:0:0:0:
256,192,121268,1,0,0:0:0:0:
256,192,121348,1,0,0:0:0:0:
256,192,121428,1,0,0:0:0:0:
256,192,121588,1,0,0:0:0:0:
256,192,121747,1,4,0:0:0:0:
256,192,121907,1,0,0:0:0:0:
256,192,121987,1,0,0:0:0:0:
256,192,122066,1,0,0:0:0:0:
256,192,122225,1,0,0:0:0:0:
256,192,122385,1,8,0:0:0:0:
256,192,122705,1,0,0:0:0:0:
256,192,122864,1,8,0:0:0:0:
256,192,123024,1,8,0:0:0:0:
256,192,123183,1,0,0:0:0:0:
256,192,123502,1,0,0:0:0:0:
256,192,123822,1,0,0:0:0:0:
256,192,123981,1,0,0:0:0:0:
256,192,124300,1,4,0:0:0:0:
256,192,124619,1,4,0:0:0:0:
256,192,124939,1,4,0:0:0:0:
256,192,125258,1,0,0:0:0:0:
256,192,125417,1,8,0:0:0:0:
256,192,125577,1,4,0:0:0:0:
256,192,125896,1,0,0:0:0:0:
256,192,126056,1,8,0:0:0:0:
256,192,126375,1,0,0:0:0:0:
256,192,126455,1,0,0:0:0:0:
256,192,126534,1,0,0:0:0:0:
256,192,126694,1,8,0:0:0:0:
256,192,126854,1,8,0:0:0:0:
256,192,127013,1,4,0:0:0:0:
256,192,127173,1,4,0:0:0:0:
256,192,127492,1,4,0:0:0:0:
256,192,127811,1,0,0:0:0:0:
256,192,127971,1,8,0:0:0:0:
256,192,128130,1,0,0:0:0:0:
256,192,128449,1,0,0:0:0:0:
256,192,128609,1,8,0:0:0:0:
256,192,128928,1,8,0:0:0:0:
256,192,129088,1,8,0:0:0:0:
256,192,129247,1,0,0:0:0:0:
256,192,129407,1,0,0:0:0:0:
256,192,129566,1,8,0:0:0:0:
256,192,129646,1,8,0:0:0:0:
256,192,129726,1,8,0:0:0:0:
256,192,129885,1,8,0:0:0:0:
256,192,130045,1,0,0:0:0:0:
256,192,130364,1,0,0:0:0:0:
256,192,130524,1,8,0:0:0:0:
256,192,130684,1,4,0:0:0:0:
256,192,130843,1,0,0:0:0:0:
256,192,130923,1,0,0:0:0:0:
256,192,131003,1,0,0:0:0:0:
256,192,131162,1,0,0:0:0:0:
256,192,131322,1,8,0:0:0:0:
256,192,131481,1,0,0:0:0:0:
256,192,131561,1,0,0:0:0:0:
256,192,131641,1,0,0:0:0:0:
256,192,131801,1,0,0:0:0:0:
256,192,131960,1,4,0:0:0:0:
256,192,132120,1,0,0:0:0:0:
256,192,132199,1,0,0:0:0:0:
256,192,132279,1,0,0:0:0:0:
256,192,132439,1,0,0:0:0:0:
256,192,132598,1,8,0:0:0:0:
256,192,132917,1,0,0:0:0:0:
256,192,133076,1,8,0:0:0:0:
256,192,133236,1,8,0:0:0:0:
256,192,133395,1,0,0:0:0:0:
256,192,133714,1,0,0:0:0:0:
256,192,134034,1,0,0:0:0:0:
256,192,134193,1,8,0:0:0:0:
256,192,134512,1,4,0:0:0:0:
256,192,134831,1,4,0:0:0:0:
256,192,135151,1,4,0:0:0:0:
256,192,135311,1,0,0:0:0:0:
256,192,135471,1,8,0:0:0:0:
256,192,135551,1,8,0:0:0:0:
256,192,135630,1,0,0:0:0:0:
256,192,135710,1,0,0:0:0:0:
256,192,135790,1,0,0:0:0:0:
256,192,135949,1,4,0:0:0:0:
256,192,136109,1,0,0:0:0:0:
256,192,136269,1,8,0:0:0:0:
256,192,136428,1,0,0:0:0:0:
256,192,136508,1,0,0:0:0:0:
256,192,136588,1,0,0:0:0:0:
256,192,136747,1,0,0:0:0:0:
256,192,136907,1,8,0:0:0:0:
256,192,137067,1,0,0:0:0:0:
256,192,137226,1,4,0:0:0:0:
256,192,137385,1,0,0:0:0:0:
256,192,137465,1,0,0:0:0:0:
256,192,137545,1,8,0:0:0:0:
256,192,137704,1,0,0:0:0:0:
256,192,137864,1,0,0:0:0:0:
256,192,137944,1,0,0:0:0:0:
256,192,138024,1,0,0:0:0:0:
256,192,138184,1,8,0:0:0:0:
256,192,138343,1,0,0:0:0:0:
256,192,138503,1,4,0:0:0:0:
256,192,138662,1,0,0:0:0:0:
256,192,138822,1,8,0:0:0:0:
256,192,138902,1,0,0:0:0:0:
256,192,138981,1,8,0:0:0:0:
256,192,139061,1,8,0:0:0:0:
256,192,139141,1,0,0:0:0:0:
256,192,139301,1,0,0:0:0:0:
256,192,139460,1,8,0:0:0:0:
256,192,139620,1,0,0:0:0:0:
256,192,139939,1,0,0:0:0:0:
256,192,140098,1,8,0:0:0:0:
256,192,140418,1,0,0:0:0:0:
256,192,140578,1,0,0:0:0:0:
256,192,140737,1,8,0:0:0:0:
256,192,141056,1,4,0:0:0:0:
256,192,141215,1,0,0:0:0:0:
256,192,141295,1,0,0:0:0:0:
256,192,141375,1,0,0:0:0:0:
256,192,141534,1,8,0:0:0:0:
256,192,141694,1,0,0:0:0:0:
256,192,141854,1,0,0:0:0:0:
256,192,141933,1,0,0:0:0:0:
256,192,142013,1,8,0:0:0:0:
256,192,142332,1,4,0:0:0:0:
256,192,142651,1,4,0:0:0:0:
256,192,142971,1,0,0:0:0:0:
256,192,143130,1,0,0:0:0:0:
256,192,143290,1,8,0:0:0:0:
256,192,143449,1,8,0:0:0:0:
256,192,143609,1,0,0:0:0:0:
256,192,143928,1,0,0:0:0:0:
256,192,144247,1,0,0:0:0:0:
256,192,144407,1,0,0:0:0:0:
256,192,144726,1,0,0:0:0:0:
256,192,145045,1,0,0:0:0:0:
256,192,145364,1,0,0:0:0:0:
256,192,145524,1,8,0:0:0:0:
256,192,145683,1,0,0:0:0:0:
256,192,145843,1,0,0:0:0:0:
256,192,146002,1,0,0:0:0:0:
256,192,146162,1,4,0:0:0:0:
256,192,146481,1,8,0:0:0:0:
256,192,146641,1,8,0:0:0:0:
256,192,146800,1,0,0:0:0:0:
256,192,147119,1,8,0:0:0:0:
256,192,147439,1,0,0:0:0:0:
256,192,147758,1,8,0:0:0:0:
256,192,147917,1,8,0:0:0:0:
256,192,148077,1,0,0:0:0:0:
256,192,148396,1,8,0:0:0:0:
256,192,148715,1,0,0:0:0:0:
256,192,149034,1,8,0:0:0:0:
256,192,149194,1,8,0:0:0:0:
256,192,149354,1,0,0:0:0:0:
256,192,149673,1,8,0:0:0:0:
256,192,149992,1,0,0:0:0:0:
256,192,150311,1,8,0:0:0:0:
256,192,150471,1,8,0:0:0:0:
256,192,150630,1,0,0:0:0:0:
256,192,150949,1,12,0:0:0:0:
