osu file format v14

[General]
AudioFilename: audio.mp3
AudioLeadIn: 0
PreviewTime: -1
Countdown: 1
SampleSet: None
StackLeniency: 0.5
Mode: 0
LetterboxInBreaks: 1
WidescreenStoryboard: 1

[Editor]
DistanceSpacing: 0.8
BeatDivisor: 12
GridSize: 4
TimelineZoom: 1

[Metadata]
Title:1975
TitleUnicode:1975
Artist:Silent Child
ArtistUnicode:Silent Child
Creator:namelessmug
Version:Normal
Source:
Tags:
BeatmapID:3613437
BeatmapSetID:1763571

[Difficulty]
HPDrainRate:10
CircleSize:6
OverallDifficulty:10
ApproachRate:10
SliderMultiplier:1.4
SliderTickRate:1

[Events]
//Background and Video events
//Break Periods
2,123801,129338
//Storyboard Layer 0 (Background)
//Storyboard Layer 1 (Fail)
//Storyboard Layer 2 (Pass)
//Storyboard Layer 3 (Foreground)
//Storyboard Layer 4 (Overlay)
//Storyboard Sound Samples

[TimingPoints]
0,400.000000000001,4,2,1,100,1,0
39782,200,4,2,1,100,1,1
68872,-100,4,2,1,100,0,0
103993,100,4,2,1,100,1,1

[HitObjects]
265,188,0,5,0,0:0:0:0:
183,111,400,1,0,0:0:0:0:
289,77,800,1,0,0:0:0:0:
383,136,1200,1,0,0:0:0:0:
161,191,1600,2,0,L|21:157,1,140
167,198,2000,2,0,P|252:66|182:55,1,280
80,252,2800,2,0,B|176:78|187:49|183:39|221:130,1,280
217,120,3600,1,0,0:0:0:0:
214,147,3700,1,0,0:0:0:0:
240,156,3800,1,0,0:0:0:0:
255,132,3900,1,0,0:0:0:0:
272,110,4000,2,0,B|124:64|190:83|168:140,1,140
67,162,4800,1,0,0:0:0:0:
149,237,5200,1,0,0:0:0:0:
260,229,5600,1,0,0:0:0:0:
340,150,6000,1,0,0:0:0:0:
390,49,6400,1,0,0:0:0:0:
278,54,6800,1,0,0:0:0:0:
200,134,7200,2,0,P|304:250|388:191,1,280
384,197,8000,2,0,B|311:43|212:76|199:173,1,280
256,74,9200,1,0,0:0:0:0:
144,75,9600,1,0,0:0:0:0:
89,163,10000,1,0,0:0:0:0:
183,222,10400,2,0,P|254:154|226:102,1,140
193,26,11200,2,0,P|104:75|59:126,1,140
26,166,11600,2,0,P|128:262|127:269,1,140
164,282,12200,2,0,P|303:188|341:163,1,210
445,131,13200,1,0,0:0:0:0:
221,121,14000,1,0,0:0:0:0:
109,121,14400,1,0,0:0:0:0:
121,175,14600,1,0,0:0:0:0:
173,194,14800,1,0,0:0:0:0:
228,186,15000,1,0,0:0:0:0:
215,135,15200,2,0,P|197:69|261:55,1,140
322,54,16000,2,0,B|402:133|403:160|424:173,1,140
410,217,16600,2,0,L|272:261,1,140
354,134,17200,2,0,P|257:142|236:107,1,140
223,44,17800,2,0,L|151:74,1,70
126,139,18200,1,0,0:0:0:0:
132,168,18400,1,0,0:0:0:0:
144,192,18600,1,0,0:0:0:0:
190,215,18800,2,0,L|266:208,1,70
298,191,19200,6,0,L|298:119,1,70
298,121,19600,2,0,L|299:193,1,70
299,120,20200,1,0,0:0:0:0:
263,68,20600,2,0,P|92:159|14:196,1,280
263,68,21600,1,0,0:0:0:0:
151,63,22000,1,0,0:0:0:0:
43,95,22400,1,0,0:0:0:0:
88,197,22800,1,0,0:0:0:0:
197,219,23200,1,0,0:0:0:0:
308,215,23600,1,0,0:0:0:0:
405,159,24000,1,0,0:0:0:0:
397,47,24400,2,0,P|234:127|232:237,1,280
131,144,25600,2,0,L|252:225,1,140
178,23,26400,2,0,P|226:73|284:128,1,140
20,8,27800,1,0,0:0:0:0:
40,71,28200,2,0,P|160:171|213:189,1,210
259,195,29433,2,0,L|255:51,1,140
272,81,31000,1,0,0:0:0:0:
374,204,31600,1,0,0:0:0:0:
242,187,31800,1,0,0:0:0:0:
73,188,32000,1,0,0:0:0:0:
77,53,32200,1,0,0:0:0:0:
190,50,32600,1,0,0:0:0:0:
304,58,32800,1,0,0:0:0:0:
417,223,33600,1,0,0:0:0:0:
307,199,34000,1,0,0:0:0:0:
199,169,34400,1,0,0:0:0:0:
26,137,35200,1,0,0:0:0:0:
135,113,35600,1,0,0:0:0:0:
244,89,36000,1,0,0:0:0:0:
353,66,36400,1,0,0:0:0:0:
344,177,36800,1,0,0:0:0:0:
238,215,37200,2,0,L|89:154,1,140
146,70,37600,2,0,B|285:118|278:113|286:115,2,140
258,62,38800,1,0,0:0:0:0:
369,74,39200,1,0,0:0:0:0:
375,151,39600,1,0,0:0:0:0:
212,122,39982,1,0,0:0:0:0:
357,157,40398,2,0,B|454:83|342:35|340:44,1,140
357,157,40782,2,0,P|330:127|362:49,1,128.333333333333
358,55,41182,2,0,L|210:60,1,140
198,52,41582,2,0,L|77:133,1,140
126,213,41982,6,0,L|247:128,1,140
113,73,42382,2,0,L|235:148,1,140
123,59,42782,2,0,P|239:40|219:154,1,268.333333333333
46,62,43582,1,0,0:0:0:0:
472,343,43682,1,0,0:0:0:0:
483,22,43782,1,0,0:0:0:0:
30,362,43898,1,0,0:0:0:0:
425,28,43998,1,0,0:0:0:0:
79,308,44098,1,0,0:0:0:0:
106,71,44182,1,0,0:0:0:0:
300,222,44282,1,0,0:0:0:0:
327,43,44582,2,0,L|413:162,1,140
507,103,44982,2,0,L|435:78,25,70
92,57,47798,1,0,0:0:0:0:
85,73,47982,2,0,P|148:66|74:60,1,256.666666666667
189,78,48582,2,0,L|47:108,1,140
21,107,48982,1,0,0:0:0:0:
126,170,49182,1,0,0:0:0:0:
234,142,49382,1,0,0:0:0:0:
112,83,49965,1,0,0:0:0:0:
328,127,50364,1,0,0:0:0:0:
191,17,50798,1,0,0:0:0:0:
237,68,51182,2,0,L|-38:157,1,280
180,217,52015,2,0,P|380:113|297:37,1,420
202,43,52781,2,0,P|19:190|85:242,1,420
135,230,53598,2,0,B|292:138|95:106|33:122,1,268.333333333333
30,126,54182,2,0,L|309:141,1,280
309,141,54782,1,0,0:0:0:0:
309,141,54982,2,0,L|28:122,1,280
256,192,55781,12,0,56781,0:0:0:0:
117,77,56981,5,0,0:0:0:0:
373,293,57182,1,0,0:0:0:0:
455,47,57382,1,0,0:0:0:0:
32,324,57582,1,0,0:0:0:0:
90,56,57782,2,0,P|145:207|192:179,1,280
348,82,58382,1,0,0:0:0:0:
347,120,58582,1,0,0:0:0:0:
334,151,58782,1,0,0:0:0:0:
323,186,58982,1,0,0:0:0:0:
315,209,59198,2,0,L|212:124,2,128.333333333333
177,97,59781,1,0,0:0:0:0:
288,102,59981,1,0,0:0:0:0:
294,213,60181,1,0,0:0:0:0:
182,202,60381,1,0,0:0:0:0:
192,90,60581,2,0,B|363:123|374:204|385:261,1,280
57,212,60981,2,0,L|103:69,4,140
163,245,61981,2,0,B|208:86|70:73|8:77,2,280
172,249,62982,1,0,0:0:0:0:
212,243,63098,1,0,0:0:0:0:
239,213,63198,1,0,0:0:0:0:
268,182,63298,1,0,0:0:0:0:
283,152,63382,1,0,0:0:0:0:
292,125,63498,1,0,0:0:0:0:
305,85,63598,1,0,0:0:0:0:
298,105,63782,2,0,P|244:204|83:242,1,280
90,224,64382,1,0,0:0:0:0:
104,188,64582,1,0,0:0:0:0:
120,151,64782,1,0,0:0:0:0:
133,115,64982,1,0,0:0:0:0:
166,92,65182,1,0,0:0:0:0:
213,88,65382,1,0,0:0:0:0:
237,91,65582,1,0,0:0:0:0:
281,97,65782,1,0,0:0:0:0:
301,118,65982,1,0,0:0:0:0:
307,149,66182,1,0,0:0:0:0:
301,118,66398,1,0,0:0:0:0:
285,88,66598,1,0,0:0:0:0:
216,28,66781,2,0,P|428:25|516:30,1,280
434,93,67181,2,0,L|295:189,1,140
393,255,67581,2,0,P|245:335|73:165,1,420
75,187,68181,2,0,P|267:149|363:186,1,280
289,254,68581,2,0,P|166:250|182:126,1,280
289,91,69181,2,0,L|501:281,1,280
203,114,70182,2,0,P|274:251|206:105,1,688.333333333333
214,98,71382,2,0,B|308:210|248:138|198:31|198:31|-3:71|-3:71|40:184|40:184|154:66,1,700
245,85,72581,2,0,P|52:253|27:67,1,560
462,171,73782,1,0,0:0:0:0:
462,171,74182,1,0,0:0:0:0:
238,185,74582,1,0,0:0:0:0:
107,3,74982,2,0,L|358:104,1,268.333333333333
85,84,75798,2,0,P|311:218|320:224,1,268.333333333333
420,51,76382,1,0,0:0:0:0:
310,218,76582,2,0,L|80:80,1,268.333333333333
418,59,77182,1,0,0:0:0:0:
177,247,78982,2,0,P|295:186|132:68,1,420
85,75,79781,2,0,P|352:187|364:193,1,280
343,183,80181,2,0,L|72:329,1,280
189,18,80581,2,0,P|439:146|579:209,1,420
27,47,82181,1,0,0:0:0:0:
474,49,82781,1,0,0:0:0:0:
50,194,83631,1,0,0:0:0:0:
495,241,84381,1,0,0:0:0:0:
70,97,85181,1,0,0:0:0:0:
281,170,85781,1,0,0:0:0:0:
316,72,86981,1,0,0:0:0:0:
116,69,87781,1,0,0:0:0:0:
128,168,88581,1,0,0:0:0:0:
462,134,89181,1,0,0:0:0:0:
350,138,89381,1,0,0:0:0:0:
126,158,89781,1,0,0:0:0:0:
340,92,90382,5,0,0:0:0:0:
21,24,91181,1,0,0:0:0:0:
21,24,92781,1,0,0:0:0:0:
90,129,92982,1,0,0:0:0:0:
448,78,93182,1,0,0:0:0:0:
181,288,93382,1,0,0:0:0:0:
19,363,93581,1,0,0:0:0:0:
430,241,93782,5,0,0:0:0:0:
352,52,93982,1,0,0:0:0:0:
70,260,94182,1,0,0:0:0:0:
467,363,94381,1,0,0:0:0:0:
243,28,94582,5,0,0:0:0:0:
186,281,94782,1,0,0:0:0:0:
417,177,94982,1,0,0:0:0:0:
492,20,95181,1,0,0:0:0:0:
74,94,95382,1,0,0:0:0:0:
256,192,95681,12,0,101931,0:0:0:0:
37,35,103981,5,0,0:0:0:0:
442,312,104093,1,0,0:0:0:0:
435,40,104193,1,0,0:0:0:0:
49,363,104293,1,0,0:0:0:0:
226,161,104393,1,0,0:0:0:0:
355,98,104793,2,0,L|52:88,1,280
96,145,104993,2,0,L|384:158,1,280
469,73,105593,2,0,L|346:209,1,175
281,154,105793,2,0,P|364:35|275:21,1,280
33,29,106393,1,0,0:0:0:0:
246,96,106593,1,0,0:0:0:0:
451,335,106693,1,0,0:0:0:0:
494,47,106793,1,0,0:0:0:0:
482,240,107193,2,0,P|339:53|223:269,1,560
414,152,107793,2,0,P|166:88|408:246,1,828.333333333333
42,196,108584,1,0,0:0:0:0:
15,68,108793,1,0,0:0:0:0:
466,143,108893,1,0,0:0:0:0:
293,384,108993,1,0,0:0:0:0:
347,65,109093,1,0,0:0:0:0:
149,256,109193,1,0,0:0:0:0:
9,62,109593,1,0,0:0:0:0:
11,173,109693,1,0,0:0:0:0:
11,284,109793,1,0,0:0:0:0:
11,173,109893,1,0,0:0:0:0:
117,137,109993,2,0,P|476:69|508:171,1,560
507,156,110393,2,0,P|263:262|113:57,1,560
34,34,111193,1,0,0:0:0:0:
364,192,111393,1,0,0:0:0:0:
360,97,111593,1,0,0:0:0:0:
139,15,111793,1,0,0:0:0:0:
331,271,111993,1,0,0:0:0:0:
255,37,112193,1,0,0:0:0:0:
173,374,112393,2,0,P|435:273|6:138,1,1120
47,57,113993,1,0,0:0:0:0:
270,66,114193,1,0,0:0:0:0:
493,62,114393,1,0,0:0:0:0:
289,155,114593,1,0,0:0:0:0:
66,125,114793,1,0,0:0:0:0:
288,99,114993,2,0,P|435:147|167:201,1,840
494,369,115793,1,0,0:0:0:0:
254,189,115993,1,0,0:0:0:0:
63,292,116209,1,0,0:0:0:0:
178,35,116293,1,0,0:0:0:0:
419,243,116409,1,0,0:0:0:0:
428,77,116493,1,0,0:0:0:0:
252,258,116601,1,0,0:0:0:0:
254,189,116793,1,0,0:0:0:0:
37,44,117193,1,0,0:0:0:0:
35,324,117593,1,0,0:0:0:0:
482,322,117993,1,0,0:0:0:0:
488,17,118393,1,0,0:0:0:0:
40,26,118793,1,0,0:0:0:0:
181,116,119201,2,0,B|58:116|58:116|59:220|59:220|192:218|192:218|63:220|63:220|62:322|62:322|213:331,1,735
266,87,120001,2,0,B|397:86|403:88|402:89|402:89|255:212|255:212|439:215,1,501.666666666667
30,70,120601,1,0,0:0:0:0:
447,306,120701,1,0,0:0:0:0:
441,66,120801,1,0,0:0:0:0:
41,309,120901,1,0,0:0:0:0:
155,55,120993,1,0,0:0:0:0:
367,309,121059,1,0,0:0:0:0:
340,50,121193,1,0,0:0:0:0:
129,268,121293,1,0,0:0:0:0:
258,32,121393,1,0,0:0:0:0:
251,260,121493,1,0,0:0:0:0:
72,79,121593,2,0,L|216:48,1,140
85,165,121909,2,0,L|198:118,1,116.666666666667
115,227,122101,2,0,L|239:158,1,140
251,45,122301,2,0,L|328:142,1,116.666666666667
111,140,122501,2,0,L|248:86,1,140
190,208,122701,2,0,L|304:143,1,128.333333333333
157,56,122901,2,0,L|235:178,1,140
265,57,123093,2,0,L|157:138,1,128.333333333333
101,72,123301,2,0,B|498:195|426:174|426:172|348:220,1,420
452,88,130093,5,0,0:0:0:0:
76,139,130551,2,0,B|68:319|68:353|68:353|201:332|87:263,1,373.333333333333
