osu file format v14

[General]
AudioFilename: audio.mp3
AudioLeadIn: 0
PreviewTime: 403800
Countdown: 0
SampleSet: Soft
StackLeniency: 0.7
Mode: 0
LetterboxInBreaks: 0
WidescreenStoryboard: 1

[Editor]
Bookmarks: 61015
DistanceSpacing: 2
BeatDivisor: 16
GridSize: 4
TimelineZoom: 1.5

[Metadata]
Title:Kagefumi-san wa Iu
TitleUnicode:かげふみさんは言う
Artist:Siinamota
ArtistUnicode:椎名もた
Creator:tjysunset
Version:Just saying farewell is not an answer
Source:
Tags:niconico powapowa-p ぽわぽわP powapoworks ぽわぽわーくす hatsune miku 初音ミク respirte
BeatmapID:1539608
BeatmapSetID:729365

[Difficulty]
HPDrainRate:8.6
CircleSize:4.5
OverallDifficulty:7
ApproachRate:8.9
SliderMultiplier:1.5
SliderTickRate:1

[Events]
//Background and Video events
0,0,"Mr._Shadow_Tag_Says(RGB)(noise_scale)(Level1)(width 1920).png",0,0
//Break Periods
2,115651,118079
2,259590,260375
2,265890,267975
2,345090,347575
2,352390,355575
2,402000,403400
//Storyboard Layer 0 (Background)
//Storyboard Layer 1 (Fail)
//Storyboard Layer 2 (Pass)
//Storyboard Layer 3 (Foreground)
//Storyboard Sound Samples

[TimingPoints]
200,800,4,2,1,20,1,0
1000,857.142857142857,4,2,1,20,1,0
1861,845.070422535211,4,2,1,20,1,0
2711,705.882352941176,4,2,1,20,1,0
3416,839.160839160839,4,2,1,20,1,0
4260,764.331210191083,4,2,1,20,1,0
5025,800,4,2,1,20,1,0
16227,800,4,2,1,20,1,0
17027,750,4,2,1,20,1,0
17778,800,4,2,1,20,1,0
19378,800,4,2,1,20,1,0
20178,930.232558139535,4,2,1,20,1,0
21106,839.160839160839,4,2,1,20,1,0
21950,645.161290322581,4,2,1,20,1,0
22598,769.230769230769,4,2,1,20,1,0
23367,769.230769230769,4,2,1,20,1,0
24131,833.333333333333,4,2,1,20,1,0
24973,983.606557377049,4,2,1,20,1,0
25957,800,4,2,1,20,1,0
26757,681.818181818182,4,2,1,20,1,0
27445,800,4,2,1,20,1,0
28245,740.740740740741,4,2,1,20,1,0
28988,800,4,2,1,20,1,0
29788,845.070422535211,4,2,1,20,1,0
30634,800,4,2,1,20,1,0
31434,821.917808219178,4,2,1,20,1,0
32262,800,4,2,1,20,1,0
33062,731.707317073171,4,2,1,20,1,0
33800,800,4,2,1,20,1,0
35400,779.220779220779,4,2,1,20,1,0
36186,800,4,2,1,20,1,0
36995,810.810810810811,4,2,1,20,1,0
39427,800,4,2,1,20,1,0
40226,769.230769230769,4,2,1,20,1,0
40995,833.333333333333,4,2,1,20,1,0
41832,800,4,2,1,20,1,0
45832,784.313725490196,4,2,1,20,1,0
46621,800,4,2,1,20,1,0
47421,810.810810810811,4,2,1,20,1,0
48232,800,4,2,1,20,1,0
50632,869.565217391304,4,2,1,20,1,0
51503,800,4,2,1,20,1,0
52303,681.818181818182,4,2,1,20,1,0
52989,800,4,2,1,20,1,0
53789,821.917808219178,4,2,1,20,1,0
54615,789.473684210526,4,2,1,20,1,0
55415,857.142857142857,4,2,1,20,1,0
56274,800,4,2,1,20,1,0
57074,759.493670886076,4,2,1,20,1,0
57837,800,4,2,1,20,1,0
60237,821.917808219178,4,2,1,20,1,0
61063,800,4,2,1,20,1,0
61863,779.220779220779,4,2,1,20,1,0
62644,800,4,2,1,20,1,0
63444,740.740740740741,4,2,1,20,1,0
64192,800,4,2,1,20,1,0
71392,810.810810810811,4,2,1,20,1,0
72210,800,4,2,1,20,1,0
73010,779.220779220779,4,2,1,20,1,0
73792,800,4,2,1,20,1,0
74592,821.917808219178,4,2,1,20,1,0
75413,800,4,2,1,20,1,0
77813,800,4,2,1,20,1,0
78636,821.917808219178,4,2,1,20,1,0
79436,800,4,2,1,20,1,0
80222,800,4,2,1,20,1,0
84222,759.493670886076,4,2,1,20,1,0
84988,800,4,2,1,20,1,0
87388,839.160839160839,4,2,1,20,1,0
88228,800,4,2,1,20,1,0
89028,769.230769230769,4,2,1,20,1,0
89798,800,4,2,1,20,1,0
92198,845.070422535211,4,2,1,20,1,0
93044,800,4,2,1,20,1,0
95444,740.740740740741,4,2,1,20,1,0
96188,800,4,2,1,20,1,0
104988,816.326530612245,4,2,1,20,1,0
105806,800,4,2,1,20,1,0
105806,-80,4,2,1,20,0,0
108206,779.220779220779,4,2,1,20,1,0
108990,800,4,2,1,20,1,0
111390,779.220779220779,4,2,1,20,1,0
112176,800,4,2,1,20,1,0
114576,869.565217391304,4,2,1,20,1,0
115451,810.810810810811,4,2,1,20,1,0
118694,774.193548387097,4,2,1,20,1,0
121790,800,4,2,1,20,1,0
124990,-66.6666666666667,4,3,1,60,0,1
163390,-100,4,2,1,20,0,0
227390,-66.6666666666667,4,3,1,60,0,1
227790,-50,4,3,1,60,0,1
228590,-66.6666666666667,4,3,1,60,0,1
230590,-50,4,3,1,60,0,1
232990,-133.333333333333,4,3,1,60,0,1
233390,-50,4,3,1,60,0,1
240190,-66.6666666666667,4,3,1,60,0,1
246590,-50,4,3,1,60,0,1
248990,-133.333333333333,4,3,1,60,0,1
252990,-100,4,2,1,20,0,0
320190,-80,4,2,1,20,0,0
356190,-133.333333333333,4,2,1,20,0,0
357000,800,4,3,1,60,1,1
357000,-66.6666666666667,4,3,1,60,0,1
395400,-66.6666666666667,4,3,1,60,0,0
401800,-100,4,2,1,20,0,0
405000,-200,4,2,1,20,0,0

[Colours]
Combo1 : 98,115,106
Combo2 : 53,159,106

[HitObjects]
94,226,41359,5,4,0:3:0:0:
145,286,41776,1,4,0:3:0:0:
258,81,42582,2,0,B|299:104|319:144,1,84.375,4|0,0:3|0:3,0:3:0:0:
204,188,43382,1,8,0:3:0:0:
104,280,45032,6,0,B|136:280|136:280|144:288|144:288|156:288|156:288|156:300|156:300|164:292|164:292|172:292|172:292|172:284|172:284|176:288|176:288|180:284|180:284|200:284|200:284|204:288|204:288|204:292|204:292|212:292|212:292|212:296|212:296|216:300|216:300|224:292|224:292|232:292|232:292|240:284|240:284|240:276|240:276|248:284|248:284|340:284,1,290.625,0|0,0:3|0:3,0:3:0:0:
370,274,47775,6,0,P|348:260|336:248,1,37.5,8|0,0:3|0:3,0:3:0:0:
406,190,48181,1,4,0:3:0:0:
287,172,48582,2,0,P|259:196|247:236,2,75,4|0|4,0:3|0:3|0:3,0:3:0:0:
248,96,49782,1,4,0:3:0:0:
368,90,50182,1,4,0:3:0:0:
175,99,50582,1,4,0:3:0:0:
287,172,51012,1,4,0:3:0:0:
296,293,51175,1,8,0:3:0:0:
472,328,51503,6,0,B|440:296|440:296|448:288|448:288|440:272|440:272|440:228|440:228|428:228|428:228|440:216|440:216|440:120,1,243.75,0|0,0:3|0:3,0:3:0:0:
428,228,52989,2,0,B|372:228|372:228|388:212|388:212|372:196|372:196|380:188|380:188|368:176|368:176|372:172|372:172|372:152,1,150,0|0,0:3|0:3,0:3:0:0:
272,82,54199,5,4,0:3:0:0:
207,125,54615,2,0,L|175:149,2,37.5,4|0|0,0:3|0:3|0:3,0:3:0:0:
107,231,55415,1,4,0:3:0:0:
100,128,55790,1,4,0:3:0:0:
219,284,56218,1,8,0:3:0:0:
336,256,57837,6,0,B|328:256|328:256|328:280|328:280|320:272|320:272|308:272|308:272|280:272|280:272|272:264|272:264|260:264|260:264|252:256|252:256|240:256|240:256|224:240,1,150,0|0,0:3|0:3,0:3:0:0:
60,176,59437,1,0,0:3:0:0:
88,176,59487,2,0,B|144:176|144:176|156:164|156:164|172:164|172:164|180:156|180:156|188:164|188:164|196:164|196:164|212:148,1,140.625,0|0,0:3|0:3,0:3:0:0:
110,346,60596,5,8,0:3:0:0:
86,274,60802,1,8,0:3:0:0:
164,288,61007,2,0,B|168:264|188:244|212:244|212:244|224:252|240:272|292:268,2,150,4|0|0,0:3|0:3|0:3,0:3:0:0:
271,182,62994,1,4,0:3:0:0:
196,128,63394,2,8,P|180:176|182:205,1,75,4|8,0:3|0:3,0:3:0:0:
320,120,63999,1,8,0:3:0:0:
352,196,64192,6,0,B|352:220|352:220|344:220|344:220|344:228|344:228|336:236|336:236|336:256|336:256|320:272|320:272|296:272|296:272|292:276|292:276|288:272|288:272|268:272,1,150,0|0,0:3|0:3,0:3:0:0:
262,174,65792,2,0,B|262:202|262:202|270:210|270:210|266:210|266:210|262:214|262:214|258:210|258:210|254:210|254:210|246:202|246:202|238:210|238:210|218:230|218:230|218:238|218:238|210:238|210:238|192:256,1,150,0|0,0:3|0:3,0:3:0:0:
216,325,66992,5,8,0:3:0:0:
52,240,67392,2,0,P|72:284|92:304,1,75,4|0,0:3|0:3,0:3:0:0:
92,192,68192,2,0,P|100:236|112:264,1,75,4|8,0:3|0:3,0:3:0:0:
156,152,68992,1,8,0:3:0:0:
324,80,70592,6,0,B|280:124|280:124|288:132|288:132|288:144|288:144|280:152|280:152|268:152|268:152|260:144|260:144|236:168,1,150,0|0,0:3|0:3,0:3:0:0:
140,344,72210,2,0,B|172:312|172:312|184:312|184:312|184:296|184:296|192:288|192:288|188:284|188:284|192:280|192:280|232:240,1,150,0|0,0:3|0:3,0:3:0:0:
333,235,73350,6,0,P|322:192|297:163,1,84.375,8|4,0:3|0:3,0:3:0:0:
142,235,74192,1,8,0:3:0:0:
71,268,74392,1,8,0:3:0:0:
296,162,75002,1,8,0:3:0:0:
309,81,75413,2,0,P|349:97|373:125,2,75,8|0|0,0:3|0:3|0:3,0:3:0:0:
437,67,76413,1,8,0:3:0:0:
454,147,76613,1,8,0:3:0:0:
320,88,77013,6,0,B|288:120|288:120|288:148|288:148|292:152|292:152|288:156|288:156|284:160|284:160|292:160|292:160|288:164|288:164|288:188|288:188|344:244|344:244|364:244|364:244|364:240|364:240|368:240|368:240|376:248|376:248|380:244|380:244|400:244|400:244|408:236|408:236|424:252|424:252|428:252|428:252|428:256|428:256|428:268|428:268|444:284|444:284|440:288|440:288|444:292|444:292|436:300|436:300|436:308|436:308|412:332|412:332|408:336|408:336|404:332|404:332|400:336|400:336|372:336,1,450,0|0,0:3|0:3,0:3:0:0:
378,152,79786,5,4,0:3:0:0:
378,152,80186,1,4,0:3:0:0:
272,240,80622,1,0,0:3:0:0:
287,148,81022,2,0,P|255:148|213:168,2,75,0|4|8,0:3|0:3|0:3,0:3:0:0:
424,212,83422,6,0,B|424:228|424:228|428:232|428:232|420:240|420:240|424:244|424:244|424:360,1,150,0|0,0:3|0:3,0:3:0:0:
236,212,84988,2,0,B|244:204|244:204|236:204|236:204|232:200|232:200|236:196|236:196|236:176|236:176|232:172|232:172|240:172|240:172|240:168|240:168|236:168|236:168|236:84,1,150,0|0,0:3|0:3,0:3:0:0:
296,232,86138,6,0,B|296:220|224:224|224:212,1,75,8|0,0:3|0:3,0:3:0:0:
312,124,86988,1,4,0:3:0:0:
312,124,87188,1,0,0:3:0:0:
348,256,87755,1,8,0:3:0:0:
220,208,88174,2,0,B|212:204|268:148|260:144,1,75,4|0,0:3|0:3,0:3:0:0:
271,258,88978,2,8,B|236:255|237:198|212:209,1,75,4|8,0:3|0:3,0:3:0:0:
390,86,89798,5,0,0:3:0:0:
472,143,91398,1,0,0:3:0:0:
80,176,93044,6,0,B|96:136|136:108|192:108|192:108|248:112|212:220|168:220|168:220|124:220|148:148|284:188|284:188|264:256|216:292|176:296,1,628.125,0|0,0:3|0:3,0:3:0:0:
167,291,99388,5,0,0:0:0:0:
171,315,100988,1,0,0:0:0:0:
171,355,102588,1,0,0:0:0:0:
296,336,105806,6,0,B|284:252|340:136|384:80|384:80|302:138|264:162|224:168|201:147|188:128|188:128|177:109|182:89|191:64|226:57|226:57|272:52|296:84|292:124|272:142|272:142|250:158|220:172|212:172,1,785.15625
208,173,112176,5,0,0:0:0:0:
192,148,113776,1,0,0:0:0:0:
172,80,115451,1,0,0:0:0:0:
256,192,118694,12,0,124090,0:0:0:0:
424,96,124990,6,0,L|369:71,1,56.2500021457673,4|0,0:0|0:0,0:0:0:0:
397,169,125390,2,0,P|425:173|457:169,1,56.2500021457673
316,145,125790,2,0,P|322:182|319:203,1,56.2500021457673,8|0,0:0|0:0,0:0:0:0:
168,148,126190,1,0,0:0:0:0:
242,174,126390,1,0,0:0:0:0:
292,284,126590,6,0,L|312:336,1,56.2500021457673,4|0,0:0|0:0,0:0:0:0:
388,291,126990,2,0,L|365:233,1,56.2500021457673
277,201,127390,2,0,L|214:210,1,56.2500021457673,8|0,0:0|0:0,0:0:0:0:
113,294,127790,2,0,L|176:285,1,56.2500021457673
52,56,128190,5,4,0:0:0:0:
216,104,128390,1,0,0:0:0:0:
55,113,128590,1,0,0:0:0:0:
224,120,128790,1,0,0:0:0:0:
59,189,128990,1,8,0:0:0:0:
232,136,129190,1,0,0:0:0:0:
84,264,129390,1,0,0:0:0:0:
240,144,129590,1,0,0:0:0:0:
326,68,129790,5,4,0:0:0:0:
240,144,129990,1,4,0:0:0:0:
205,176,130090,1,8,0:0:0:0:
171,202,130190,1,0,0:0:0:0:
396,160,130590,5,0,0:0:0:0:
307,245,130790,1,0,0:0:0:0:
298,129,130990,1,8,0:0:0:0:
92,48,131390,6,0,P|112:96|120:104,1,56.2500021457673,4|0,0:0|0:0,0:0:0:0:
191,63,131790,2,0,P|200:98|196:126,1,56.2500021457673
144,190,132190,2,0,P|144:222|156:254,1,56.2500021457673
99,114,132590,1,0,0:0:0:0:
225,206,132790,1,0,0:0:0:0:
96,336,132990,6,0,B|154:323,2,56.2500021457673,4|8|2,0:0|0:0|0:0,0:0:0:0:
329,180,133990,1,0,0:0:0:0:
358,290,134190,1,4,0:0:0:0:
378,111,134390,2,0,P|405:139|414:163,1,56.2500021457673,0|4,0:0|0:0,0:0:0:0:
287,96,134790,5,0,0:0:0:0:
200,84,134990,1,0,0:0:0:0:
271,202,135190,2,0,L|324:183,1,56.2500021457673,0|8,0:0|0:0,0:0:0:0:
116,72,135590,1,0,0:0:0:0:
198,231,135790,1,0,0:0:0:0:
242,318,136190,5,4,0:0:0:0:
108,335,136390,1,4,0:0:0:0:
108,296,136490,1,4,0:0:0:0:
108,256,136590,1,8,0:0:0:0:
353,317,136990,6,0,B|339:309|323:299|314:287|316:272|304:256|284:248|263:240,1,112.500004291535,8|0,0:0|0:0,0:0:0:0:
388,240,137590,1,0,0:0:0:0:
382,144,137790,5,4,0:0:0:0:
382,144,137990,2,0,L|322:176,1,56.2500021457673
268,76,138390,1,0,0:0:0:0:
268,76,138590,2,0,B|261:69|254:62|243:47|243:47|204:68,1,56.2500021457673,8|0,0:0|0:0,0:0:0:0:
268,76,138990,2,0,L|304:128,1,56.2500021457673
184,308,139390,5,4,0:0:0:0:
184,308,139590,2,0,L|216:260,1,56.2500021457673
280,340,139990,1,0,0:0:0:0:
280,340,140190,2,0,L|312:292,1,56.2500021457673,8|0,0:0|0:0,0:0:0:0:
215,261,140590,2,0,P|176:268|154:284,1,56.2500021457673
196,144,140990,6,0,L|161:87,1,56.2500021457673,4|0,0:0|0:0,0:0:0:0:
316,180,141390,2,0,L|373:147,1,56.2500021457673
132,206,141790,2,0,L|188:174,1,56.2500021457673,8|0,0:0|0:0,0:0:0:0:
427,164,142190,2,0,L|392:107,1,56.2500021457673
197,352,142590,6,0,P|220:336|237:305,3,56.2500021457673,4|0|0|0,0:0|0:0|0:0|0:0,0:0:0:0:
141,227,143390,2,0,P|145:251|165:280,1,56.2500021457673,4|8,0:0|0:0,0:0:0:0:
252,205,143790,1,4,0:0:0:0:
416,300,144190,6,0,B|376:268|376:268|376:236|376:236|368:267|344:296|313:305,1,168.750006437302,4|0,0:0|0:0,0:0:0:0:
112,172,144990,1,0,0:0:0:0:
184,260,145190,1,8,0:0:0:0:
132,152,145390,1,4,0:0:0:0:
172,300,145590,1,0,0:0:0:0:
352,52,145790,6,0,B|312:104|312:104|296:108|296:108|320:124|280:132|276:172|300:212|336:232,1,225.000008583069,4|8,0:0|0:0,0:0:0:0:
376,160,146790,1,0,0:0:0:0:
302,281,146990,1,0,0:0:0:0:
360,144,147190,1,0,0:0:0:0:
340,312,147390,5,4,0:0:0:0:
160,136,147790,2,0,P|188:120|240:48,1,112.500004291535
220,224,148390,1,0,0:0:0:0:
148,276,148590,1,8,0:0:0:0:
204,144,148790,1,0,0:0:0:0:
366,242,148990,1,0,0:0:0:0:
284,316,149190,2,0,L|280:256,1,56.2500021457673,4|4,0:0|0:0,0:0:0:0:
89,211,149790,5,8,0:0:0:0:
89,211,149990,1,0,0:0:0:0:
86,125,150190,1,4,0:0:0:0:
328,48,150590,5,2,0:0:0:0:
348,100,150790,1,0,0:0:0:0:
364,156,150990,1,0,0:0:0:0:
372,212,151190,1,0,0:0:0:0:
260,220,151390,5,8,0:0:0:0:
240,332,151590,1,0,0:0:0:0:
140,276,151790,1,4,0:0:0:0:
40,328,151990,1,0,0:0:0:0:
64,220,152190,5,6,0:0:0:0:
120,208,152390,1,0,0:0:0:0:
172,184,152590,1,4,0:0:0:0:
192,132,152790,1,0,0:0:0:0:
284,196,152990,5,2,0:0:0:0:
292,84,153190,1,0,0:0:0:0:
372,164,153390,1,0,0:0:0:0:
480,136,153590,1,0,0:0:0:0:
396,92,153790,5,6,0:0:0:0:
376,144,153990,1,0,0:0:0:0:
336,184,154190,1,4,0:0:0:0:
280,196,154390,1,0,0:0:0:0:
200,276,154590,5,2,0:0:0:0:
312,284,154790,1,0,0:0:0:0:
252,188,154990,1,4,0:0:0:0:
140,180,155190,1,0,0:0:0:0:
40,248,155390,5,2,0:0:0:0:
60,300,155590,1,0,0:0:0:0:
104,332,155790,1,4,0:0:0:0:
160,332,155990,1,0,0:0:0:0:
160,220,156190,5,2,0:0:0:0:
52,248,156390,1,8,0:0:0:0:
104,148,156590,1,4,0:0:0:0:
108,36,156790,1,0,0:0:0:0:
188,124,156990,5,2,0:0:0:0:
308,244,157190,1,0,0:0:0:0:
180,136,157390,1,0,0:0:0:0:
320,232,157590,1,0,0:0:0:0:
176,148,157790,1,10,0:0:0:0:
332,220,157990,1,0,0:0:0:0:
256,192,158190,1,4,0:0:0:0:
256,192,158390,1,0,0:0:0:0:
328,104,158590,2,0,L|368:156,1,56.2500021457673,6|0,0:0|0:0,0:0:0:0:
184,280,158990,2,0,L|144:228,1,56.2500021457673,4|0,0:0|0:0,0:0:0:0:
337,66,159390,2,0,L|377:118,1,56.2500021457673,10|0,0:0|0:0,0:0:0:0:
175,318,159790,2,0,L|135:266,1,56.2500021457673
68,160,160190,6,0,L|132:148,1,56.2500021457673,6|0,0:0|0:0,0:0:0:0:
160,240,160590,1,4,0:0:0:0:
200,152,160790,2,0,L|260:164,1,56.2500021457673,0|10,0:0|0:0,0:0:0:0:
300,240,161190,1,0,0:0:0:0:
340,164,161390,2,0,L|404:152,1,56.2500021457673,4|0,0:0|0:0,0:0:0:0:
448,252,161790,1,2,0:0:0:0:
464,176,161990,2,0,B|452:144,2,28.1250010728836,8|8|0,0:0|0:0|0:0,0:0:0:0:
356,104,162390,1,0,0:0:0:0:
384,208,162590,1,10,0:0:0:0:
376,92,162790,1,0,0:0:0:0:
360,312,162990,2,0,P|316:292|280:232,1,112.500004291535
276,256,163790,5,0,0:3:0:0:
288,280,164190,1,0,0:3:0:0:
284,304,164590,1,0,0:3:0:0:
312,340,164990,1,0,0:3:0:0:
308,264,165390,1,0,0:3:0:0:
320,232,165790,1,0,0:3:0:0:
328,216,166190,1,0,0:3:0:0:
424,204,166590,1,0,0:3:0:0:
360,128,166990,1,0,0:3:0:0:
328,216,167390,1,0,0:3:0:0:
424,204,167790,1,0,0:3:0:0:
164,88,168190,1,0,0:3:0:0:
140,160,168590,1,0,0:3:0:0:
88,216,168990,1,0,0:3:0:0:
164,88,169390,1,0,0:3:0:0:
236,316,169790,6,0,P|296:304|360:244,1,150,0|0,0:3|0:3,0:3:0:0:
316,100,171390,2,0,P|292:188|244:224,1,150,0|0,0:3|0:3,0:3:0:0:
112,244,172990,2,0,P|176:316|232:332,1,150,0|0,0:3|0:3,0:3:0:0:
228,240,174590,2,0,P|228:156|272:104,1,150,0|0,0:3|0:3,0:3:0:0:
416,136,175790,5,0,0:3:0:0:
372,152,176190,2,0,P|341:121|306:109,1,75,8|0,0:3|0:3,0:3:0:0:
224,112,176990,1,0,0:3:0:0:
384,184,177390,1,8,0:3:0:0:
299,192,177790,5,8,0:3:0:0:
344,224,178590,1,8,0:3:0:0:
328,264,178990,1,0,0:3:0:0:
252,344,179390,2,0,P|281:316|314:298,1,75,8|0,0:3|0:3,0:3:0:0:
268,176,180190,2,0,P|272:196|244:244,1,75,0|8,0:3|0:3,0:3:0:0:
295,302,180990,2,0,B|247:330|203:318|179:278|179:278|167:258|131:258|127:294|151:322,1,225,8|0,0:3|0:3,0:3:0:0:
376,272,182390,5,8,0:3:0:0:
352,344,182590,1,8,0:3:0:0:
449,257,182990,1,0,0:3:0:0:
418,183,183190,1,8,0:3:0:0:
202,215,183790,1,0,0:3:0:0:
128,192,184190,2,0,P|128:244|144:268,1,75,8|0,0:3|0:3,0:3:0:0:
80,259,184990,2,0,P|100:307|88:347,1,75,8|0,0:3|0:3,0:3:0:0:
168,304,185590,1,0,0:3:0:0:
237,355,185790,6,0,B|257:328|250:282,2,75,8|0|0,0:3|0:3|0:3,0:3:0:0:
368,296,186990,1,8,0:3:0:0:
352,212,187390,6,0,B|400:208|428:236,2,75,8|0|0,0:3|0:3|0:3,0:3:0:0:
352,212,188590,1,8,0:3:0:0:
125,73,188990,1,8,0:3:0:0:
125,73,189790,1,8,0:3:0:0:
144,300,190190,1,0,0:3:0:0:
129,127,190590,1,8,0:3:0:0:
368,340,190990,6,0,B|384:266,2,75,0|0|8,0:3|0:3|0:3,0:3:0:0:
368,340,192190,1,8,0:3:0:0:
325,206,192590,2,0,P|365:186|405:186,1,84.375,0|0,0:3|0:3,0:3:0:0:
299,286,193390,1,8,0:3:0:0:
419,107,193790,1,8,0:3:0:0:
241,228,194190,2,0,P|242:197|256:154,1,75,0|0,0:3|0:3,0:3:0:0:
337,207,194990,5,8,0:3:0:0:
382,218,195190,1,0,0:3:0:0:
208,116,195390,2,0,P|132:152|124:168,1,75,8|0,0:3|0:3,0:3:0:0:
204,199,195990,1,8,0:3:0:0:
216,40,196590,1,0,0:3:0:0:
324,96,196990,6,0,B|352:130|368:168|349:210|349:210|292:220|247:192,1,225,8|8,0:3|0:3,0:3:0:0:
160,128,198590,5,8,0:3:0:0:
124,272,198990,1,0,0:3:0:0:
116,303,199390,1,0,0:3:0:0:
142,200,199790,1,8,0:3:0:0:
248,316,200190,1,8,0:3:0:0:
170,233,200590,1,0,0:3:0:0:
277,347,200990,1,8,0:3:0:0:
396,304,201390,5,0,0:3:0:0:
396,304,201590,1,8,0:3:0:0:
396,304,201790,2,0,B|356:376|248:312|304:236|304:236|248:196|248:196|204:240|200:300|240:360|240:360|356:336,1,562.5,8|0,0:3|0:3,0:3:0:0:
348,276,204990,2,0,B|388:204|388:204|336:232|336:232|296:232|296:232|320:192,1,225,8|0,0:3|0:3,0:3:0:0:
352,112,206590,2,0,B|360:168|360:168|400:180|400:180|408:232,1,150,8|0,0:3|0:3,0:3:0:0:
220,245,207790,1,8,0:3:0:0:
175,255,207990,1,0,0:3:0:0:
132,264,208190,2,0,B|160:240|176:188|184:128|184:128|204:149|221:159|252:168,2,225,8|0|0,0:3|0:3|0:3,0:3:0:0:
288,196,210990,1,8,0:3:0:0:
152,328,211190,2,0,P|180:328|300:232,1,187.5,8|0,0:3|0:3,0:3:0:0:
264,52,212590,1,0,0:3:0:0:
264,52,212790,1,8,0:3:0:0:
264,52,212990,2,0,P|216:88|204:140,1,112.5,8|0,0:3|0:3,0:3:0:0:
280,136,213790,2,0,P|268:188|240:216,1,75,8|0,0:3|0:3,0:3:0:0:
255,204,214390,5,0,0:3:0:0:
188,116,214590,2,0,B|160:96|120:100|92:128|92:128|44:140,1,150,8|0,0:3|0:3,0:3:0:0:
148,182,215790,2,0,L|88:326,1,150,8|0,0:3|0:3,0:3:0:0:
226,169,216990,2,0,P|294:173|325:204,1,112.5,8|0,0:3|0:3,0:3:0:0:
256,240,217790,2,0,B|200:264|200:264|164:352,1,150,8|0,0:3|0:3,0:3:0:0:
312,304,218990,1,0,0:3:0:0:
176,312,219390,1,8,0:3:0:0:
348,272,219790,1,8,0:3:0:0:
128,196,220190,1,8,0:3:0:0:
376,104,220590,1,0,0:3:0:0:
351,85,220790,1,0,0:3:0:0:
400,121,220990,1,8,0:3:0:0:
400,121,222590,1,8,0:3:0:0:
400,121,224190,1,8,0:3:0:0:
256,194,225390,1,8,0:3:0:0:
232,140,225590,1,8,0:3:0:0:
242,205,225790,1,8,0:3:0:0:
304,156,225990,1,2,0:3:0:0:
232,108,226190,1,2,0:3:0:0:
324,132,226390,1,2,0:3:0:0:
356,92,226590,2,0,L|308:76,1,46.875,0|0,0:3|0:3,0:3:0:0:
240,52,226990,2,0,L|216:44,2,18.75,0|0|0,0:3|0:3|0:3,0:3:0:0:
66,320,227390,5,4,0:0:0:0:
160,316,227790,2,0,B|160:296|160:296|216:280|216:280|188:264|188:264|200:244|200:244|204:212,1,150,0|2,0:0|0:0,0:0:0:0:
108,223,228590,5,8,0:0:0:0:
108,223,228690,1,8,0:0:0:0:
108,223,228790,1,8,0:0:0:0:
108,223,228890,1,8,0:0:0:0:
144,108,228990,6,0,B|184:124|184:124|188:140,1,56.2500021457673,4|0,0:0|0:0,0:0:0:0:
40,92,229390,2,0,B|36:116|36:116|52:116|52:116|56:144,1,56.2500021457673
339,184,229790,5,2,0:0:0:0:
123,103,229990,1,2,0:0:0:0:
393,204,230190,1,2,0:0:0:0:
219,139,230390,1,2,0:0:0:0:
281,241,230590,6,0,B|333:233|333:233|353:193|353:193|361:201|361:201|365:193|365:193|369:193|369:193|381:205|381:205|405:201,1,150,4|0,0:0|0:0,0:0:0:0:
348,132,231190,1,0,0:0:0:0:
267,143,231390,1,8,0:0:0:0:
429,122,231590,1,0,0:0:0:0:
244,221,231790,5,4,0:0:0:0:
214,226,231890,1,4,0:0:0:0:
185,226,231990,1,4,0:0:0:0:
158,221,232090,1,4,0:0:0:0:
396,279,232190,2,0,B|392:259|392:259|360:227|360:227|372:215,2,75,4|0|0,0:0|0:0|0:0,0:0:0:0:
342,313,232790,5,0,0:0:0:0:
131,270,232990,2,0,B|187:282,1,56.2500021457673,8|0,0:0|0:0,0:0:0:0:
195,292,233490,1,2,0:0:0:0:
195,292,233590,1,2,0:0:0:0:
195,292,233690,1,2,0:0:0:0:
195,292,233790,6,0,B|288:298|288:298|344:278,1,150,4|0,0:0|0:0,0:0:0:0:
311,202,234390,1,0,0:0:0:0:
364,104,234590,2,0,B|384:52|384:52|444:108|444:108|360:136,1,225,8|0,0:0|0:0,0:0:0:0:
296,112,235390,5,4,0:0:0:0:
296,112,235590,1,4,0:0:0:0:
296,112,235790,1,4,0:0:0:0:
296,112,235990,1,4,0:0:0:0:
213,47,236190,5,2,0:0:0:0:
221,338,236390,5,2,0:0:0:0:
190,151,236590,5,2,0:0:0:0:
221,338,236790,5,2,0:0:0:0:
320,328,236990,6,0,L|344:249,1,75,4|0,0:0|0:0,0:0:0:0:
375,153,237390,2,0,L|439:197,1,75
489,297,237790,2,0,P|455:278|417:274,1,75,8|0,0:0|0:0,0:0:0:0:
340,239,238190,5,0,0:0:0:0:
222,254,238390,1,4,0:0:0:0:
270,190,238490,1,4,0:0:0:0:
316,124,238590,2,0,B|312:92|312:92|288:104|288:104|272:92|272:92|272:84,2,75,8|0|0,0:0|0:0|0:0,0:0:0:0:
248,221,239190,1,0,0:0:0:0:
178,134,239390,6,0,B|200:143,9,18.75,2|0|0|0|0|0|0|0|0|0,0:0|0:0|0:0|0:0|0:0|0:0|0:0|0:0|0:0|0:0,0:0:0:0:
77,199,240190,6,0,B|121:215|121:215|129:227|129:227|141:199|141:199|145:215|145:215|157:215|157:215|157:231|157:231|165:215|165:215|173:219|173:219|189:207|189:207|189:239|189:239|201:243,1,225.000008583069,4|2,0:0|0:0,0:0:0:0:
277,207,241190,5,0,0:0:0:0:
317,125,241390,1,0,0:0:0:0:
300,40,241590,1,0,0:0:0:0:
407,143,241790,6,8,L|470:167,1,56.2500021457673
163,178,242190,2,8,L|100:188,1,56.2500021457673
365,274,242590,2,0,L|425:246,1,56.2500021457673,8|0,0:0|2:0,0:0:0:0:
94,220,242990,6,0,L|58:205,3,28.1250010728836
141,238,243390,5,4,0:0:0:0:
48,176,243790,1,0,0:0:0:0:
48,176,243990,1,0,0:0:0:0:
52,260,244190,2,0,B|92:280|92:280|128:328|128:328|112:340,1,112.500004291535,8|0,0:0|0:0,0:0:0:0:
155,205,244790,1,0,0:0:0:0:
216,301,244990,5,4,0:0:0:0:
244,174,245190,1,0,0:0:0:0:
318,228,245390,1,0,0:0:0:0:
302,299,245590,1,0,0:0:0:0:
55,120,245790,5,8,0:0:0:0:
112,237,245990,2,8,L|60:277,1,56.2500021457673,0|0,0:0|0:0,0:0:0:0:
220,158,246390,2,0,L|272:118,1,56.2500021457673,8|4,0:0|0:0,0:0:0:0:
448,184,246990,6,0,B|436:172|436:172|424:184|424:184|432:192|432:192|424:196|424:196|444:204|444:204|436:204|436:204|432:208|432:208|424:208|424:208|432:216|432:216|420:232|420:232|384:232,1,150,0|8,0:0|0:0,0:0:0:0:
398,232,247790,5,2,0:0:0:0:
400,182,247890,1,2,0:0:0:0:
399,132,247990,1,2,0:0:0:0:
398,83,248090,1,2,0:0:0:0:
251,246,248190,5,4,0:0:0:0:
153,109,248390,1,0,0:0:0:0:
100,184,248590,1,0,0:0:0:0:
238,140,248790,1,0,0:0:0:0:
297,306,248990,2,0,L|352:282,1,56.2500021457673,8|0,0:0|0:0,0:0:0:0:
399,214,249790,6,0,P|425:239|435:265,1,63.2812524139882,4|0,0:0|0:0,0:0:0:0:
317,203,250390,1,0,0:0:0:0:
342,106,250590,2,0,P|346:123|368:140,1,42.1875016093255,8|0,0:0|0:0,0:0:0:0:
276,278,250990,6,4,L|259:284,8,14.0625005364418
131,272,252190,2,0,B|101:283|101:283|73:271,1,63.2812524139882,8|0,0:0|0:0,0:0:0:0:
195,329,252990,5,0,0:3:0:0:
230,71,256190,5,0,0:3:0:0:
230,71,258990,5,0,0:3:0:0:
230,71,259090,1,0,0:3:0:0:
230,71,259190,1,0,0:3:0:0:
230,71,259290,1,0,0:3:0:0:
230,71,259390,1,0,0:3:0:0:
256,192,260990,12,0,265690,0:3:0:0:
304,280,268590,5,0,0:3:0:0:
304,280,268990,2,0,L|272:256,1,37.5,8|0,0:3|0:3,0:3:0:0:
318,143,269790,1,0,0:3:0:0:
370,218,270190,1,0,0:3:0:0:
404,106,270590,2,0,P|409:135|419:145,1,37.5,8|0,0:3|0:3,0:3:0:0:
280,312,270990,5,0,0:3:0:0:
428,252,271390,1,0,0:3:0:0:
280,312,271790,1,0,0:3:0:0:
184,280,272190,2,0,L|148:268,1,37.5,8|0,0:3|0:3,0:3:0:0:
311,321,272590,1,0,0:3:0:0:
136,264,272990,1,0,0:3:0:0:
136,128,273390,1,0,0:3:0:0:
80,192,273790,2,0,L|120:212,1,37.5,8|0,0:3|0:3,0:3:0:0:
206,154,274190,1,0,0:3:0:0:
33,256,274590,1,0,0:3:0:0:
259,124,274990,6,0,L|267:160,2,37.5,0|0|8,0:3|0:3|0:3,0:3:0:0:
340,88,275790,1,0,0:3:0:0:
244,268,276190,1,0,0:3:0:0:
344,209,276590,1,0,0:3:0:0:
244,268,276990,2,0,L|226:304,1,37.5,8|0,0:3|0:3,0:3:0:0:
286,190,277390,1,0,0:3:0:0:
332,262,277790,1,0,0:3:0:0:
324,64,278190,1,0,0:3:0:0:
251,72,278390,1,0,0:3:0:0:
184,112,278590,6,0,L|160:148,1,37.5,8|0,0:3|0:3,0:3:0:0:
163,143,278990,1,0,0:3:0:0:
163,143,279190,1,0,0:3:0:0:
348,264,279390,2,0,P|330:224|300:200,1,75,0|0,0:3|0:3,0:3:0:0:
372,149,279990,1,0,0:3:0:0:
264,278,280190,2,0,L|239:310,1,37.5,8|0,0:3|0:3,0:3:0:0:
320,340,280590,1,0,0:3:0:0:
307,203,280790,1,0,0:3:0:0:
320,340,280990,1,0,0:3:0:0:
307,203,281390,5,0,0:3:0:0:
72,280,281790,1,8,0:3:0:0:
80,156,282190,1,0,0:3:0:0:
116,268,282590,1,0,0:3:0:0:
135,100,282990,1,0,0:3:0:0:
192,204,283390,2,0,L|195:180,1,18.75,8|0,0:3|0:3,0:3:0:0:
356,80,283790,5,0,0:3:0:0:
280,256,284190,1,0,0:3:0:0:
441,179,284590,1,0,0:3:0:0:
356,80,284990,2,0,L|342:64,1,18.75,8|0,0:3|0:3,0:3:0:0:
416,252,285390,1,0,0:3:0:0:
270,163,285790,1,0,0:3:0:0:
356,80,286190,1,0,0:3:0:0:
416,252,286590,2,0,L|440:254,1,18.75,8|0,0:3|0:3,0:3:0:0:
80,215,286990,1,0,0:3:0:0:
159,224,287390,1,0,0:3:0:0:
467,231,287790,6,0,B|442:254|442:254|400:260,1,75,0|8,0:3|0:3,0:3:0:0:
442,335,288590,1,0,0:3:0:0:
370,341,288990,1,0,0:3:0:0:
298,346,289390,1,0,0:3:0:0:
193,59,289790,2,0,B|157:71|157:71|192:96|192:96|208:130|208:130|205:165,1,150,8|0,0:3|0:3,0:3:0:0:
114,153,290990,1,0,0:3:0:0:
129,305,291190,1,0,0:3:0:0:
404,60,291390,6,0,L|373:128,1,75,8|0,0:3|0:3,0:3:0:0:
456,141,291990,1,0,0:3:0:0:
403,212,292190,2,0,L|477:231,1,75,0|0,0:3|0:3,0:3:0:0:
456,141,292790,1,0,0:3:0:0:
240,229,292990,2,0,L|198:163,1,75,8|0,0:3|0:3,0:3:0:0:
253,89,293590,1,0,0:3:0:0:
185,307,293790,2,0,L|143:242,1,75,0|0,0:3|0:3,0:3:0:0:
454,247,294590,5,8,0:3:0:0:
296,223,295390,2,0,L|372:205,1,75,0|0,0:3|0:3,0:3:0:0:
445,316,296190,1,8,0:3:0:0:
476,243,296590,5,0,0:3:0:0:
480,165,296990,1,0,0:3:0:0:
457,90,297390,1,0,0:3:0:0:
360,224,297790,2,0,P|347:242|342:259,1,37.5,8|0,0:3|0:3,0:3:0:0:
457,90,298190,1,0,0:3:0:0:
442,187,298590,1,0,0:3:0:0:
258,281,298990,1,0,0:3:0:0:
421,277,299390,2,0,P|428:294|431:313,2,37.5,8|0|0,0:3|0:3|0:3,0:3:0:0:
349,316,300190,1,0,0:3:0:0:
56,328,300590,6,0,L|72:288,2,37.5,0|0|8,0:3|0:3|0:3,0:3:0:0:
99,221,301390,1,0,0:3:0:0:
99,221,301590,1,0,0:3:0:0:
192,264,302190,1,0,0:3:0:0:
192,264,302590,2,0,B|256:260|244:240|244:240|224:224|304:200|240:152|244:136|244:136|252:120|280:116,1,215.625,8|0,0:3|0:3,0:3:0:0:
357,177,304190,6,0,P|357:197|353:217,2,37.5,8|0|0,0:3|0:3|0:3,0:3:0:0:
357,177,304990,2,0,P|345:173|321:153,2,37.5,0|0|0,0:3|0:3|0:3,0:3:0:0:
329,284,305790,2,0,P|321:304|305:320,2,37.5,8|0|0,0:3|0:3|0:3,0:3:0:0:
329,284,306590,2,0,P|312:269|292:261,2,37.5,0|0|0,0:3|0:3|0:3,0:3:0:0:
310,315,307390,5,8,0:3:0:0:
359,246,308190,1,0,0:3:0:0:
350,340,308590,1,0,0:3:0:0:
320,112,308990,1,8,0:3:0:0:
140,64,309390,6,0,P|159:101|164:136,3,75,0|0|0|8,0:3|0:3|0:3|0:3,0:3:0:0:
78,127,310990,1,0,0:3:0:0:
200,304,311390,1,0,0:3:0:0:
107,268,311790,1,0,0:3:0:0:
223,190,312190,1,8,0:3:0:0:
116,193,312590,1,0,0:3:0:0:
201,267,312990,1,0,0:3:0:0:
201,267,313390,5,0,0:3:0:0:
296,174,313590,1,0,0:3:0:0:
336,136,313790,2,0,P|344:184|361:210,1,75,8|0,0:3|0:3,0:3:0:0:
419,148,314390,1,0,0:3:0:0:
419,148,314990,1,0,0:3:0:0:
442,325,315390,2,0,B|428:269|428:269|398:290|398:290|359:298|359:298|322:290|322:290|334:348,1,225,8|0,0:3|0:3,0:3:0:0:
256,192,316990,12,0,319390,0:3:0:0:
256,192,319790,5,0,0:3:0:0:
400,152,320190,6,0,L|356:60,1,93.75,8|0,0:3|0:3,0:3:0:0:
372,200,320990,2,0,L|340:108,1,93.75,8|0,0:3|0:3,0:3:0:0:
328,253,321790,2,0,L|320:153,2,93.75,8|0|8,0:3|0:3|0:3,0:3:0:0:
72,224,323190,1,0,0:3:0:0:
68,152,323390,2,0,P|144:88|184:100,1,140.625,8|0,0:3|0:3,0:3:0:0:
144,168,324190,1,8,0:3:0:0:
180,80,324590,1,8,0:3:0:0:
190,50,324990,2,0,P|108:64|68:152,1,187.5,8|8,0:3|0:3,0:3:0:0:
372,55,326190,5,0,0:3:0:0:
350,86,326390,1,0,0:3:0:0:
341,114,326590,1,8,0:3:0:0:
344,144,326790,1,0,0:3:0:0:
344,144,326990,2,0,L|356:192,1,46.875,0|0,0:3|0:3,0:3:0:0:
436,216,327390,1,8,0:3:0:0:
352,200,327590,2,0,L|312:164,2,46.875,0|0|0,0:3|0:3|0:3,0:3:0:0:
402,293,328190,1,8,0:3:0:0:
436,216,328390,1,0,0:3:0:0:
402,293,328590,1,0,0:3:0:0:
316,312,328990,2,0,P|400:296|416:276,1,93.75,8|0,0:3|0:3,0:3:0:0:
450,109,329590,2,0,P|464:180|440:248,1,140.625,0|0,0:3|0:3,0:3:0:0:
424,272,330390,1,0,0:3:0:0:
312,292,330590,1,8,0:3:0:0:
312,292,330790,1,0,0:3:0:0:
352,184,330990,1,0,0:3:0:0:
352,184,331190,1,0,0:3:0:0:
300,332,331390,1,8,0:3:0:0:
300,332,331590,1,0,0:3:0:0:
443,243,331790,1,0,0:3:0:0:
443,243,331990,1,0,0:3:0:0:
352,184,332190,1,8,0:3:0:0:
388,92,332590,6,0,B|348:96|328:84|328:84|384:200,1,187.5,0|0,0:3|0:3,0:3:0:0:
272,136,333790,1,8,0:3:0:0:
305,207,334190,1,0,0:3:0:0:
239,61,334590,1,8,0:3:0:0:
212,243,334990,1,0,0:3:0:0:
360,336,335390,2,0,B|412:336|433:306|444:276|444:276|476:290,1,140.625,8|0,0:3|0:3,0:3:0:0:
366,251,336190,2,0,L|402:155,1,93.75,0|0,0:3|0:3,0:3:0:0:
459,233,336990,1,8,0:3:0:0:
304,276,337390,1,0,0:3:0:0:
304,276,337790,1,8,0:3:0:0:
444,170,338190,1,0,0:3:0:0:
444,170,338590,1,8,0:3:0:0:
166,169,338990,6,0,L|214:169,2,46.875,0|0|8,0:3|0:3|0:3,0:3:0:0:
166,169,340990,1,8,0:3:0:0:
256,192,342990,12,0,344890,0:3:0:0:
256,192,348190,12,0,352190,0:3:0:0:
66,321,356190,6,0,P|58:291|58:263,1,56.2500021457673,0|0,0:3|0:3,0:3:0:0:
64,44,357000,2,0,L|101:116,1,70.3125026822091,4|0,0:0|0:0,0:0:0:0:
144,276,357400,2,0,L|160:260,7,14.0625005364418
228,288,357800,2,0,P|251:275|276:252,2,56.2500021457673,8|0|0,0:0|0:0|0:0,0:0:0:0:
314,297,358400,1,0,0:0:0:0:
241,163,358600,2,0,P|215:186|201:211,2,56.2500021457673,4|0|0,0:0|0:0|0:0,0:0:0:0:
187,47,359200,1,0,0:0:0:0:
88,224,359400,1,8,0:0:0:0:
187,47,359600,1,0,0:0:0:0:
88,224,359800,1,0,0:0:0:0:
241,163,360000,1,0,0:0:0:0:
404,36,360200,6,0,P|425:67|440:80,1,56.2500021457673,4|0,0:0|0:0,0:0:0:0:
363,198,360600,1,0,0:0:0:0:
352,112,360800,2,0,P|372:156|368:172,1,56.2500021457673,0|8,0:0|0:0,0:0:0:0:
473,99,361200,1,0,0:0:0:0:
264,142,361400,2,0,P|234:153|208:178,1,56.2500021457673
217,331,361800,1,4,0:0:0:0:
144,288,362000,1,0,0:0:0:0:
216,248,362200,1,0,0:0:0:0:
432,168,362400,1,0,0:0:0:0:
372,84,362600,6,0,L|391:109,2,28.1250010728836,8|0|0,0:0|0:0|0:0,0:0:0:0:
346,256,363000,1,0,0:0:0:0:
335,324,363200,1,0,0:0:0:0:
248,304,363400,2,0,B|212:292|212:292|220:248|260:241,2,112.500004291535,4|0|8,0:0|0:0|0:0,0:0:0:0:
92,224,364400,1,0,0:0:0:0:
240,200,364600,1,0,0:0:0:0:
128,316,364800,1,0,0:0:0:0:
160,160,365000,2,0,L|224:143,1,56.2500021457673,4|0,0:0|0:0,0:0:0:0:
234,288,365400,2,0,L|298:271,1,56.2500021457673
140,258,365800,2,0,L|76:275,1,56.2500021457673,8|0,0:0|0:0,0:0:0:0:
322,212,366200,1,0,0:0:0:0:
332,243,366400,1,0,0:0:0:0:
313,183,366500,1,0,0:0:0:0:
305,153,366600,6,0,P|316:92|368:66,1,112.500004291535,4|0,0:0|0:0,0:0:0:0:
92,68,367400,2,0,B|88:128|88:128|144:152,1,112.500004291535,8|0,0:0|0:0,0:0:0:0:
49,114,368000,1,0,0:0:0:0:
222,239,368200,2,0,L|225:180,2,56.2500021457673,8|8|4,0:0|0:0|0:0,0:0:0:0:
140,237,369000,1,8,0:0:0:0:
140,237,369200,2,0,P|168:301|212:319,1,112.500004291535,4|0,0:0|0:0,0:0:0:0:
427,283,369800,5,6,0:0:0:0:
364,293,370000,1,0,0:0:0:0:
394,286,370200,2,0,B|394:262|394:262|386:258|398:254|398:254|406:246|398:242|398:242|398:238,1,56.2500021457673
264,136,370600,2,0,P|236:172|284:204,2,112.500004291535,8|0|4,0:0|0:0|0:0,0:0:0:0:
354,103,371600,1,0,0:0:0:0:
324,113,371700,1,0,0:0:0:0:
294,124,371800,2,0,P|262:80|210:96,1,112.500004291535,0|8,0:0|0:0,0:0:0:0:
126,168,372400,1,0,0:0:0:0:
297,214,372600,1,0,0:0:0:0:
294,124,372800,1,0,0:0:0:0:
140,100,373000,6,0,L|152:36,1,56.2500021457673,4|0,0:0|0:0,0:0:0:0:
296,117,373400,2,0,L|240:137,1,56.2500021457673
148,260,373800,2,0,L|160:196,1,56.2500021457673,8|0,0:0|0:0,0:0:0:0:
363,178,374200,2,0,L|417:156,1,56.2500021457673
276,207,374600,1,4,0:0:0:0:
139,315,374800,1,4,0:0:0:0:
173,332,374900,1,4,0:0:0:0:
212,352,375000,2,0,B|279:325|276:297|276:297|240:295|188:264|192:208,1,225.000008583069,4|8,0:0|0:0,0:0:0:0:
273,210,376000,1,8,0:0:0:0:
209,114,376200,5,4,0:0:0:0:
353,186,376400,1,0,0:0:0:0:
353,186,376600,1,0,0:0:0:0:
281,98,376800,1,0,0:0:0:0:
273,210,377000,1,8,0:0:0:0:
273,210,377200,1,0,0:0:0:0:
209,118,377400,1,0,0:0:0:0:
193,230,377600,1,0,0:0:0:0:
193,230,377800,1,4,0:0:0:0:
135,135,378000,1,0,0:0:0:0:
113,246,378200,1,0,0:0:0:0:
113,246,378400,1,0,0:0:0:0:
353,186,378600,2,0,L|294:175,2,56.2500021457673,8|0|0,0:0|0:0|0:0,0:0:0:0:
410,83,379400,5,4,0:0:0:0:
433,354,379600,1,0,0:0:0:0:
428,295,379700,1,0,0:0:0:0:
423,238,379800,1,0,0:0:0:0:
414,144,380000,1,0,0:0:0:0:
344,272,380200,2,0,B|304:241|304:241|296:176|296:176|252:168|216:196|216:236,1,225.000008583069,8|2,0:0|0:0,0:0:0:0:
132,232,381200,1,4,0:0:0:0:
251,308,381400,1,0,0:0:0:0:
80,128,381800,1,4,0:0:0:0:
258,64,382000,1,0,0:0:0:0:
179,92,382200,1,0,0:0:0:0:
236,36,382600,6,0,L|288:88,1,56.2500021457673,4|0,0:0|0:0,0:0:0:0:
356,108,383000,2,0,L|328:168,1,56.2500021457673,8|0,0:0|0:0,0:0:0:0:
103,211,383400,2,0,L|31:195,1,56.2500021457673
174,259,383800,2,0,L|182:323,1,56.2500021457673,4|0,0:0|0:0,0:0:0:0:
351,201,384200,2,0,L|427:217,1,56.2500021457673,4|0,0:0|0:0,0:0:0:0:
453,303,384600,2,0,L|386:288,1,56.2500021457673
149,43,385000,2,0,L|85:47,1,56.2500021457673
232,38,385400,2,0,L|300:34,1,56.2500021457673,4|0,0:0|0:0,0:0:0:0:
236,170,385800,5,4,0:0:0:0:
201,277,386000,1,0,0:0:0:0:
303,231,386200,1,8,0:0:0:0:
335,123,386400,1,0,0:0:0:0:
92,80,386600,1,0,0:0:0:0:
158,170,386800,1,0,0:0:0:0:
58,221,387000,1,4,0:0:0:0:
131,306,387200,1,0,0:0:0:0:
178,74,387400,1,0,0:0:0:0:
236,170,387600,1,0,0:0:0:0:
295,74,387800,1,4,0:0:0:0:
179,263,388000,1,0,0:0:0:0:
325,139,388200,1,0,0:0:0:0:
372,242,388400,1,4,0:0:0:0:
281,308,388600,1,0,0:0:0:0:
325,139,388800,1,0,0:0:0:0:
420,120,389000,6,0,P|424:152|436:176,3,56.2500021457673,4|0|0|0,0:0|0:0|0:0|0:0,0:0:0:0:
256,80,389800,1,8,0:0:0:0:
206,169,390000,2,0,P|179:146|162:121,1,56.2500021457673
256,80,390400,1,4,0:0:0:0:
408,168,390600,2,0,P|428:196|460:212,3,56.2500021457673,0|0|4|0,0:0|0:0|0:0|0:0,0:0:0:0:
256,80,391400,1,0,0:0:0:0:
292,179,391600,2,0,P|266:184|224:179,1,56.2500021457673,0|4,0:0|0:0,0:0:0:0:
256,80,392000,1,4,0:0:0:0:
232,268,392200,5,4,0:0:0:0:
129,127,392400,1,0,0:0:0:0:
189,284,392600,1,0,0:0:0:0:
171,111,392800,1,0,0:0:0:0:
145,277,393000,1,8,0:0:0:0:
216,118,393200,1,0,0:0:0:0:
110,248,393400,1,0,0:0:0:0:
251,146,393600,1,0,0:0:0:0:
94,206,393800,1,0,0:0:0:0:
267,188,394000,1,4,0:0:0:0:
101,162,394200,1,8,0:0:0:0:
260,233,394400,1,0,0:0:0:0:
180,188,394600,1,8,0:0:0:0:
210,281,394800,1,0,0:0:0:0:
240,314,394900,1,0,0:0:0:0:
285,330,395000,1,0,0:0:0:0:
256,192,395400,12,0,401800,0:0:0:0:
172,340,405000,6,0,P|148:324|128:276,1,75
152,192,406600,2,0,B|180:204|192:232|192:232|208:232,1,75
288,284,408200,2,0,P|332:252|352:244,1,75
300,172,409800,2,0,B|292:188|272:204,2,37.5
200,192,411400,2,0,L|124:192,1,75
125,192,413000,2,0,L|125:268,1,75
125,267,414600,1,0,0:0:0:0:
124,288,416200,1,0,0:0:0:0:
124,104,417800,1,0,0:0:0:0:
