osu file format v14

[General]
AudioFilename: audio.mp3
AudioLeadIn: 0
PreviewTime: 61459
Countdown: 1
SampleSet: None
StackLeniency: 0.7
Mode: 0
LetterboxInBreaks: 0
WidescreenStoryboard: 1

[Editor]
Bookmarks: 14398,27223,41879,56536,62032,76689,91345,96841,137249,144577,162897
DistanceSpacing: 1
BeatDivisor: 4
GridSize: 4
TimelineZoom: 1

[Metadata]
Title:Shiti Raitsu
TitleUnicode:シティライツ
Artist:Siina Mota feat. Kagamine Rin
ArtistUnicode:椎名もた feat. 鏡音リン
Creator:Veridian
Version:Penumi's Hard
Source:
Tags:City Lights PowaPowaP Kagamine Rin Renumi
BeatmapID:1551226
BeatmapSetID:734765

[Difficulty]
HPDrainRate:6
CircleSize:4
OverallDifficulty:6
ApproachRate:6
SliderMultiplier:1.5
SliderTickRate:1

[Events]
//Background and Video events
0,0,"dssdsddssdsd.JPG",0,0
Video,0,"Kagamine Rin - City Lights (Sub Eng + Ita).avi"
//Break Periods
2,118109,134367
//Storyboard Layer 0 (Background)
//Storyboard Layer 1 (Fail)
//Storyboard Layer 2 (Pass)
//Storyboard Layer 3 (Foreground)
//Storyboard Sound Samples

[TimingPoints]
1574,458.015267175573,4,1,0,70,1,0
14398,-100,4,1,1,70,0,0
27222,-111.111111111111,4,2,1,70,0,0
56535,-125,4,2,1,70,0,0
62032,-90.9090909090909,4,1,1,85,0,1
68902,-90.9090909090909,4,1,1,85,0,0
69360,-90.9090909090909,4,1,1,85,0,1
76459,-90.9090909090909,4,2,1,70,0,1
76689,-111.111111111111,4,2,1,70,0,0
91344,-125,4,2,1,70,0,0
96841,-90.9090909090909,4,1,1,85,0,1
103711,-90.9090909090909,4,1,1,85,0,0
104169,-90.9090909090909,4,1,1,85,0,1
116994,-100,4,2,2,100,0,0
117108,-100,4,2,2,5,0,0
135417,458.015267175573,4,1,0,70,1,0
137249,-83.3333333333333,4,1,1,100,0,1
144119,-83.3333333333333,4,1,1,100,0,0
144577,-83.3333333333333,4,1,1,100,0,1
150073,-100,4,1,1,50,0,0
162897,-100,4,2,1,70,0,0
163241,-100,4,2,1,5,0,0
163355,-100,4,2,1,70,0,0
163699,-100,4,2,1,5,0,0
163813,-100,4,2,1,70,0,0

[Colours]
Combo1 : 55,55,255
Combo2 : 107,238,100
Combo3 : 255,88,64
Combo4 : 255,255,94
Combo5 : 128,255,255
Combo6 : 255,128,255

[HitObjects]
61,192,14398,6,0,L|157:184,1,75,4|10,0:3|0:0,0:0:0:0:
193,236,14856,2,0,L|297:228,1,75,4|10,0:0|0:0,0:0:0:0:
341,220,15314,1,4,0:0:0:0:
405,260,15543,1,10,0:0:0:0:
461,208,15772,1,4,0:0:0:0:
425,140,16001,1,10,0:0:0:0:
349,148,16230,6,0,L|313:60,1,75,4|10,0:0|0:0,0:0:0:0:
241,80,16688,2,0,L|209:148,1,75,4|10,0:0|0:0,0:0:0:0:
169,212,17146,1,4,0:0:0:0:
97,232,17375,1,10,0:0:0:0:
97,308,17604,1,4,0:0:0:0:
169,332,17833,1,10,0:0:0:0:
221,276,18062,6,0,P|289:252|377:296,1,150,4|4,0:0|0:0,0:0:0:0:
412,332,18749,1,10,0:0:0:0:
465,280,18978,2,0,P|473:244|453:184,1,75,4|10,0:0|0:0,0:0:0:0:
409,160,19436,2,0,P|401:124|421:64,1,75,4|10,0:0|0:0,0:0:0:0:
473,52,19894,6,0,L|305:40,1,150,4|4,0:0|0:0,0:0:0:0:
261,0,20581,1,10,0:0:0:0:
197,40,20810,2,0,L|217:136,1,75,4|10,0:0|0:0,0:0:0:0:
165,172,21268,2,0,L|185:268,1,75,4|10,0:0|0:0,0:0:0:0:
141,312,21726,5,4,0:3:0:0:
193,368,21955,1,10,0:0:0:0:
261,336,22184,1,4,0:0:0:0:
257,260,22413,1,10,0:0:0:0:
180,245,22642,2,0,B|140:229|140:229|88:229,1,75,4|10,0:0|0:0,0:0:0:0:
109,156,23100,2,0,B|140:156|140:156|180:140,1,75,4|10,0:0|0:0,0:0:0:0:
253,116,23558,5,4,0:0:0:0:
309,68,23787,1,10,0:0:0:0:
373,104,24016,1,4,0:0:0:0:
361,180,24245,1,10,0:0:0:0:
285,188,24474,2,0,P|276:228|291:275,1,75,4|10,0:0|0:0,0:0:0:0:
349,296,24932,2,0,P|358:336|343:383,1,75,4|10,0:0|0:0,0:0:0:0:
281,336,25390,6,0,B|209:368|209:312|133:344,1,150,4|4,0:0|0:0,0:0:0:0:
65,368,26077,1,10,0:0:0:0:
37,300,26306,2,0,L|61:216,1,75,4|10,0:0|0:0,0:0:0:0:
133,224,26764,2,0,L|152:151,1,75,4|10,0:0|0:0,0:0:0:0:
108,89,27222,6,0,P|171:76|224:124,1,134.999995880127,4|2,0:0|0:0,0:0:0:0:
283,159,27909,1,8,0:0:0:0:
346,120,28138,2,0,L|344:37,2,67.4999979400635,2|8|0,0:0|0:0|0:0,0:0:0:0:
397,173,28825,1,10,0:0:0:0:
345,225,29054,6,0,B|303:224|303:224|299:220|299:220|211:218,1,134.999995880127,6|2,0:0|0:0,0:0:0:0:
161,163,29741,1,8,0:0:0:0:
108,215,29970,2,0,L|104:282,1,67.4999979400635,2|8,0:0|0:0,0:0:0:0:
148,341,30428,6,0,L|215:344,1,67.4999979400635,4|10,0:0|0:0,0:0:0:0:
274,299,30886,2,0,L|341:302,1,67.4999979400635,6|8,0:0|0:0,0:0:0:0:
393,355,31344,1,0,0:0:0:0:
453,311,31574,2,0,B|426:240|487:253|452:173,1,134.999995880127,10|10,0:0|0:0,0:0:0:0:
455,32,32490,1,8,0:0:0:0:
398,80,32719,6,0,L|330:76,1,67.4999979400635,6|8,0:0|0:0,0:0:0:0:
269,118,33177,1,0,0:0:0:0:
229,54,33406,2,0,P|197:95|234:184,1,134.999995880127,10|10,0:0|0:0,0:0:0:0:
270,220,34093,2,0,L|266:288,1,67.4999979400635,4|8,0:0|0:0,0:0:0:0:
196,244,34551,6,0,B|154:243|154:243|150:239|150:239|62:237,1,134.999995880127,6|0,0:0|0:0,0:0:0:0:
0,277,35238,1,8,0:0:0:0:
57,324,35467,2,0,L|125:328,2,67.4999979400635,2|8|0,0:0|0:0|0:0,0:0:0:0:
0,277,36154,1,10,0:0:0:0:
62,237,36383,6,0,B|63:195|63:195|67:191|67:191|69:103,1,134.999995880127,6|2,0:0|0:0,0:0:0:0:
119,48,37070,1,8,0:0:0:0:
162,108,37299,2,0,L|230:112,1,67.4999979400635,2|8,0:0|0:0,0:0:0:0:
302,85,37757,6,0,L|298:153,1,67.4999979400635,4|8,0:0|0:0,0:0:0:0:
354,200,38215,2,0,L|350:268,1,67.4999979400635,6|8,0:0|0:0,0:0:0:0:
402,319,38673,1,0,0:0:0:0:
337,356,38902,2,0,P|271:375|207:334,1,134.999995880127,10|10,0:0|0:0,0:0:0:0:
121,229,39818,1,8,0:0:0:0:
48,258,40047,6,0,L|52:190,1,67.4999979400635,6|8,0:0|0:0,0:0:0:0:
1,136,40505,1,0,0:0:0:0:
62,93,40734,2,0,B|104:94|104:94|108:98|108:98|196:100,1,134.999995880127,10|10,0:0|0:0,0:0:0:0:
269,74,41421,2,0,L|265:142,1,67.4999979400635,4|8,0:0|0:0,0:0:0:0:
232,208,41879,6,0,P|269:216|317:195,1,67.4999979400635,4|8,0:0|0:0,0:0:0:0:
340,148,42337,1,2,0:0:0:0:
392,216,42566,1,8,0:0:0:0:
392,216,42680,1,0,0:0:0:0:
392,216,42795,2,0,L|360:328,2,101.249996910095,2|2|10,0:0|0:0|0:0,0:0:0:0:
464,196,43711,6,0,L|488:104,1,67.4999979400635,6|8,0:0|0:0,0:0:0:0:
432,76,44169,1,2,0:0:0:0:
380,128,44398,1,8,0:0:0:0:
328,76,44627,2,0,P|284:88|216:68,2,101.249996910095,2|2|10,0:0|0:0|0:0,0:0:0:0:
396,44,45543,6,0,L|480:64,1,67.4999979400635,6|8,0:0|0:0,0:0:0:0:
512,116,46001,1,0,0:0:0:0:
456,164,46230,2,0,L|312:188,1,134.999995880127,10|10,0:0|0:0,0:0:0:0:
200,272,47146,1,8,0:0:0:0:
144,224,47375,6,0,P|140:184|152:144,1,67.4999979400635,6|8,0:0|0:0,0:0:0:0:
204,112,47833,1,0,0:0:0:0:
264,160,48062,2,0,L|397:137,1,134.999995880127,10|10,0:0|0:0,0:0:0:0:
484,256,48978,1,8,0:0:0:0:
452,324,49207,6,0,P|424:304|408:252,1,67.4999979400635,6|8,0:0|0:0,0:0:0:0:
336,276,49665,2,0,P|320:305|293:325,1,67.4999979400635,0|8,0:0|0:0,0:0:0:0:
264,256,50123,2,0,B|248:204|284:204|256:132,2,101.249996910095,2|2|10,0:0|0:0|0:0,0:0:0:0:
220,316,51039,5,6,0:0:0:0:
172,260,51268,2,0,L|96:248,1,67.4999979400635,8|2,0:0|0:0,0:0:0:0:
56,192,51726,1,8,0:0:0:0:
104,136,51955,2,0,L|224:124,2,101.249996910095,2|2|8,0:0|0:0|0:0,0:0:0:0:
56,80,52871,6,0,B|52:44|52:44|64:-8,2,67.4999979400635,6|8|0,0:0|0:0|0:0,0:0:0:0:
104,136,53558,2,0,B|116:204|116:204|96:276,1,134.999995880127,10|10,0:0|0:0,0:0:0:0:
208,364,54474,1,8,0:0:0:0:
256,308,54703,2,0,L|348:300,1,67.4999979400635,6|8,0:0|0:0,0:0:0:0:
372,244,55161,1,0,0:0:0:0:
324,188,55390,2,0,L|176:200,1,134.999995880127,10|10,0:0|0:0,0:0:0:0:
132,248,56077,1,4,0:0:0:0:
27,168,56535,6,0,B|23:108|23:108|20:106|20:106|17:38,1,120,6|0,0:0|0:0,0:0:0:0:
70,1,57222,1,8,0:0:0:0:
129,42,57451,2,0,B|218:35|218:35|202:81,1,120,6|2,0:0|0:0,0:0:0:0:
169,124,58138,1,8,0:0:0:0:
137,188,58367,6,0,B|126:217|126:217|215:210,1,120,6|0,0:0|0:0,0:0:0:0:
271,255,59054,1,8,0:0:0:0:
320,202,59283,2,0,L|314:126,1,60,6|8,0:0|0:0,0:0:0:0:
282,78,59741,2,0,L|341:73,1,60,2|8,0:0|0:0,0:0:0:0:
394,23,60199,6,0,B|396:80|396:80|399:81|399:81|403:141,1,120,6|2,0:0|0:0,0:0:0:0:
459,185,60886,1,8,0:0:0:0:
410,237,61115,6,0,L|320:242,1,90,6|0,0:0|0:0,0:0:0:0:
296,270,61574,2,0,L|206:275,1,90,2|0,0:0|0:0,0:0:0:0:
176,304,62032,6,0,P|138:314|74:290,1,82.5000025177003,4|8,0:3|0:0,0:0:0:0:
48,240,62490,2,0,L|60:136,1,82.5000025177003,6|8,0:0|0:0,0:0:0:0:
72,76,62948,1,6,0:0:0:0:
136,24,63177,1,8,0:0:0:0:
220,24,63406,1,4,0:0:0:0:
284,72,63635,1,8,0:0:0:0:
292,156,63864,6,0,L|304:244,1,82.5000025177003,6|8,0:0|0:0,0:0:0:0:
376,272,64322,2,0,P|420:264|472:280,1,82.5000025177003,6|8,0:0|0:0,0:0:0:0:
416,344,64780,2,0,P|372:352|320:336,1,82.5000025177003,6|8,0:0|0:0,0:0:0:0:
272,292,65238,1,4,0:0:0:0:
272,292,65467,1,8,0:0:0:0:
204,340,65696,6,0,L|104:352,1,82.5000025177003,6|8,0:0|0:0,0:0:0:0:
84,276,66154,2,0,L|176:264,1,82.5000025177003,6|8,0:0|0:0,0:0:0:0:
248,252,66612,1,6,0:0:0:0:
312,200,66841,1,8,0:0:0:0:
312,116,67070,1,4,0:0:0:0:
248,64,67299,1,8,0:0:0:0:
168,44,67528,6,0,L|76:32,1,82.5000025177003,6|8,0:0|0:0,0:0:0:0:
24,84,67986,2,0,P|14:130|28:172,1,82.5000025177003,6|8,0:0|0:0,0:0:0:0:
72,232,68444,2,0,P|82:278|68:320,1,82.5000025177003,6|8,0:0|0:0,0:0:0:0:
140,360,68902,1,6,0:0:0:0:
140,360,69131,1,12,0:0:0:0:
208,312,69360,6,0,P|198:272|208:232,1,82.5000025177003,4|8,0:3|0:0,0:0:0:0:
284,196,69818,2,0,L|384:188,1,82.5000025177003,6|8,0:0|0:0,0:0:0:0:
432,240,70276,1,6,0:0:0:0:
496,188,70505,1,8,0:0:0:0:
496,104,70734,1,4,0:0:0:0:
428,56,70963,1,8,0:0:0:0:
364,104,71192,6,0,L|272:88,1,82.5000025177003,6|8,0:0|0:0,0:0:0:0:
212,48,71650,2,0,P|204:91|216:140,1,82.5000025177003,6|8,0:0|0:0,0:0:0:0:
280,176,72108,2,0,P|288:219|276:268,1,82.5000025177003,6|8,0:0|0:0,0:0:0:0:
220,316,72566,1,4,0:0:0:0:
220,316,72795,1,8,0:0:0:0:
160,260,73024,6,0,L|48:272,1,82.5000025177003,6|8,0:0|0:0,0:0:0:0:
88,188,73482,2,0,L|196:176,1,82.5000025177003,6|8,0:0|0:0,0:0:0:0:
244,216,73940,2,0,B|256:176|256:176|236:116,1,82.5000025177003,6|8,0:0|0:0,0:0:0:0:
324,136,74398,2,0,B|312:96|312:96|324:57,1,82.5000025177003,6|8,0:0|0:0,0:0:0:0:
408,108,74856,5,6,0:0:0:0:
408,108,75314,1,6,0:0:0:0:
408,108,75772,1,6,0:0:0:0:
408,108,76230,1,6,0:0:0:0:
464,172,76459,1,0,0:0:0:0:
404,228,76688,6,0,L|407:316,1,82.5000025177003,4|8,0:0|0:0,0:0:0:0:
351,360,77146,2,0,L|263:363,1,67.4999979400635,2|8,0:0|0:0,0:0:0:0:
221,321,77604,2,0,L|111:323,2,101.249996910095,2|2|10,0:0|0:0|0:0,0:0:0:0:
273,268,78520,6,0,L|270:185,1,67.4999979400635,6|8,0:0|0:0,0:0:0:0:
233,136,78978,1,2,0:0:0:0:
309,135,79207,1,8,0:0:0:0:
361,82,79436,2,0,L|428:79,2,67.4999979400635,2|8|4,0:0|0:0|0:0,0:0:0:0:
334,12,80123,1,10,0:0:0:0:
277,59,80352,6,0,L|194:61,1,67.4999979400635,6|8,0:0|0:0,0:0:0:0:
147,106,80810,1,0,0:0:0:0:
96,46,81039,2,0,P|70:106|115:175,1,134.999995880127,10|10,0:0|0:0,0:0:0:0:
166,197,81726,2,0,L|168:264,1,67.4999979400635,0|8,0:0|0:0,0:0:0:0:
137,334,82184,6,0,P|171:342|222:319,1,67.4999979400635,6|8,0:0|0:0,0:0:0:0:
266,294,82642,1,0,0:0:0:0:
317,353,82871,2,0,P|343:293|298:224,1,134.999995880127,10|10,0:0|0:0,0:0:0:0:
290,164,83558,2,0,L|357:161,1,67.4999979400635,4|8,0:0|0:0,0:0:0:0:
429,194,84016,6,0,L|426:126,1,67.4999979400635,6|8,0:0|0:0,0:0:0:0:
458,56,84474,2,0,L|390:58,1,67.4999979400635,0|8,0:0|0:0,0:0:0:0:
329,16,84932,2,0,L|216:19,2,101.249996910095,2|2|10,0:0|0:0|0:0,0:0:0:0:
390,57,85848,2,0,L|392:124,1,67.4999979400635,6|8,0:0|0:0,0:0:0:0:
336,173,86306,1,2,0:0:0:0:
284,120,86535,1,8,0:0:0:0:
246,184,86764,2,0,L|170:188,1,67.4999979400635,2|8,0:0|0:0,0:0:0:0:
106,160,87222,6,0,L|110:236,1,67.4999979400635,4|8,0:0|0:0,0:0:0:0:
78,300,87680,2,0,L|145:296,1,67.4999979400635,6|8,0:0|0:0,0:0:0:0:
206,336,88138,1,0,0:0:0:0:
266,382,88367,2,0,P|281:333|221:259,1,134.999995880127,10|10,0:0|0:0,0:0:0:0:
180,220,89054,2,0,P|173:192|181:146,1,67.4999979400635,0|8,0:0|0:0,0:0:0:0:
250,185,89512,6,0,P|270:163|315:152,1,67.4999979400635,6|8,0:0|0:0,0:0:0:0:
313,227,89970,1,0,0:0:0:0:
349,296,90199,2,0,P|383:259|367:172,1,134.999995880127,10|10,0:0|0:0,0:0:0:0:
365,105,90886,1,4,0:0:0:0:
256,52,91344,6,0,L|120:64,1,120,6|0,0:0|0:0,0:0:0:0:
68,160,92261,2,0,L|204:172,1,120,6|0,0:0|0:0,0:0:0:0:
228,128,92948,1,8,0:0:0:0:
272,172,93177,6,0,P|288:232|264:292,1,120,6|0,0:0|0:0,0:0:0:0:
236,332,93864,1,8,0:0:0:0:
196,288,94093,2,0,L|112:280,2,60,6|0|0,0:0|0:0|0:0,0:0:0:0:
240,176,95009,6,0,L|120:164,1,120,6|0,0:0|0:0,0:0:0:0:
100,56,95925,2,0,B|148:44|144:72|192:56,1,90,6|0,0:0|0:0,0:0:0:0:
200,44,96383,1,2,0:0:0:0:
360,80,96841,6,0,B|372:40|372:40|352:0,1,82.5000025177003,4|8,0:3|0:0,0:0:0:0:
268,4,97299,2,0,B|256:44|256:44|276:84,1,82.5000025177003,6|8,0:0|0:0,0:0:0:0:
316,152,97757,1,6,0:0:0:0:
320,236,97986,1,8,0:0:0:0:
364,304,98215,1,4,0:0:0:0:
280,308,98444,1,8,0:0:0:0:
240,236,98673,6,0,P|200:224|156:240,1,82.5000025177003,6|8,0:0|0:0,0:0:0:0:
120,164,99131,2,0,P|89:192|81:238,1,82.5000025177003,6|8,0:0|0:0,0:0:0:0:
120,304,99589,6,0,P|160:315|204:299,1,82.5000025177003,6|8,0:0|0:0,0:0:0:0:
240,236,100047,1,4,0:0:0:0:
240,236,100276,1,8,0:0:0:0:
200,164,100505,6,0,B|188:124|188:124|204:80,1,82.5000025177003,6|8,0:0|0:0,0:0:0:0:
136,40,100963,2,0,B|164:9|164:9|210:1,1,82.5000025177003,6|8,0:0|0:0,0:0:0:0:
272,48,101421,1,6,0:0:0:0:
356,52,101650,1,8,0:0:0:0:
421,13,101879,1,4,0:0:0:0:
426,95,102108,1,8,0:0:0:0:
499,57,102337,6,0,P|513:98|487:145,1,82.5000025177003,6|8,0:0|0:0,0:0:0:0:
426,171,102795,2,0,P|383:162|355:116,1,82.5000025177003,6|8,0:0|0:0,0:0:0:0:
356,52,103253,2,0,P|384:19|438:18,1,82.5000025177003,6|8,0:0|0:0,0:0:0:0:
426,95,103711,1,6,0:0:0:0:
426,95,103940,1,12,0:0:0:0:
499,133,104169,6,0,B|499:171|499:171|497:174|497:174|497:223,1,82.5000025177003,4|8,0:3|0:0,0:0:0:0:
428,260,104627,2,0,L|429:347,1,82.5000025177003,6|8,0:0|0:0,0:0:0:0:
348,344,105085,1,6,0:0:0:0:
264,348,105314,1,8,0:0:0:0:
300,276,105543,1,4,0:0:0:0:
296,192,105772,1,8,0:0:0:0:
334,120,106001,6,0,B|294:104|294:104|246:128,1,82.5000025177003,6|8,0:0|0:0,0:0:0:0:
176,126,106459,2,0,B|182:168|182:168|226:198,1,82.5000025177003,6|8,0:0|0:0,0:0:0:0:
259,257,106917,6,0,B|292:230|292:230|296:176,1,82.5000025177003,6|8,0:0|0:0,0:0:0:0:
258,121,107375,1,4,0:0:0:0:
258,121,107604,1,8,0:0:0:0:
212,52,107833,6,0,L|127:48,1,82.5000025177003,6|8,0:0|0:0,0:0:0:0:
48,44,108291,2,0,L|44:129,1,82.5000025177003,6|8,0:0|0:0,0:0:0:0:
40,208,108749,2,0,L|125:212,1,82.5000025177003,6|8,0:0|0:0,0:0:0:0:
204,216,109207,2,0,L|208:131,1,82.5000025177003,6|8,0:0|0:0,0:0:0:0:
212,52,109665,5,4,0:0:0:0:
296,60,109894,5,2,0:0:0:0:
296,60,110352,1,2,0:0:0:0:
460,64,110810,1,2,0:0:0:0:
460,64,111268,1,2,0:0:0:0:
460,228,111726,1,2,0:0:0:0:
460,228,112184,1,2,0:0:0:0:
296,220,112642,1,2,0:0:0:0:
296,220,113100,1,2,0:0:0:0:
132,220,113558,5,2,0:0:0:0:
132,220,114016,1,2,0:0:0:0:
140,56,114474,1,2,0:0:0:0:
140,56,114932,1,2,0:0:0:0:
304,60,115390,1,2,0:0:0:0:
304,60,115848,1,2,0:0:0:0:
300,224,116306,1,2,0:0:0:0:
300,224,116764,1,2,0:0:0:0:
246,279,116993,6,0,P|329:295|272:152,1,330.000010070801,4|0,0:1|0:0,0:0:0:0:
256,192,135417,12,0,136791,0:0:0:0:
328,280,137249,6,0,P|328:320|292:368,1,89.9999972534181,4|8,0:3|0:0,0:0:0:0:
212,360,137707,2,0,P|187:323|185:278,1,89.9999972534181,6|8,0:0|0:0,0:0:0:0:
256,220,138165,1,6,0:0:0:0:
184,168,138394,1,10,0:0:0:0:
212,84,138623,1,6,0:0:0:0:
300,84,138852,1,10,0:0:0:0:
336,168,139081,6,0,L|428:156,1,89.9999972534181,6|8,0:0|0:0,0:0:0:0:
464,236,139539,2,0,L|364:248,1,89.9999972534181,6|8,0:0|0:0,0:0:0:0:
340,332,139997,2,0,L|456:320,2,89.9999972534181,6|8|6,0:0|0:0|0:0,0:0:0:0:
256,364,140684,1,10,0:0:0:0:
172,332,140913,6,0,L|56:320,1,89.9999972534181,6|8,0:0|0:0,0:0:0:0:
48,236,141371,2,0,L|137:246,1,89.9999972534181,6|8,0:0|0:0,0:0:0:0:
144,156,141829,1,6,0:0:0:0:
212,96,142058,1,10,0:0:0:0:
300,96,142287,1,6,0:0:0:0:
380,160,142516,1,10,0:0:0:0:
380,160,142630,1,0,0:0:0:0:
380,160,142745,6,0,P|391:205|375:255,1,89.9999972534181,6|8,0:0|0:0,0:0:0:0:
380,336,143203,2,0,P|335:323|300:284,1,89.9999972534181,6|8,0:0|0:0,0:0:0:0:
228,248,143661,2,0,P|261:215|312:204,1,89.9999972534181,6|8,0:0|0:0,0:0:0:0:
380,246,144119,1,6,0:0:0:0:
380,246,144348,1,14,0:0:0:0:
460,204,144577,6,0,B|474:161|474:161|452:112,1,89.9999972534181,4|8,0:3|0:0,0:0:0:0:
508,48,145035,2,0,B|477:14|477:14|424:8,1,89.9999972534181,6|8,0:0|0:0,0:0:0:0:
364,80,145493,1,6,0:0:0:0:
276,84,145722,1,10,0:0:0:0:
212,24,145951,1,6,0:0:0:0:
124,28,146180,1,10,0:0:0:0:
124,28,146294,1,0,0:0:0:0:
124,28,146409,6,0,B|76:16|76:16|24:36,1,89.9999972534181,6|8,0:0|0:0,0:0:0:0:
82,112,146867,2,0,B|102:152|102:152|86:200,1,89.9999972534181,6|8,0:0|0:0,0:0:0:0:
43,273,147325,2,0,B|91:285|91:285|143:265,2,89.9999972534181,6|8|6,0:0|0:0|0:0,0:0:0:0:
87,194,148012,1,10,0:0:0:0:
166,152,148241,6,0,B|206:132|206:132|254:148,1,89.9999972534181,6|8,0:0|0:0,0:0:0:0:
291,66,148699,2,0,B|328:90|328:90|338:140,1,89.9999972534181,6|8,0:0|0:0,0:0:0:0:
427,139,149157,2,0,B|384:224,1,89.9999972534181,6|8,0:0|0:0,0:0:0:0:
432,296,149615,2,0,B|392:316|392:316|344:300,1,89.9999972534181,6|8,0:0|0:0,0:0:0:0:
308,236,150073,5,4,0:3:0:0:
256,192,150302,12,4,152821,0:0:0:0:
0,256,153737,6,0,B|-17:290|-17:290|8:368|8:368|41:386,1,150,4|4,0:0|0:0,0:0:0:0:
76,320,154424,1,10,0:0:0:0:
122,379,154653,2,0,B|158:391|158:391|196:377,1,75,4|10,0:0|0:0,0:0:0:0:
254,335,155111,2,0,B|288:322|288:322|324:334,1,75,4|10,0:0|0:0,0:0:0:0:
382,382,155569,2,0,L|372:212,1,150,4|4,0:0|0:0,0:0:0:0:
372,157,156256,1,10,0:0:0:0:
441,184,156485,2,0,P|449:148|423:103,1,75,4|10,0:0|0:0,0:0:0:0:
493,66,156943,2,0,P|465:41|414:40,1,75,4|10,0:0|0:0,0:0:0:0:
368,80,157401,6,0,B|284:108|304:52|208:80,1,150,4|4,0:0|0:0,0:0:0:0:
152,108,158088,1,10,0:0:0:0:
84,72,158317,2,0,P|76:112|96:160,1,75,4|10,0:0|0:0,0:0:0:0:
148,184,158775,2,0,P|157:220|149:256,1,75,4|10,0:0|0:0,0:0:0:0:
76,276,159233,2,0,P|112:324|200:312,1,150,4|4,0:0|0:0,0:0:0:0:
149,256,159920,1,10,0:0:0:0:
212,216,160149,2,0,L|304:212,1,75,4|10,0:0|0:0,0:0:0:0:
351,248,160607,2,0,P|343:212|351:176,1,75,4|10,0:0|0:0,0:0:0:0:
292,132,161065,6,0,P|324:108|420:152,1,150,4|4,0:0|0:0,0:0:0:0:
424,216,161752,1,10,0:0:0:0:
490,251,161981,2,0,B|501:214|501:214|488:168,1,75,4|10,0:0|0:0,0:0:0:0:
417,143,162439,2,0,B|408:106|408:106|420:70,1,75,4|10,0:0|0:0,0:0:0:0:
468,13,162897,6,0,B|452:23|452:23|383:23|383:23|363:6,1,112.5,6|0,0:0|0:0,0:0:0:0:
328,8,163355,2,0,B|280:8|280:8|272:16|272:16|216:17,1,112.5,6|0,0:0|0:0,0:0:0:0:
180,20,163813,5,6,0:0:0:0:
