osu file format v14

[General]
AudioFilename: Sigur Ros - Hoppipolla.mp3
AudioLeadIn: 0
PreviewTime: 51379
Countdown: 0
SampleSet: None
StackLeniency: 0.7
Mode: 0
LetterboxInBreaks: 0
EpilepsyWarning: 1
WidescreenStoryboard: 1

[Editor]
DistanceSpacing: 1.3
BeatDivisor: 8
GridSize: 4
TimelineZoom: 1.7

[Metadata]
Title:Hoppipolla
TitleUnicode:Hoppípolla
Artist:Sigur Ros
ArtistUnicode:Sigur Rós
Creator:Bonsai
Version:Mature
Source:
Tags:Takk.. Icelancid Íslenska Hopelandic post-rock experimental rock ambient art dream pop falsetto
BeatmapID:1052840
BeatmapSetID:494447

[Difficulty]
HPDrainRate:4
CircleSize:5
OverallDifficulty:3
ApproachRate:4
SliderMultiplier:1.4
SliderTickRate:2

[Events]
//Background and Video events
0,0,"Sigur Ros - Hoppipolla.jpg",0,0
//Break Periods
2,108125,133533
//Storyboard Layer 0 (Background)
//Storyboard Layer 1 (Fail)
//Storyboard Layer 2 (Pass)
//Storyboard Layer 3 (Foreground)
//Storyboard Sound Samples

[TimingPoints]
14,854.700854700855,4,3,0,20,1,0
32492,849.617672047578,4,3,0,20,1,0
32492,-117.647058823529,4,3,0,20,0,0
34191,-117.647058823529,4,3,0,25,0,0
35890,882.352941176471,4,3,0,30,1,0
35890,-111.111111111111,4,3,0,30,0,0
37213,-100,4,3,0,35,0,0
37434,-100,4,3,0,25,0,0
37670,862.688713156003,4,3,0,25,1,0
38101,-100,4,3,0,35,0,0
44571,851.063829787234,4,3,0,35,1,0
51379,821.917808219178,4,3,1,35,1,0
51379,-117.647058823529,4,3,1,35,0,0
53022,863.309352517986,4,3,0,35,1,0
53022,-107.52688172043,4,3,0,35,0,0
54748,869.565217391304,4,3,0,40,1,0
56065,869.565217391304,4,3,0,40,1,0
56499,869.565217391304,4,3,0,25,1,0
56933,-100,4,3,0,35,0,0
58672,857.142857142857,4,3,0,35,1,0
59957,861.215174611377,4,3,0,35,1,0
63401,860.215053763441,4,3,0,35,1,0
64691,848.056537102474,4,3,0,35,1,0
65115,848.056537102474,4,3,0,35,1,0
66811,857.142857142857,4,3,0,35,1,0
70227,845.070422535211,4,3,0,35,1,0
70227,-105.263157894737,4,3,0,35,0,0
71917,857.142857142857,4,3,0,35,1,0
71917,-105.263157894737,4,3,0,35,0,0
75345,866.425992779783,4,3,0,25,1,0
75778,-100,4,3,0,35,0,0
78810,862.068965517241,4,3,0,35,1,0
82258,849.136711010473,4,3,0,35,1,0
85224,858.369098712446,4,3,0,35,1,0
85653,858.369098712446,4,3,0,35,1,0
89070,833.333333333333,4,3,0,25,1,0
89070,-117.647058823529,4,3,0,25,0,0
90736,860.215053763441,4,3,0,35,1,0
90736,-107.52688172043,4,3,0,35,0,0
93961,-107.52688172043,4,3,0,30,0,0
94176,882.352941176471,4,3,0,30,1,0
94617,-100,4,3,0,35,0,0
95499,857.142857142857,4,3,0,35,1,0
95927,857.142857142857,4,3,0,35,1,0
97641,861.450107681263,4,3,0,35,1,0
101086,855.920114122682,4,3,0,35,1,0
104509,854.092526690391,4,3,0,35,1,0
107925,857.695028276899,4,3,0,25,1,0
133655,839.160839160839,4,2,0,35,1,0
133655,-117.647058823529,4,2,0,35,0,0
135335,839.160839160839,4,3,0,30,1,0
135335,-111.111111111111,4,3,0,30,0,0
137025,851.063829787234,4,3,0,30,1,0
137025,-111.111111111111,4,3,0,30,0,0
138727,875.912408759124,4,3,0,30,1,0
138727,-111.111111111111,4,3,0,30,0,0
140478,839.160839160839,4,3,0,30,1,0
140478,-105.263157894737,4,3,0,30,0,0
141736,854.700854700855,4,3,0,30,1,0
141736,-105.263157894737,4,3,0,30,0,0
142163,854.700854700855,4,3,0,30,1,0
142163,-105.263157894737,4,3,0,30,0,0
143872,882.352941176471,4,3,0,35,1,0
143872,-100,4,3,0,35,0,0
145636,854.092526690391,4,3,0,30,1,1
145636,-83.3333333333333,4,3,0,30,0,1
146063,-83.3333333333333,4,3,0,40,0,1
149052,857.142857142857,4,3,0,40,1,1
149052,-83.3333333333333,4,3,0,40,0,1
150780,857.142857142857,4,3,0,40,1,1
150780,-83.3333333333333,4,3,0,40,0,1
152494,866.425992779783,4,3,0,40,1,1
152494,-83.3333333333333,4,3,0,40,0,1
155071,863.309352517986,4,3,0,40,1,1
155071,-83.3333333333333,4,3,0,40,0,1
155934,869.565217391304,4,3,0,40,1,1
155934,-83.3333333333333,4,3,0,40,0,1
158107,850.460666194189,4,3,0,40,1,1
158107,-83.3333333333333,4,3,0,40,0,1
158957,-83.3333333333333,4,3,0,40,0,0
159382,850.460666194189,4,3,0,30,1,1
159382,-83.3333333333333,4,3,0,30,0,1
159807,-83.3333333333333,4,3,0,40,0,1
162783,851.063829787234,4,3,0,40,1,1
162783,-83.3333333333333,4,3,0,40,0,1
168314,872.727272727273,4,3,0,40,1,1
168314,-83.3333333333333,4,3,0,40,0,1
169623,858.369098712446,4,3,0,40,1,1
169623,-83.3333333333333,4,3,0,40,0,1
172198,-83.3333333333333,4,3,0,40,0,1
173056,865.925819021504,4,3,0,40,1,0
176519,857.142857142857,4,3,0,40,1,0
178233,842.696629213483,4,3,0,40,1,0
179918,857.142857142857,4,3,0,40,1,0
181632,860.215053763441,4,3,0,40,1,0
183352,833.333333333333,4,3,0,30,1,1
183352,-83.3333333333333,4,3,0,30,0,1
183768,-83.3333333333333,4,3,0,40,0,1
185018,863.309352517986,4,3,0,40,1,1
185018,-83.3333333333333,4,3,0,40,0,1
185881,848.056537102474,4,3,0,40,1,1
185881,-83.3333333333333,4,3,0,40,0,1
186729,863.309352517986,4,3,0,40,1,1
186729,-83.3333333333333,4,3,0,40,0,1
188455,875.912408759124,4,3,0,40,1,1
188455,-83.3333333333333,4,3,0,40,0,1
189330,869.565217391304,4,3,0,40,1,1
189330,-83.3333333333333,4,3,0,40,0,1
190199,833.333333333333,4,3,0,40,1,1
190199,-83.3333333333333,4,3,0,40,0,1
190615,869.565217391304,4,3,0,40,1,1
190615,-83.3333333333333,4,3,0,40,0,1
191049,869.565217391304,4,3,0,40,1,1
191049,-83.3333333333333,4,3,0,40,0,1
192353,851.063829787234,4,3,0,40,1,1
192353,-83.3333333333333,4,3,0,40,0,1
193629,868.306801736614,4,3,0,40,1,1
193629,-83.3333333333333,4,3,0,40,0,1
195799,851.063829787234,4,3,0,40,1,1
195799,-83.3333333333333,4,3,0,40,0,1
196650,846.859562455893,4,3,0,40,1,0
196650,-83.3333333333333,4,3,0,40,0,0
197073,846.859562455893,4,3,0,30,1,1
197073,-83.3333333333333,4,3,0,30,0,1
197496,-83.3333333333333,4,3,0,40,0,1
200037,888.888888888889,4,3,0,40,1,1
200037,-83.3333333333333,4,3,0,40,0,1
200481,849.85835694051,4,3,0,40,1,1
200481,-83.3333333333333,4,3,0,40,0,1
206430,869.565217391304,4,3,0,40,1,1
206430,-83.3333333333333,4,3,0,40,0,1
207299,872.727272727273,4,3,0,40,1,1
207299,-83.3333333333333,4,3,0,40,0,1
209480,839.160839160839,4,3,0,40,1,1
209480,-83.3333333333333,4,3,0,40,0,1
210319,863.309352517986,4,3,0,40,1,0
210319,-83.3333333333333,4,3,0,40,0,0
210750,863.309352517986,4,3,0,30,1,1
210750,-83.3333333333333,4,3,0,30,0,1
211181,-83.3333333333333,4,3,0,40,0,1
213780,875.912408759124,4,3,0,40,1,1
213780,-83.3333333333333,4,3,0,40,0,1
214208,854.092526690391,4,3,0,40,1,1
214208,-83.3333333333333,4,3,0,40,0,1
215916,845.070422535211,4,3,0,40,1,1
215916,-83.3333333333333,4,3,0,40,0,1
218028,860.215053763441,4,3,0,40,1,1
218028,-83.3333333333333,4,3,0,40,0,1
219748,853.48506401138,4,3,0,40,1,1
219748,-83.3333333333333,4,3,0,40,0,1
221028,843.28882642305,4,3,0,40,1,1
221028,-83.3333333333333,4,3,0,40,0,1
222292,-83.3333333333333,4,3,0,33,0,1
222714,-83.3333333333333,4,3,0,40,0,1
223136,852.272727272727,4,3,0,33,1,1
223136,-83.3333333333333,4,3,0,33,0,1
223562,-83.3333333333333,4,3,0,40,0,1
223988,864.802536754108,4,3,0,33,1,0
223988,-83.3333333333333,4,3,0,33,0,0
224420,864.802536754108,4,3,0,30,1,1
224420,-83.3333333333333,4,3,0,30,0,1
224852,-83.3333333333333,4,3,0,40,0,1
227879,860.832137733142,4,3,0,40,1,1
227879,-83.3333333333333,4,3,0,40,0,1
231322,862.068965517241,4,3,0,40,1,1
231322,-83.3333333333333,4,3,0,40,0,1
233477,854.700854700855,4,3,0,40,1,1
233477,-83.3333333333333,4,3,0,40,0,1
234759,851.063829787234,4,3,0,40,1,1
234759,-83.3333333333333,4,3,0,40,0,1
238163,-100,4,3,0,30,0,0

[Colours]
Combo1 : 181,193,232
Combo2 : 190,228,218

[HitObjects]
42,201,32492,5,0,0:0:0:0:
69,239,32916,1,0,0:0:0:0:
115,248,33341,1,0,0:0:0:0:
152,218,33766,1,0,0:0:0:0:
146,152,34191,5,0,0:0:0:0:
179,95,34616,1,0,0:0:0:0:
238,67,35040,1,0,0:0:0:0:
302,77,35465,1,0,0:0:0:0:
353,119,35890,1,0,0:0:0:0:
301,173,36331,1,0,0:0:0:0:
250,229,36772,1,0,0:0:0:0:
198,283,37213,2,0,L|159:285,1,35
124,285,37670,6,0,P|124:250|113:218,1,70,4|0,1:2|0:0,0:0:0:0:
65,142,38532,2,0,P|53:109|54:75,1,70,0|0,1:0|0:0,0:0:0:0:
120,14,39395,2,0,P|153:0|188:0,1,70,0|0,1:0|0:0,0:0:0:0:
275,27,40258,2,0,P|299:51|315:82,1,70,0|0,1:0|0:0,0:0:0:0:
320,127,40905,1,0,2:0:0:0:
325,172,41120,6,0,P|340:203|365:227,1,70,0|0,1:0|0:0,0:0:0:0:
437,282,41983,2,0,P|462:305|477:337,1,70,0|0,1:0|0:0,0:0:0:0:
387,361,42846,2,0,P|353:370|318:368,1,70,0|0,1:0|0:0,0:0:0:0:
229,349,43708,2,0,P|194:346|160:356,1,70,0|0,1:0|0:0,0:0:0:0:
146,264,44571,6,0,P|180:266|214:256,1,70,0|0,1:0|0:0,0:0:0:0:
296,217,45422,2,0,P|304:183|323:154,1,70,0|0,1:0|0:0,0:0:0:0:
409,186,46273,2,0,P|400:219|381:248,1,70,0|0,1:0|0:0,0:0:0:0:
315,312,47124,2,0,P|330:343|355:367,1,70,0|0,1:0|0:0,0:0:0:0:
400,375,47762,1,0,2:0:0:0:
445,367,47975,6,0,P|469:342|485:311,1,70,0|0,1:0|0:0,0:0:0:0:
497,220,48826,2,0,P|484:187|462:160,1,70,0|0,1:0|0:0,0:0:0:0:
380,120,49677,2,0,L|284:97,1,70,0|0,1:0|0:0,0:0:0:0:
223,126,50528,2,0,L|127:149,1,70,0|0,1:0|0:0,0:0:0:0:
46,116,51379,5,0,2:0:0:0:
46,116,51789,2,0,P|74:163|33:231,1,119.000002269745,0|0,2:0|2:0,2:0:0:0:
8,269,53022,5,0,0:0:0:0:
70,303,53453,1,0,0:0:0:0:
141,303,53885,1,0,0:0:0:0:
202,267,54316,1,0,0:0:0:0:
237,199,54748,1,0,0:0:0:0:
301,157,55182,1,0,0:0:0:0:
378,155,55617,1,0,0:0:0:0:
443,196,56065,2,0,L|459:228,1,35,0|0,0:0|2:0,0:0:0:0:
477,274,56499,6,0,P|442:278|408:271,1,70,4|0,1:2|0:0,0:0:0:0:
324,236,57368,2,0,P|289:228|255:233,1,70,0|0,1:0|0:0,0:0:0:0:
179,285,58238,2,0,P|158:313|148:346,1,70,0|0,1:0|0:0,0:0:0:0:
238,360,59100,1,0,1:0:0:0:
328,368,59529,1,0,0:0:0:0:
418,375,59957,6,0,P|408:341|387:313,1,70,0|0,1:0|0:0,0:0:0:0:
317,255,60818,2,0,P|296:226|286:193,1,70,0|0,1:0|0:0,0:0:0:0:
365,122,61679,2,0,L|379:205,1,70,0|0,1:0|0:0,0:0:0:0:
389,281,62540,1,0,1:0:0:0:
309,326,62971,1,0,0:0:0:0:
218,328,63401,6,0,P|216:293|226:259,1,70,0|0,1:0|0:0,0:0:0:0:
298,203,64261,1,0,1:0:0:0:
251,123,64691,1,0,0:0:0:0:
168,161,65115,2,0,P|133:162|99:152,1,70,0|0,1:0|0:0,0:0:0:0:
30,93,65963,2,0,P|14:61|9:27,1,70,0|0,1:0|0:0,0:0:0:0:
53,17,66599,1,0,0:0:0:0:
97,8,66811,6,0,P|108:40|108:75,1,70,0|0,1:0|0:0,0:0:0:0:
94,165,67668,2,0,P|94:199|105:232,1,70,0|0,1:0|0:0,0:0:0:0:
167,299,68525,2,0,L|250:307,1,70,0|0,1:0|0:0,0:0:0:0:
325,285,69382,2,0,L|409:269,1,70,0|0,1:0|0:0,0:0:0:0:
475,248,70227,5,0,1:0:0:0:
447,167,70649,1,0,0:0:0:0:
456,81,71072,2,0,P|481:59|515:48,1,66.4999982242585,0|0,1:0|0:0,0:0:0:0:
374,95,71917,6,0,L|294:92,1,66.4999982242585,0|0,1:0|0:0,0:0:0:0:
227,89,72774,2,0,L|147:86,1,66.4999982242585,0|0,1:0|0:0,0:0:0:0:
80,82,73631,2,0,L|0:79,1,66.4999982242585,0|0,1:0|0:0,0:0:0:0:
0,152,74488,1,0,1:0:0:0:
22,221,74917,1,0,0:0:0:0:
109,200,75345,6,0,P|143:198|177:208,1,70,4|0,1:2|0:0,0:0:0:0:
250,262,76211,1,0,1:0:0:0:
337,237,76644,1,0,0:0:0:0:
363,149,77077,2,0,P|364:114|354:80,1,70,0|0,1:0|0:0,0:0:0:0:
267,53,77944,2,0,P|265:87|275:121,1,70,0|0,1:0|0:0,0:0:0:0:
284,212,78810,5,0,1:0:0:0:
200,176,79241,1,0,0:0:0:0:
111,195,79672,2,0,P|81:214|60:241,1,70,0|0,1:0|0:0,0:0:0:0:
70,332,80534,2,0,L|154:335,1,70,0|0,1:0|0:0,0:0:0:0:
217,286,81396,1,0,1:0:0:0:
293,236,81827,1,0,0:0:0:0:
359,300,82258,6,0,P|363:333|356:367,1,70,0|0,1:0|0:0,0:0:0:0:
273,331,83107,1,0,1:0:0:0:
187,362,83531,1,0,0:0:0:0:
114,306,83956,2,0,P|109:272|116:238,1,70,0|0,1:0|0:0,0:0:0:0:
178,170,84805,1,0,1:0:0:0:
268,176,85224,1,0,0:0:0:0:
317,253,85653,6,0,P|351:260|385:255,1,70,0|0,1:0|0:0,0:0:0:0:
469,218,86511,2,0,P|489:189|499:156,1,70,0|0,1:0|0:0,0:0:0:0:
489,65,87369,2,0,P|471:34|444:12,1,70,0|0,1:0|0:0,0:0:0:0:
355,1,88228,1,4,1:2:0:0:
363,124,89070,5,0,0:0:0:0:
363,124,89486,2,0,P|377:166|369:190,2,59.5000011348725,0|0|0,0:0|0:0|0:0,2:0:0:0:
312,162,90736,5,0,0:0:0:0:
247,156,91166,1,0,0:0:0:0:
236,91,91596,1,0,0:0:0:0:
291,57,92026,1,0,0:0:0:0:
338,102,92456,1,0,0:0:0:0:
339,167,92886,1,0,0:0:0:0:
299,218,93316,1,0,0:0:0:0:
235,233,93746,2,0,L|192:223,1,32.5500010181809
162,215,94176,6,0,P|127:212|93:220,1,70,4|0,1:2|0:0,0:0:0:0:
65,307,95058,2,0,P|99:309|133:301,1,70,0|0,1:0|0:0,0:0:0:0:
214,260,95927,2,0,P|247:251|282:254,1,70,0|0,1:0|0:0,0:0:0:0:
361,299,96784,1,0,1:0:0:0:
393,384,97212,1,0,0:0:0:0:
443,308,97641,6,0,P|466:282|497:265,1,70,0|0,1:0|0:0,0:0:0:0:
471,177,98502,2,0,P|447:151|416:134,1,70,0|0,1:0|0:0,0:0:0:0:
325,128,99363,2,0,P|291:139|264:160,1,70,0|0,1:0|0:0,0:0:0:0:
245,249,100225,1,0,1:0:0:0:
278,333,100656,1,0,0:0:0:0:
187,318,101086,6,0,P|156:301|132:275,1,70,0|0,1:0|0:0,0:0:0:0:
135,184,101941,1,0,1:0:0:0:
64,126,102369,1,0,0:0:0:0:
95,40,102797,2,0,P|121:16|153:3,1,70,0|0,1:0|0:0,0:0:0:0:
232,49,103653,1,0,1:0:0:0:
322,41,104081,1,0,0:0:0:0:
395,94,104509,6,0,P|416:121|427:154,1,70,0|0,1:0|0:0,0:0:0:0:
416,245,105363,2,0,P|399:275|373:299,1,70,0|0,1:0|0:0,0:0:0:0:
285,323,106217,2,0,P|250:320|218:306,1,70,0|0,1:0|0:0,0:0:0:0:
155,240,107071,2,0,P|143:207|143:172,1,70,0|0,1:0|0:0,0:0:0:0:
174,87,107925,5,2,1:3:0:0:
407,263,135333,5,0,0:0:0:0:
337,263,135754,1,0,0:0:0:0:
267,263,136174,1,0,0:0:0:0:
197,263,136593,1,0,0:0:0:0:
155,207,137013,5,0,0:0:0:0:
151,135,137450,1,0,0:0:0:0:
188,76,137876,1,0,0:0:0:0:
254,56,138301,1,0,0:0:0:0:
319,75,138727,1,0,0:0:0:0:
354,134,139164,1,0,0:0:0:0:
348,203,139602,1,0,0:0:0:0:
306,258,140040,1,0,0:0:0:0:
236,288,140478,5,0,0:0:0:0:
186,233,140897,1,0,0:0:0:0:
112,225,141317,1,0,0:0:0:0:
52,265,141736,1,0,0:0:0:0:
47,337,142163,5,0,0:0:0:0:
120,340,142590,1,0,0:0:0:0:
194,312,143017,1,0,0:0:0:0:
232,241,143445,1,0,0:0:0:0:
230,152,143872,1,0,0:0:0:0:
269,70,144313,1,0,0:0:0:0:
359,31,144754,1,0,0:0:0:0:
455,47,145195,1,0,0:0:0:0:
509,145,145636,6,0,P|507:179|486:223,1,83.9999974365235,4|0,1:2|0:0,0:0:0:0:
398,288,146490,2,0,P|364:298|316:293,1,83.9999974365235,0|0,1:0|0:0,0:0:0:0:
330,185,147344,2,0,P|324:143|303:107,1,83.9999974365235,0|0,1:0|0:0,0:0:0:0:
213,46,148198,2,0,P|172:36|131:44,1,83.9999974365235,0|0,1:0|0:0,0:0:0:0:
40,103,149052,6,0,P|17:138|11:179,1,83.9999974365235,0|0,1:0|0:0,0:0:0:0:
35,285,149909,2,0,P|60:318|96:338,1,83.9999974365235,0|0,1:0|0:0,0:0:0:0:
209,343,150780,2,0,P|248:330|280:303,1,83.9999974365235,0|0,1:0|0:0,0:0:0:0:
322,201,151637,2,0,L|292:88,1,83.9999974365235
306,73,152280,1,0,0:0:0:0:
320,29,152494,6,0,P|359:15|400:20,1,83.9999974365235,0|0,1:0|0:0,0:0:0:0:
429,125,153360,2,0,P|446:162|479:188,1,83.9999974365235,0|0,1:0|0:0,0:0:0:0:
491,312,154226,2,0,P|473:274|440:248,1,83.9999974365235,0|0,1:0|0:0,0:0:0:0:
332,224,155071,2,0,P|290:227|255:250,1,83.9999974365235,0|0,1:0|0:0,0:0:0:0:
230,288,155718,1,0,2:0:0:0:
207,327,155934,6,0,P|171:349|130:353,1,83.9999974365235,0|0,1:0|0:0,0:0:0:0:
66,263,156803,2,0,P|83:225|116:199,1,83.9999974365235,0|0,1:0|0:0,0:0:0:0:
222,167,157673,2,0,P|263:170|298:193,1,83.9999974365235,0|0,1:0|0:0,0:0:0:0:
344,294,158532,2,0,L|258:288,1,83.9999974365235,0|0,1:0|0:0,0:0:0:0:
388,218,159382,6,0,P|414:186|424:145,1,83.9999974365235,4|0,1:2|0:0,0:0:0:0:
354,61,160232,2,0,P|327:92|317:133,1,83.9999974365235,0|0,1:0|0:0,0:0:0:0:
244,216,161082,2,0,P|203:225|162:216,1,83.9999974365235,0|0,1:0|0:0,0:0:0:0:
80,144,161933,2,0,P|39:134|0:144,1,83.9999974365235,0|0,1:0|0:0,0:0:0:0:
0,288,162783,6,0,P|40:297|80:287,1,83.9999974365235,0|0,1:0|0:0,0:0:0:0:
162,216,163634,2,0,P|202:206|243:216,1,83.9999974365235,0|0,1:0|0:0,0:0:0:0:
328,284,164485,2,0,L|318:376,1,83.9999974365235,0|0,1:0|0:0,0:0:0:0:
209,367,165336,2,0,L|199:283,1,83.9999974365235,0|0,1:0|0:0,0:0:0:0:
322,209,166187,6,0,P|350:178|361:139,1,83.9999974365235,0|0,1:0|0:0,0:0:0:0:
276,70,167038,2,0,P|235:60|195:70,1,83.9999974365235,0|0,1:0|0:0,0:0:0:0:
98,121,167889,2,0,P|57:131|17:121,1,83.9999974365235,0|0,1:0|0:0,0:0:0:0:
63,22,168750,2,0,P|103:11|143:21,1,83.9999974365235,0|0,1:0|0:0,0:0:0:0:
204,153,169623,6,0,L|294:147,1,83.9999974365235,0|0,1:0|0:0,0:0:0:0:
388,189,170481,2,0,L|478:183,1,83.9999974365235,0|0,1:0|0:0,0:0:0:0:
471,300,171339,2,0,L|387:294,1,83.9999974365235,0|0,1:0|0:0,0:0:0:0:
287,336,172198,1,0,1:0:0:0:
194,329,172627,1,0,0:0:0:0:
130,265,173056,6,0,P|128:231|138:197,1,70,0|0,1:0|0:0,0:0:0:0:
187,120,173921,2,0,P|196:86|195:51,1,70,0|0,1:0|0:0,0:0:0:0:
279,1,174787,6,0,L|288:86,1,70,0|0,1:0|0:0,0:0:0:0:
298,161,175653,2,0,L|307:246,1,70,0|0,1:0|0:0,0:0:0:0:
253,306,176519,2,0,P|223:323|188:329,1,70,0|0,1:0|0:0,0:0:0:0:
148,247,177376,2,0,P|125:220|95:203,1,70,0|0,1:0|0:0,0:0:0:0:
0,175,178233,6,0,P|32:163|59:141,1,70,0|0,1:0|0:0,0:0:0:0:
114,69,179075,2,0,P|141:47|173:35,1,70,0|0,1:0|0:0,0:0:0:0:
263,37,179918,6,0,L|329:66,1,70,0|0,1:0|0:0,0:0:0:0:
408,105,180775,2,0,L|474:134,1,70,0|0,1:0|0:0,0:0:0:0:
485,222,181632,2,0,P|477:256|459:285,1,70,0|0,1:0|0:0,0:0:0:0:
386,339,182492,2,0,P|352:349|318:348,1,70,0|0,1:0|0:0,0:0:0:0:
329,228,183352,6,0,P|324:185|302:150,1,83.9999974365235,4|0,1:2|0:0,0:0:0:0:
213,89,184185,2,0,P|172:79|131:86,1,83.9999974365235,0|0,1:0|0:0,0:0:0:0:
40,146,185018,2,0,P|16:181|11:222,1,83.9999974365235,0|0,1:0|0:0,0:0:0:0:
35,328,185881,2,0,P|60:361|96:381,1,83.9999974365235,0|0,1:0|0:0,0:0:0:0:
128,270,186729,6,0,P|138:228|163:195,1,83.9999974365235,0|0,1:0|0:0,0:0:0:0:
258,144,187592,2,0,P|299:138|339:150,1,83.9999974365235,0|0,1:0|0:0,0:0:0:0:
424,218,188455,2,0,P|443:255|444:296,1,83.9999974365235,0|0,1:0|0:0,0:0:0:0:
370,377,189330,2,0,L|276:385,1,83.9999974365235,0|0,1:0|0:0,0:0:0:0:
192,319,190199,6,0,P|185:277|196:237,1,83.9999974365235,0|0,1:0|0:0,0:0:0:0:
252,144,191049,2,0,P|263:103|256:62,1,83.9999974365235,0|0,1:0|0:0,0:0:0:0:
146,60,191918,2,0,P|134:100|141:141,1,83.9999974365235,0|0,1:0|0:0,0:0:0:0:
196,237,192778,1,0,1:0:0:0:
296,194,193204,1,0,0:0:0:0:
390,243,193629,6,0,P|396:284|385:324,1,83.9999974365235,0|0,1:0|0:0,0:0:0:0:
292,275,194497,2,0,P|285:233|296:193,1,83.9999974365235,0|0,1:0|0:0,0:0:0:0:
383,128,195365,2,0,P|353:98|314:83,1,83.9999974365235,0|0,1:0|0:0,0:0:0:0:
198,69,196224,2,0,P|158:54|129:24,1,83.9999974365235,0|0,1:0|0:0,0:0:0:0:
0,61,197073,6,0,P|39:75|68:105,1,83.9999974365235,4|0,1:2|0:0,0:0:0:0:
103,208,197919,2,0,P|132:237|171:252,1,83.9999974365235,0|0,1:0|0:0,0:0:0:0:
223,101,198766,2,0,L|178:172,1,83.9999974365235,0|0,1:3|0:0,0:0:0:0:
249,254,199613,2,0,L|270:335,1,83.9999974365235,0|0,1:0|0:0,0:0:0:0:
371,263,200481,6,0,P|392:227|396:185,1,83.9999974365235,0|0,1:0|0:0,0:0:0:0:
368,79,201330,2,0,P|371:37|393:1,1,83.9999974365235,0|0,1:0|0:0,0:0:0:0:
512,133,202180,2,0,L|428:123,1,83.9999974365235,0|0,1:0|0:0,0:0:0:0:
328,167,203030,2,0,L|244:177,1,83.9999974365235,0|0,1:0|0:0,0:0:0:0:
183,76,203880,6,0,P|186:34|208:-1,1,83.9999974365235,0|0,1:0|0:0,0:0:0:0:
317,0,204730,2,0,P|338:35|342:77,1,83.9999974365235,0|0,1:0|0:0,0:0:0:0:
324,185,205580,2,0,P|327:226|349:262,1,83.9999974365235,0|0,1:0|0:0,0:0:0:0:
455,272,206430,1,0,1:0:0:0:
508,366,206864,1,0,0:0:0:0:
399,360,207299,6,0,P|357:361|320:381,1,83.9999974365235,0|0,1:0|0:0,0:0:0:0:
211,381,208171,2,0,P|175:358|153:323,1,83.9999974365235,0|0,1:0|0:0,0:0:0:0:
133,216,209044,2,0,P|141:175|167:142,1,83.9999974365235,0|0,1:0|0:0,0:0:0:0:
259,85,209899,2,0,P|284:52|293:11,1,83.9999974365235,0|0,1:0|0:0,0:0:0:0:
159,28,210750,6,0,L|55:42,1,83.9999974365235,4|0,1:2|0:0,0:0:0:0:
23,135,211613,2,0,P|25:176|46:212,1,83.9999974365235,0|0,1:0|0:0,0:0:0:0:
158,282,212476,2,0,L|159:192,1,83.9999974365235,0|0,1:0|0:0,0:0:0:0:
210,101,213339,2,0,L|209:12,1,83.9999974365235,0|0,1:0|0:0,0:0:0:0:
327,86,214208,6,0,P|347:122|350:163,1,83.9999974365235,0|0,1:0|0:0,0:0:0:0:
335,272,215062,2,0,P|337:313|357:350,1,83.9999974365235,0|0,1:0|0:0,0:0:0:0:
205,333,215916,2,0,L|117:321,1,83.9999974365235,0|0,1:0|0:0,0:0:0:0:
59,231,216761,2,0,L|142:219,1,83.9999974365235,0|0,1:0|0:0,0:0:0:0:
258,122,217606,6,0,P|237:158|235:200,1,83.9999974365235,0|0,1:0|0:0,0:0:0:0:
285,297,218458,2,0,P|316:269|333:231,1,83.9999974365235,0|0,1:0|0:0,0:0:0:0:
347,123,219318,2,0,P|363:84|395:57,1,83.9999974365235,0|0,1:0|0:0,0:0:0:0:
423,162,220174,1,0,1:0:0:0:
395,267,220601,1,0,0:0:0:0:
418,374,221028,6,0,P|381:354|339:352,1,83.9999974365235,0|0,1:0|0:0,0:0:0:0:
232,375,221871,1,0,1:0:0:0:
128,340,222292,1,0,1:0:0:0:
154,234,222714,1,0,1:0:0:0:
113,133,223136,1,0,1:0:0:0:
200,67,223562,1,0,1:0:0:0:
307,67,223988,1,0,1:0:0:0:
376,151,224420,6,0,P|339:170|297:172,1,83.9999974365235,4|0,1:2|0:0,0:0:0:0:
189,161,225284,1,0,1:0:0:0:
102,227,225717,1,0,0:0:0:0:
20,153,226149,2,0,L|1:30,1,83.9999974365235,0|0,1:0|0:0,0:0:0:0:
102,15,227014,2,0,P|142:3|183:10,1,83.9999974365235,0|0,1:0|0:0,0:0:0:0:
262,86,227879,5,0,1:0:0:0:
241,193,228309,1,0,0:0:0:0:
287,291,228739,2,0,P|324:308|366:307,1,83.9999974365235,0|0,1:0|0:0,0:0:0:0:
227,365,229600,2,0,L|143:367,1,83.9999974365235,0|0,1:0|0:0,0:0:0:0:
43,277,230461,2,0,L|126:279,1,83.9999974365235,0|0,1:0|0:0,0:0:0:0:
232,251,231322,5,0,1:0:0:0:
275,151,231753,1,0,0:0:0:0:
370,97,232184,2,0,P|411:90|451:101,1,83.9999974365235,0|0,1:0|0:0,0:0:0:0:
488,204,233046,2,0,P|446:210|406:199,1,83.9999974365235,0|0,1:0|0:0,0:0:0:0:
313,142,233904,1,0,1:0:0:0:
204,156,234331,1,0,0:0:0:0:
240,259,234759,6,0,P|267:290|305:307,1,83.9999974365235,0|0,1:0|0:0,0:0:0:0:
331,200,235610,2,0,P|362:172|379:134,1,83.9999974365235,0|0,1:0|0:0,0:0:0:0:
273,105,236461,2,0,P|245:73|207:56,1,83.9999974365235,0|0,1:0|0:0,0:0:0:0:
181,163,237312,2,0,P|149:190|132:228,1,83.9999974365235,0|0,1:0|0:0,0:0:0:0:
131,347,238163,5,4,1:2:0:0:
