osu file format v14

[General]
AudioFilename: Sigur Ros - Hoppipolla.mp3
AudioLeadIn: 0
PreviewTime: 51379
Countdown: 0
SampleSet: None
StackLeniency: 0.7
Mode: 0
LetterboxInBreaks: 0
EpilepsyWarning: 1
WidescreenStoryboard: 1

[Editor]
DistanceSpacing: 1.3
BeatDivisor: 8
GridSize: 4
TimelineZoom: 3.639999

[Metadata]
Title:Hoppipolla
TitleUnicode:Hoppípolla
Artist:Sigur Ros
ArtistUnicode:Sigur Rós
Creator:Bonsai
Version:Childish
Source:
Tags:Takk.. Icelancid Íslenska Hopelandic post-rock experimental rock ambient art dream pop falsetto
BeatmapID:1057473
BeatmapSetID:494447

[Difficulty]
HPDrainRate:3
CircleSize:4
OverallDifficulty:3
ApproachRate:4
SliderMultiplier:1.4
SliderTickRate:2

[Events]
//Background and Video events
0,0,"Sigur Ros - Hoppipolla.jpg",0,0
//Break Periods
2,108125,132754
//Storyboard Layer 0 (Background)
//Storyboard Layer 1 (Fail)
//Storyboard Layer 2 (Pass)
//Storyboard Layer 3 (Foreground)
//Storyboard Sound Samples

[TimingPoints]
14,854.700854700855,4,3,1,20,1,0
32492,849.617672047578,4,3,1,20,1,0
32492,-117.647058823529,4,3,1,20,0,0
34191,-117.647058823529,4,3,1,30,0,0
35890,882.352941176471,4,3,1,30,1,0
37670,862.688713156003,4,3,1,25,1,0
38532,-100,4,3,1,40,0,0
44571,851.063829787234,4,3,1,40,1,0
51379,821.917808219178,4,3,1,40,1,0
51379,-117.647058823529,4,3,1,40,0,0
52200,-117.647058823529,4,3,1,25,0,0
52303,-117.647058823529,4,3,1,40,0,0
53022,863.309352517986,4,3,1,40,1,0
53022,-107.52688172043,4,3,1,40,0,0
54748,869.565217391304,4,3,1,30,1,0
55182,-100,4,3,1,40,0,0
56065,869.565217391304,4,3,1,40,1,0
56499,869.565217391304,4,3,1,40,1,0
58672,857.142857142857,4,3,1,30,1,0
59100,-100,4,3,1,40,0,0
59957,861.215174611377,4,3,1,40,1,0
62110,-100,4,3,1,30,0,0
62540,-100,4,3,1,40,0,0
63401,860.215053763441,4,3,1,40,1,0
64691,848.056537102474,4,3,1,40,1,0
65115,848.056537102474,4,3,1,40,1,0
66811,857.142857142857,4,3,1,40,1,0
69811,-100,4,3,1,30,0,0
70227,845.070422535211,4,3,1,40,1,0
70227,-105.263157894737,4,3,1,40,0,0
71917,857.142857142857,4,3,1,40,1,0
71917,-105.263157894737,4,3,1,40,0,0
75345,866.425992779783,4,3,1,25,1,0
75778,-100,4,3,1,40,0,0
78810,862.068965517241,4,3,1,40,1,0
80965,-100,4,3,1,35,0,0
81396,-100,4,3,1,40,0,0
82258,849.136711010473,4,3,1,40,1,0
85224,858.369098712446,4,3,1,40,1,0
85653,858.369098712446,4,3,1,40,1,0
87798,-100,4,3,1,35,0,0
88228,-100,4,3,1,30,0,0
89070,833.333333333333,4,3,1,40,1,0
89070,-117.647058823529,4,3,1,40,0,0
89903,-117.647058823529,4,3,1,25,0,0
89955,-117.647058823529,4,3,1,40,0,0
90736,860.215053763441,4,3,1,40,1,0
90736,-107.52688172043,4,3,1,40,0,0
94176,882.352941176471,4,3,1,30,1,0
94617,-100,4,3,1,40,0,0
95499,857.142857142857,4,3,1,40,1,0
95927,857.142857142857,4,3,1,40,1,0
97641,861.450107681263,4,3,1,40,1,0
101086,855.920114122682,4,3,1,40,1,0
104509,854.092526690391,4,3,1,40,1,0
107925,857.695028276899,4,3,1,20,1,0
133655,839.160839160839,4,3,1,20,1,0
133655,-117.647058823529,4,3,1,20,0,0
135335,839.160839160839,4,3,1,30,1,0
135335,-111.111111111111,4,3,1,30,0,0
137025,851.063829787234,4,3,1,30,1,0
137025,-111.111111111111,4,3,1,30,0,0
138727,875.912408759124,4,3,1,30,1,0
138727,-111.111111111111,4,3,1,30,0,0
140478,839.160839160839,4,3,1,30,1,0
140478,-105.263157894737,4,3,1,30,0,0
141736,854.700854700855,4,3,1,30,1,0
141736,-105.263157894737,4,3,1,30,0,0
142163,854.700854700855,4,3,1,40,1,0
142163,-105.263157894737,4,3,1,40,0,0
143872,882.352941176471,4,3,1,40,1,0
143872,-100,4,3,1,40,0,0
145636,854.092526690391,4,3,1,35,1,1
145636,-90.9090909090909,4,3,1,35,0,1
146063,-90.9090909090909,4,3,1,40,0,1
146917,-90.9090909090909,4,3,1,30,0,1
147344,-90.9090909090909,4,3,1,40,0,1
149052,857.142857142857,4,3,1,40,1,1
149052,-90.9090909090909,4,3,1,40,0,1
150780,857.142857142857,4,3,1,40,1,1
150780,-90.9090909090909,4,3,1,40,0,1
152494,866.425992779783,4,3,1,40,1,1
152494,-90.9090909090909,4,3,1,40,0,1
155071,863.309352517986,4,3,1,40,1,1
155071,-90.9090909090909,4,3,1,40,0,1
155934,869.565217391304,4,3,1,40,1,1
155934,-90.9090909090909,4,3,1,40,0,1
158107,850.460666194189,4,3,1,40,1,1
158107,-90.9090909090909,4,3,1,40,0,1
158957,-90.9090909090909,4,3,1,40,0,0
159382,850.460666194189,4,3,1,40,1,1
159382,-90.9090909090909,4,3,1,40,0,1
162783,851.063829787234,4,3,1,40,1,1
162783,-90.9090909090909,4,3,1,40,0,1
163634,-90.9090909090909,4,3,1,30,0,1
164059,-90.9090909090909,4,3,1,40,0,1
168314,872.727272727273,4,3,1,40,1,1
168314,-90.9090909090909,4,3,1,40,0,1
169623,858.369098712446,4,3,1,40,1,1
169623,-90.9090909090909,4,3,1,40,0,1
171768,-90.9090909090909,4,3,1,30,0,1
172198,-100,4,3,1,30,0,1
173056,865.925819021504,4,3,1,30,1,0
174354,-100,4,3,1,40,0,0
176519,857.142857142857,4,3,1,40,1,0
176947,-100,4,3,1,30,0,0
178233,842.696629213483,4,3,1,30,1,0
179918,857.142857142857,4,3,1,40,1,0
181203,-100,4,3,1,30,0,0
181632,860.215053763441,4,3,1,30,1,0
183352,833.333333333333,4,3,1,25,1,1
183352,-90.9090909090909,4,3,1,25,0,1
183768,-90.9090909090909,4,3,1,40,0,1
185018,863.309352517986,4,3,1,40,1,1
185018,-90.9090909090909,4,3,1,40,0,1
185881,848.056537102474,4,3,1,40,1,1
185881,-90.9090909090909,4,3,1,40,0,1
186305,-90.9090909090909,4,3,1,20,0,1
186729,863.309352517986,4,3,1,40,1,1
186729,-90.9090909090909,4,3,1,40,0,1
188455,875.912408759124,4,3,1,40,1,1
188455,-90.9090909090909,4,3,1,40,0,1
189330,869.565217391304,4,3,1,40,1,1
189330,-90.9090909090909,4,3,1,40,0,1
190199,833.333333333333,4,3,1,40,1,1
190199,-90.9090909090909,4,3,1,40,0,1
190615,869.565217391304,4,3,1,40,1,1
190615,-90.9090909090909,4,3,1,40,0,1
191049,869.565217391304,4,3,1,40,1,1
191049,-90.9090909090909,4,3,1,40,0,1
192353,851.063829787234,4,3,1,40,1,1
192353,-90.9090909090909,4,3,1,40,0,1
193629,868.306801736614,4,3,1,40,1,1
193629,-90.9090909090909,4,3,1,40,0,1
195799,851.063829787234,4,3,1,40,1,1
195799,-90.9090909090909,4,3,1,40,0,1
196650,846.859562455893,4,3,1,40,1,0
196650,-90.9090909090909,4,3,1,40,0,0
197073,846.859562455893,4,3,1,40,1,1
197073,-90.9090909090909,4,3,1,40,0,1
200037,888.888888888889,4,3,1,40,1,1
200037,-90.9090909090909,4,3,1,40,0,1
200481,849.85835694051,4,3,1,40,1,1
200481,-90.9090909090909,4,3,1,40,0,1
206430,869.565217391304,4,3,1,40,1,1
206430,-90.9090909090909,4,3,1,40,0,1
207299,872.727272727273,4,3,1,40,1,1
207299,-90.9090909090909,4,3,1,40,0,1
209480,839.160839160839,4,3,1,40,1,1
209480,-90.9090909090909,4,3,1,40,0,1
210319,863.309352517986,4,3,1,40,1,0
210319,-90.9090909090909,4,3,1,40,0,0
210750,863.309352517986,4,3,1,40,1,1
210750,-90.9090909090909,4,3,1,40,0,1
213780,875.912408759124,4,3,1,40,1,1
213780,-90.9090909090909,4,3,1,40,0,1
214208,854.092526690391,4,3,1,40,1,1
214208,-90.9090909090909,4,3,1,40,0,1
215916,845.070422535211,4,3,1,40,1,1
215916,-90.9090909090909,4,3,1,40,0,1
218028,860.215053763441,4,3,1,40,1,1
218028,-90.9090909090909,4,3,1,40,0,1
219748,853.48506401138,4,3,1,40,1,1
219748,-90.9090909090909,4,3,1,40,0,1
221028,843.28882642305,4,3,1,40,1,1
221028,-90.9090909090909,4,3,1,40,0,1
221449,-90.9090909090909,4,3,1,30,0,1
223136,852.272727272727,4,3,1,30,1,1
223136,-90.9090909090909,4,3,1,30,0,1
223988,864.802536754108,4,3,1,30,1,0
223988,-90.9090909090909,4,3,1,30,0,0
224420,864.802536754108,4,3,1,30,1,1
224420,-90.9090909090909,4,3,1,30,0,1
227879,860.832137733142,4,3,1,40,1,1
227879,-90.9090909090909,4,3,1,40,0,1
228309,-90.9090909090909,4,3,1,30,0,1
229600,-90.9090909090909,4,3,1,40,0,1
231322,862.068965517241,4,3,1,40,1,1
231322,-90.9090909090909,4,3,1,40,0,1
231753,-90.9090909090909,4,3,1,30,0,1
233477,854.700854700855,4,3,1,30,1,1
233477,-90.9090909090909,4,3,1,30,0,1
234759,851.063829787234,4,3,1,40,1,1
234759,-90.9090909090909,4,3,1,40,0,1
236035,-90.9090909090909,4,3,1,30,0,1
238163,-100,4,3,1,20,0,0

[Colours]
Combo1 : 181,193,232
Combo2 : 190,228,218

[HitObjects]
259,304,32492,6,0,P|319:236|470:225,2,238.00000453949,0|0|0,3:0|3:0|3:0,3:0:0:0:
54,55,37670,6,0,L|69:207,3,140,4|0|0|0,3:2|3:0|3:2|3:0,3:0:0:0:
200,297,41120,2,0,L|213:157,3,140,0|0|0|0,3:0|3:0|3:0|3:0,3:0:0:0:
372,218,44571,6,0,L|511:204,3,140,0|0|0|0,3:0|3:0|3:0|3:0,3:0:0:0:
361,96,47975,2,0,L|221:82,3,140,0|0|0|0,3:0|3:0|3:0|3:0,3:0:0:0:
134,232,51379,5,0,2:0:0:0:
198,202,51789,2,0,P|280:186|361:207,1,119.000002269745,0|0,2:0|2:0,2:0:0:0:
383,213,53022,2,0,P|255:216|180:341,1,260.400008145447,0|0,3:0|3:0,3:0:0:0:
237,368,55182,1,0,3:0:0:0:
313,356,55617,1,0,3:0:0:0:
324,277,56065,6,0,P|307:201|308:138,3,140,0|0|0|0,3:0|3:0|3:0|3:0,3:0:0:0:
319,63,59100,1,0,3:0:0:0:
273,0,59529,1,0,3:0:0:0:
218,53,59957,1,0,3:0:0:0:
142,37,60387,2,0,P|57:47|3:96,2,140,0|0|0,3:0|3:0|3:0,3:0:0:0:
178,104,62540,1,0,3:0:0:0:
210,174,62971,1,0,3:0:0:0:
246,241,63401,6,0,P|274:261|313:271,2,70,0|0|0,3:0|3:0|3:0,3:0:0:0:
309,195,64691,2,0,P|378:193|440:239,2,140,0|0|0,3:0|3:0|3:0,3:0:0:0:
281,266,66811,1,0,3:0:0:0:
208,292,67239,2,0,P|108:300|44:283,2,140,0|0|0,3:0|3:0|3:0,3:0:0:0:
222,216,69382,2,0,P|225:181|214:142,1,70,0|0,3:0|3:0,3:0:0:0:
145,113,70227,5,0,3:0:0:0:
212,70,70649,2,0,P|274:48|340:52,1,132.999996448517,0|0,3:0|3:0,3:0:0:0:
384,117,71917,2,0,L|365:268,3,132.999996448517,0|0|0|0,3:0|3:0|3:0|3:0,3:0:0:0:
357,326,74917,1,0,3:0:0:0:
295,278,75345,6,0,P|262:264|228:263,2,70,4|0|0,3:2|3:0|3:2,3:0:0:0:
248,339,76644,2,0,P|161:316|115:267,1,140,0|0,3:0|3:0,3:0:0:0:
136,206,77944,2,0,L|237:194,1,70,0|0,3:0|3:0,3:0:0:0:
282,187,78810,1,0,3:0:0:0:
321,120,79241,2,0,P|312:52|264:-4,2,140,0|0|0,3:0|3:0|3:0,3:0:0:0:
333,196,81396,1,0,3:0:0:0:
355,269,81827,1,0,3:0:0:0:
418,222,82258,6,0,P|449:205|483:199,2,70,0|0|0,3:0|3:0|3:0,3:0:0:0:
346,194,83531,2,0,P|276:196|217:232,1,140,0|0,3:0|3:0,3:0:0:0:
165,288,84805,1,0,3:0:0:0:
90,272,85224,2,0,P|53:212|59:144,3,140,0|0|0|0,3:0|3:0|3:0|3:0,3:0:0:0:
127,109,88228,1,4,3:2:0:0:
211,246,89070,5,0,2:0:0:0:
214,204,89486,2,0,P|253:154|322:172,1,119.000002269745,0|0,2:0|2:0,2:0:0:0:
345,185,90736,2,0,L|483:168,3,130.200004072724,0|0|0|0,3:2|3:2|3:2|3:2,3:2:0:0:
479,95,93746,1,0,3:0:0:0:
412,60,94176,6,0,P|387:34|372:2,2,70,4|0|0,3:2|3:0|3:0,3:0:0:0:
345,102,95499,2,0,P|283:136|246:194,1,140,0|0,3:0|3:0,3:0:0:0:
251,270,96784,2,0,P|252:304|242:338,1,70,0|0,3:0|3:0,3:0:0:0:
177,378,97641,1,0,3:0:0:0:
124,322,98071,2,0,P|98:257|106:188,2,140,0|0|0,3:0|3:0|3:0,3:0:0:0:
198,302,100225,1,0,3:0:0:0:
272,283,100656,1,0,3:0:0:0:
293,208,101086,6,0,P|316:182|347:165,2,70,0|0|0,3:0|3:0|3:0,3:0:0:0:
248,145,102369,2,0,P|209:85|149:51,1,140,0|0,3:0|3:0,3:0:0:0:
104,114,103653,1,0,3:0:0:0:
33,145,104081,1,0,3:0:0:0:
21,221,104509,2,0,P|67:320|177:389,2,210,0|0|0,3:0|3:0|3:0,3:0:0:0:
21,67,107925,5,2,1:3:0:0:
43,103,134074,6,0,P|39:59|30:37,2,59.5000011348725,0|0|0,2:2|2:2|2:2,2:0:0:0:
30,177,135333,5,0,3:0:0:0:
96,214,135754,2,0,P|168:226|258:204,1,125.999996154785,0|0,3:0|3:0,3:0:0:0:
294,200,137025,2,0,P|311:159|330:136,2,62.9999980773926,0|0|0,3:0|3:0|3:0,3:0:0:0:
311,273,138301,1,0,3:0:0:0:
372,317,138727,2,0,L|452:312,1,62.9999980773926,0|0,3:0|3:0,3:0:0:0:
467,245,139602,2,0,L|473:150,1,62.9999980773926,0|0,3:0|3:0,3:0:0:0:
498,110,140478,6,0,P|464:81|429:66,1,66.4999982242585,0|0,3:0|3:0,3:0:0:0:
368,73,141317,1,0,3:0:0:0:
307,118,141736,2,0,P|185:176|54:111,1,265.999992897034,0|0,3:0|3:0,3:0:0:0:
94,56,143872,2,0,P|121:157|141:260,1,210,0|0,3:0|3:0,3:0:0:0:
135,347,145636,6,0,P|186:279|178:114,1,231.000007049561,4|0,1:2|3:0,3:0:0:0:
105,98,147344,2,0,P|315:313|499:59,1,697,0|0,3:0|3:0,3:0:0:0:
298,36,152065,5,0,3:0:0:0:
283,127,152494,2,0,P|283:165|294:202,2,77.0000023498536,0|0|0,1:0|3:0|3:0,3:0:0:0:
370,90,153793,2,0,P|358:193|300:308,1,227.2,0|0,3:0|3:0,3:0:0:0:
214,268,155502,1,0,3:0:0:0:
122,274,155934,1,0,1:0:0:0:
92,186,156368,2,0,P|77:79|54:16,2,154.000004699707,0|0|0,3:0|3:0|3:0,3:0:0:0:
251,93,158957,6,0,P|357:73|423:76,4,154.000004699707,0|0|0|0|0,0:2|0:0|0:0|0:0|0:0,0:0:0:0:
260,184,162783,1,0,1:0:0:0:
224,269,163208,2,0,P|199:298|167:319,1,77.0000023498536,0|0,3:0|2:0,3:0:0:0:
77,296,164059,2,0,B|18:199|82:135|17:17,1,231.000007049561,0|0,3:0|3:0,3:0:0:0:
222,41,166187,5,0,1:0:0:0:
307,75,166612,2,0,P|410:74|466:40,2,154.000004699707,0|0|0,3:0|3:0|3:0,3:0:0:0:
217,96,168750,2,0,P|202:131|198:169,1,77.0000023498536,0|0,3:0|3:0,3:0:0:0:
288,195,169623,2,0,B|400:209|433:124|567:136,1,231.000007049561,0|0,1:0|3:0,3:0:0:0:
511,229,171339,2,0,P|501:266|480:298,1,77.0000023498536,0|2,3:0|3:0,3:0:0:0:
410,331,172198,1,2,3:0:0:0:
338,303,172627,1,2,3:0:0:0:
280,353,173056,5,2,3:0:0:0:
204,336,173488,2,0,P|131:331|35:370,1,140,2|0,3:0|3:0,3:0:0:0:
15,293,174787,2,0,P|24:224|-1:160,2,140,2|0|2,3:0|3:0|3:0,3:0:0:0:
84,326,176947,1,2,3:0:0:0:
143,276,177376,2,0,L|196:198,1,70,2|2,3:0|3:0,3:0:0:0:
259,202,178233,5,2,3:0:0:0:
208,143,178654,2,0,P|145:105|41:96,1,140,2|0,3:0|3:0,3:0:0:0:
57,165,179918,2,0,P|157:142|247:50,1,210,2|2,3:0|3:0,3:0:0:0:
270,0,181632,2,0,P|289:103|317:204,1,210,2|2,3:0|3:0,3:0:0:0:
405,252,183352,6,0,P|324:101|49:257,1,546,4|0,1:2|2:0,3:0:0:0:
100,319,186729,2,0,P|277:171|511:204,1,464,0|0,1:0|3:0,3:0:0:0:
373,362,190199,5,0,1:0:0:0:
331,283,190615,2,0,P|318:216|341:132,2,154.000004699707,0|0|0,3:0|3:0|3:0,3:0:0:0:
287,364,192778,2,0,P|249:371|211:367,1,77.0000023498536,0|0,3:0|3:0,3:0:0:0:
127,332,193629,1,0,1:0:0:0:
122,239,194063,2,0,P|103:173|44:108,2,154.000004699707,0|0|0,3:0|3:0|3:0,3:0:0:0:
307,225,196650,6,0,P|375:215|458:242,4,154.000004699707,0|0|0|0|0,3:0|3:0|3:0|3:0|3:0,3:0:0:0:
225,276,200481,1,0,1:0:0:0:
145,229,200905,2,0,P|123:164|124:79,1,154.000004699707,0|0,3:0|3:0,3:0:0:0:
214,57,202180,2,0,L|50:256,1,231.000007049561,2|0,0:0|3:0,3:0:0:0:
90,324,203880,5,0,1:0:0:0:
169,277,204305,2,0,P|243:258|317:273,2,154.000004699707,0|0|0,3:0|3:0|3:0,3:0:0:0:
213,355,206430,2,0,P|248:368|287:371,1,77.0000023498536,0|0,3:0|3:0,3:0:0:0:
375,346,207299,1,0,1:0:0:0:
408,259,207735,2,0,P|447:193|510:151,2,154.000004699707,0|0|0,3:0|3:0|3:0,3:0:0:0:
213,249,210319,6,0,P|105:257|42:277,2,154.000004699707,0|0|0,0:0|3:0|3:0,3:0:0:0:
300,296,212476,2,0,L|156:112,1,231.000007049561,2|0,3:0|3:0,3:0:0:0:
249,68,214208,1,0,1:0:0:0:
344,96,214635,2,0,P|420:94|488:59,1,154.000004699707,0|0,3:0|3:0,3:0:0:0:
394,19,215916,2,0,L|371:243,1,154.000004699707,2|0,3:3|3:0,3:0:0:0:
294,210,217183,1,0,3:0:0:0:
208,158,217606,5,0,1:2:0:0:
277,100,218028,2,0,P|349:77|425:88,2,154.000004699707,0|0|0,3:0|3:0|3:0,3:0:0:0:
269,191,220174,2,0,L|288:275,1,77.0000023498536,0|0,3:0|3:0,3:0:0:0:
256,355,221028,1,0,1:2:0:0:
172,316,221449,2,0,P|96:306|23:330,2,154.000004699707,0|0|0,1:0|1:0|1:0,3:0:0:0:
354,240,223988,6,0,P|430:250|503:226,2,154.000004699707,0|0|0,1:0|1:0|1:0,3:0:0:0:
264,284,226149,2,0,L|425:106,1,231.000007049561,2|0,3:3|3:0,3:0:0:0:
330,64,227879,1,0,1:0:0:0:
234,92,228309,2,0,P|126:97|52:72,1,154.000004699707,0|0,1:0|1:0,3:0:0:0:
27,1,229600,2,0,L|39:171,1,154.000004699707,2|0,3:0|3:0,3:0:0:0:
6,352,231322,5,0,1:2:0:0:
104,332,231753,2,0,P|180:329|256:343,2,154.000004699707,0|0|0,1:0|1:0|1:0,3:0:0:0:
155,246,233904,2,0,P|176:214|189:178,1,77.0000023498536,0|0,1:0|1:0,3:0:0:0:
291,142,234759,2,0,P|254:248|289:355,2,231.000007049561,0|0|0,1:2|1:0|1:0,3:0:0:0:
493,189,238163,5,4,1:2:0:0:
