osu file format v14

[General]
AudioFilename: audio.mp3
AudioLeadIn: 0
PreviewTime: 77893
Countdown: 0
SampleSet: Normal
StackLeniency: 0.7
Mode: 0
LetterboxInBreaks: 0
WidescreenStoryboard: 0

[Editor]
Bookmarks: 23078,45021,66964,72450,99878,138278,143764,187650,302507
DistanceSpacing: 1.2
BeatDivisor: 4
GridSize: 32
TimelineZoom: 1

[Metadata]
Title:Summer Days (feat. Takura)
TitleUnicode:Summer Days (feat. Takura)
Artist:Sigma
ArtistUnicode:Sigma
Creator:Slips
Version:Expert
Source:
Tags:dnb drum and n & bass
BeatmapID:1971903
BeatmapSetID:944192

[Difficulty]
HPDrainRate:6
CircleSize:4
OverallDifficulty:9
ApproachRate:9.2
SliderMultiplier:1.92
SliderTickRate:1

[Events]
//Background and Video events
0,0,"1920x1080-5043567-anime-girl-original-anime-sunset.jpg",0,0
//Break Periods
//Storyboard Layer 0 (Background)
//Storyboard Layer 1 (Fail)
//Storyboard Layer 2 (Pass)
//Storyboard Layer 3 (Foreground)
//Storyboard Sound Samples

[TimingPoints]
1136,342.857142857143,4,1,1,60,1,0
1136,-111.111111111111,4,1,1,60,0,0
22907,-111.111111111111,4,1,1,5,0,0
23078,-111.111111111111,4,1,1,60,0,0
45021,-133.333333333333,4,1,1,40,0,0
55993,-133.333333333333,4,1,1,40,0,0
72450,-100,4,1,1,40,0,0
76564,-100,4,1,1,60,0,0
77936,-100,4,1,1,80,0,1
119078,-100,4,1,1,60,0,0
121821,-100,4,1,1,80,0,1
165707,-100,4,1,1,60,0,0
209593,-100,4,1,1,80,0,1
250736,-100,4,1,1,60,0,0
253478,-100,4,1,1,80,0,1
297364,-100,4,1,1,60,0,0

[Colours]
Combo1 : 255,176,176
Combo2 : 249,6,67
Combo3 : 128,0,64

[HitObjects]
130,111,1136,6,0,P|87:108|46:121,2,86.3999973632813,4|0|8,3:1|0:0|0:0,0:0:0:0:
235,171,1650,2,0,L|228:221,1,43.1999986816407
185,282,1821,1,0,0:0:0:0:
187,295,1907,2,0,L|193:337,1,43.1999986816407,0|0,0:0|3:0,0:0:0:0:
338,188,2164,2,0,P|380:184|421:197,1,86.3999973632813,8|0,0:0|0:0,0:0:0:0:
512,356,2507,6,0,P|487:320|478:278,1,86.3999973632813,0|0,3:0|0:0,0:0:0:0:
512,98,2850,1,8,0:0:0:0:
427,12,3021,1,0,0:0:0:0:
414,14,3107,2,0,L|372:20,1,43.1999986816407
309,69,3278,1,0,0:0:0:0:
296,67,3364,1,0,3:0:0:0:
139,0,3536,2,0,L|150:90,1,86.3999973632813,8|0,0:0|0:0,0:0:0:0:
227,287,3878,6,0,L|238:202,1,86.3999973632813,0|0,3:0|0:0,0:0:0:0:
102,318,4221,1,8,0:0:0:0:
306,253,4392,1,0,0:0:0:0:
319,255,4478,2,0,L|361:261,1,43.1999986816407
424,310,4649,1,0,0:0:0:0:
437,308,4735,1,0,3:0:0:0:
502,107,4907,2,0,L|513:197,1,86.3999973632813,8|0,0:0|0:0,0:0:0:0:
295,338,5250,6,0,L|306:253,1,86.3999973632813,0|0,3:0|0:0,0:0:0:0:
222,75,5593,1,8,0:0:0:0:
98,195,5764,2,0,L|91:145,1,43.1999986816407
48,84,5935,1,0,0:0:0:0:
50,71,6021,2,0,L|56:29,1,43.1999986816407,0|0,0:0|3:0,0:0:0:0:
222,75,6278,2,0,P|264:77|305:63,1,86.3999973632813,8|0,0:0|0:0,0:0:0:0:
359,5,6535,1,0,3:0:0:0:
372,7,6621,6,0,P|413:18|447:45,2,86.3999973632813,4|0|8,3:1|0:0|0:0,0:0:0:0:
222,75,7136,1,0,0:0:0:0:
224,88,7222,2,0,L|230:130,1,43.1999986816407
279,193,7393,1,0,0:0:0:0:
277,206,7479,1,0,3:0:0:0:
257,364,7650,2,0,L|172:353,1,86.3999973632813,8|0,0:0|0:0,0:0:0:0:
61,177,7993,6,0,L|146:166,1,86.3999973632813,0|0,3:0|0:0,0:0:0:0:
0,276,8336,1,8,0:0:0:0:
168,79,8507,1,0,0:0:0:0:
181,81,8593,2,0,L|223:87,1,43.1999986816407
286,136,8764,1,0,0:0:0:0:
299,134,8850,1,0,3:0:0:0:
457,0,9021,2,0,P|443:40|447:83,1,86.3999973632813,8|0,0:0|0:0,0:0:0:0:
501,273,9364,6,0,L|512:188,1,86.3999973632813,0|0,3:0|0:0,0:0:0:0:
319,318,9707,1,8,0:0:0:0:
299,134,9878,2,0,B|308:215|308:215|307:224|307:224|318:320,1,172.799994726563
174,167,10393,2,0,P|132:163|91:176,1,86.3999973632813,8|0,0:0|0:0,0:0:0:0:
0,335,10736,6,0,P|25:299|34:257,1,86.3999973632813,0|0,3:0|0:0,0:0:0:0:
0,62,11078,1,8,0:0:0:0:
131,265,11250,1,0,0:0:0:0:
206,88,11421,1,0,0:0:0:0:
33,257,11593,1,0,3:0:0:0:
264,164,11764,1,8,0:0:0:0:
122,78,11936,1,0,0:0:0:0:
122,78,12021,1,0,3:0:0:0:
122,78,12107,6,0,P|163:91|206:88,2,86.3999973632813,4|0|8,3:1|0:0|0:0,0:0:0:0:
219,251,12621,1,0,0:0:0:0:
232,249,12707,2,0,L|274:243,1,43.1999986816407
337,194,12878,1,0,0:0:0:0:
350,196,12964,1,0,3:0:0:0:
471,298,13136,2,0,L|460:383,1,86.3999973632813,8|0,0:0|0:0,0:0:0:0:
350,196,13478,6,0,L|361:111,1,86.3999973632813,0|0,3:0|0:0,0:0:0:0:
219,251,13821,1,8,0:0:0:0:
54,204,13993,2,0,L|61:254,1,43.1999986816407
104,315,14164,1,0,0:0:0:0:
102,328,14250,2,0,L|96:370,1,43.1999986816407,0|0,0:0|3:0,0:0:0:0:
219,251,14507,2,0,P|223:209|210:168,1,86.3999973632813,8|0,0:0|0:0,0:0:0:0:
51,77,14850,6,0,P|87:102|129:111,1,86.3999973632813,0|0,3:0|0:0,0:0:0:0:
276,44,15193,1,8,0:0:0:0:
390,112,15364,2,0,L|383:162,1,43.1999986816407
340,223,15535,1,0,0:0:0:0:
342,236,15621,2,0,L|348:278,1,43.1999986816407,0|0,0:0|3:0,0:0:0:0:
499,384,15878,2,0,L|510:299,1,86.3999973632813,8|0,0:0|0:0,0:0:0:0:
303,151,16221,6,0,L|218:162,1,86.3999973632813,0|0,3:0|0:0,0:0:0:0:
105,274,16564,1,8,0:0:0:0:
259,64,16736,1,0,0:0:0:0:
272,66,16822,2,0,L|314:72,1,43.1999986816407
377,121,16993,1,0,0:0:0:0:
390,119,17079,1,0,3:0:0:0:
501,0,17250,2,0,L|512:85,1,86.3999973632813,8|0,0:0|0:0,0:0:0:0:
482,159,17507,1,0,3:0:0:0:
477,171,17593,6,0,P|466:212|472:255,2,86.3999973632813,0|0|8,3:0|0:0|0:0,0:0:0:0:
385,313,18107,1,0,0:0:0:0:
372,311,18193,2,0,L|330:305,1,43.1999986816407
267,256,18364,1,0,0:0:0:0:
254,258,18450,1,0,3:0:0:0:
87,330,18621,2,0,P|72:290|75:247,1,86.3999973632813,8|0,0:0|0:0,0:0:0:0:
207,120,18964,6,0,P|178:152|139:171,1,86.3999973632813,0|0,3:0|0:0,0:0:0:0:
41,39,19307,1,8,0:0:0:0:
220,118,19478,2,0,L|270:111,1,43.1999986816407
331,68,19649,1,0,0:0:0:0:
344,70,19735,2,0,L|386:76,1,43.1999986816407,0|0,0:0|3:0,0:0:0:0:
501,267,19993,2,0,L|512:182,1,86.3999973632813,8|0,0:0|0:0,0:0:0:0:
331,68,20336,6,0,L|342:153,1,86.3999973632813,0|0,3:0|0:0,0:0:0:0:
184,86,20678,1,8,0:0:0:0:
209,268,20850,2,0,P|205:181|188:97,1,172.799994726563
0,11,21364,2,0,L|85:0,1,86.3999973632813,8|0,0:0|0:0,0:0:0:0:
209,268,21707,6,0,L|124:257,1,86.3999973632813,0|0,3:0|0:0,0:0:0:0:
342,153,22050,1,8,0:0:0:0:
198,353,22221,2,0,L|209:268,1,86.3999973632813,0|0,3:0|0:0,0:0:0:0:
257,76,22564,1,0,3:0:0:0:
438,226,22736,2,0,L|427:141,1,86.3999973632813,8|0,0:0|0:0,0:0:0:0:
172,87,23078,6,0,L|257:76,1,86.3999973632813,4|0,3:1|0:0,0:0:0:0:
54,188,23421,1,8,0:0:0:0:
33,17,23593,1,0,0:0:0:0:
38,59,23678,1,0,0:0:0:0:
43,102,23764,1,0,0:0:0:0:
48,145,23850,1,0,0:0:0:0:
54,188,23935,1,0,3:0:0:0:
0,362,24107,1,8,0:0:0:0:
160,216,24278,1,0,0:0:0:0:
160,216,24364,1,0,0:0:0:0:
160,216,24450,6,0,P|202:211|243:224,1,86.3999973632813,0|0,3:0|0:0,0:0:0:0:
410,343,24793,2,0,P|385:307|376:264,1,86.3999973632813,8|0,0:0|0:0,0:0:0:0:
377,265,25050,1,0,0:0:0:0:
377,265,25136,1,0,0:0:0:0:
512,97,25307,1,0,3:0:0:0:
313,164,25478,1,8,0:0:0:0:
462,274,25650,1,0,0:0:0:0:
462,274,25736,1,0,0:0:0:0:
462,274,25821,6,0,L|376:264,1,86.3999973632813,0|0,3:0|0:0,0:0:0:0:
227,152,26164,1,8,0:0:0:0:
115,384,26336,1,0,0:0:0:0:
126,342,26421,1,0,0:0:0:0:
120,300,26507,1,0,0:0:0:0:
97,263,26593,1,0,0:0:0:0:
62,238,26678,1,0,3:0:0:0:
0,44,26850,2,0,L|85:55,1,86.3999973632813,8|0,0:0|0:0,0:0:0:0:
312,141,27193,6,0,L|227:152,1,86.3999973632813,0|0,3:0|0:0,0:0:0:0:
419,53,27536,1,8,0:0:0:0:
494,244,27707,1,0,0:0:0:0:
473,205,27792,1,0,0:0:0:0:
470,163,27878,1,0,0:0:0:0:
484,122,27964,1,0,0:0:0:0:
512,89,28049,1,0,3:0:0:0:
312,141,28221,1,8,0:0:0:0:
364,341,28393,1,0,0:0:0:0:
364,341,28478,1,0,3:0:0:0:
364,341,28564,6,0,L|279:330,1,86.3999973632813,0|0,3:0|0:0,0:0:0:0:
141,163,28907,2,0,L|226:152,1,86.3999973632813,8|0,0:0|0:0,0:0:0:0:
226,151,29164,1,0,0:0:0:0:
226,151,29250,1,0,0:0:0:0:
114,286,29421,1,0,3:0:0:0:
0,58,29593,2,0,L|11:143,1,86.3999973632813,8|0,0:0|0:0,0:0:0:0:
215,236,29936,6,0,L|226:151,1,86.3999973632813,0|0,3:0|0:0,0:0:0:0:
374,304,30278,1,8,0:0:0:0:
353,133,30451,1,0,0:0:0:0:
358,175,30536,1,0,0:0:0:0:
363,218,30622,1,0,0:0:0:0:
368,261,30708,1,0,0:0:0:0:
374,304,30793,1,0,3:0:0:0:
490,151,30964,1,8,0:0:0:0:
277,96,31136,1,0,0:0:0:0:
277,96,31221,1,0,0:0:0:0:
277,96,31307,6,0,P|311:123|353:133,1,86.3999973632813,0|0,3:0|0:0,0:0:0:0:
171,0,31650,2,0,P|129:9|95:36,2,86.3999973632813,8|0|0,0:0|0:0|0:0,0:0:0:0:
112,228,32164,1,0,3:0:0:0:
0,106,32336,1,8,0:0:0:0:
197,217,32507,1,0,0:0:0:0:
197,217,32593,1,0,0:0:0:0:
197,217,32678,6,0,L|112:228,1,86.3999973632813,0|0,3:0|0:0,0:0:0:0:
210,384,33021,1,8,0:0:0:0:
370,177,33193,1,0,0:0:0:0:
393,214,33278,1,0,0:0:0:0:
427,238,33364,1,0,0:0:0:0:
469,246,33450,1,0,0:0:0:0:
512,239,33535,1,0,3:0:0:0:
364,28,33707,1,8,0:0:0:0:
284,197,33878,1,0,0:0:0:0:
284,197,33964,1,0,3:0:0:0:
284,197,34050,6,0,L|199:186,1,86.3999973632813,4|0,3:1|0:0,0:0:0:0:
80,84,34393,1,8,0:0:0:0:
59,255,34565,1,0,0:0:0:0:
64,213,34650,1,0,0:0:0:0:
69,170,34736,1,0,0:0:0:0:
74,127,34822,1,0,0:0:0:0:
80,84,34907,1,0,3:0:0:0:
275,0,35078,1,8,0:0:0:0:
198,185,35250,1,0,0:0:0:0:
198,185,35336,1,0,0:0:0:0:
198,185,35421,6,0,P|192:227|206:267,1,86.3999973632813,0|0,3:0|0:0,0:0:0:0:
378,384,35764,2,0,P|344:357|302:349,1,86.3999973632813,8|0,0:0|0:0,0:0:0:0:
302,349,36021,1,0,0:0:0:0:
302,349,36107,1,0,0:0:0:0:
121,278,36278,1,0,3:0:0:0:
275,92,36450,2,0,L|360:103,1,86.3999973632813,8|0,0:0|0:0,0:0:0:0:
206,267,36793,6,0,L|121:278,1,86.3999973632813,0|0,3:0|0:0,0:0:0:0:
13,117,37136,1,8,0:0:0:0:
34,288,37307,1,0,0:0:0:0:
29,246,37392,1,0,0:0:0:0:
24,203,37478,1,0,0:0:0:0:
19,160,37564,1,0,0:0:0:0:
13,117,37649,1,0,3:0:0:0:
190,81,37821,2,0,L|275:92,1,86.3999973632813,8|0,0:0|0:0,0:0:0:0:
406,265,38164,6,0,L|321:276,1,86.3999973632813,0|0,3:0|0:0,0:0:0:0:
512,83,38507,1,8,0:0:0:0:
491,254,38678,1,0,0:0:0:0:
496,212,38763,1,0,0:0:0:0:
501,169,38849,1,0,0:0:0:0:
506,126,38935,1,0,0:0:0:0:
512,83,39020,1,0,3:0:0:0:
320,276,39193,1,8,0:0:0:0:
186,108,39364,1,0,0:0:0:0:
186,108,39450,1,0,3:0:0:0:
186,108,39536,6,0,P|143:102|103:116,1,86.3999973632813,0|0,3:0|0:0,0:0:0:0:
0,289,39878,2,0,P|26:255|34:213,1,86.3999973632813,8|0,0:0|0:0,0:0:0:0:
34,213,40136,1,0,0:0:0:0:
34,213,40221,1,0,0:0:0:0:
0,0,40393,1,0,3:0:0:0:
186,108,40564,2,0,L|175:193,1,86.3999973632813,8|0,0:0|0:0,0:0:0:0:
362,85,40907,6,0,L|351:0,1,86.3999973632813,0|0,3:0|0:0,0:0:0:0:
174,193,41250,1,8,0:0:0:0:
257,318,41421,1,0,0:0:0:0:
289,346,41506,1,0,0:0:0:0:
330,359,41592,1,0,0:0:0:0:
371,356,41678,1,0,0:0:0:0:
411,335,41763,1,0,3:0:0:0:
256,184,41936,2,0,P|214:178|174:193,1,86.3999973632813,8|0,0:0|0:0,0:0:0:0:
11,384,42278,6,0,L|0:299,1,86.3999973632813,0|0,3:0|0:0,0:0:0:0:
162,107,42621,2,0,P|119:112|79:98,2,86.3999973632813,8|0|0,0:0|0:0|0:0,0:0:0:0:
339,0,43136,1,0,3:0:0:0:
256,184,43307,1,8,0:0:0:0:
440,268,43478,1,0,0:0:0:0:
440,268,43564,1,0,0:0:0:0:
440,268,43650,6,0,L|428:362,1,86.3999973632813,0|0,3:0|0:0,0:0:0:0:
256,184,43993,1,8,0:0:0:0:
150,324,44164,2,0,L|139:238,1,86.3999973632813,0|0,3:0|0:0,0:0:0:0:
256,184,44507,1,0,3:0:0:0:
256,184,44678,2,0,L|267:99,1,86.3999973632813,8|0,0:0|0:0,0:0:0:0:
21,13,45021,5,4,3:1:0:0:
153,92,45536,1,0,0:0:0:0:
0,106,46050,1,0,0:0:0:0:
116,5,46564,1,0,0:0:0:0:
82,155,47078,1,0,0:0:0:0:
0,106,47421,1,0,0:0:0:0:
278,383,47764,5,0,0:0:0:0:
333,212,48278,1,0,0:0:0:0:
279,289,48793,1,0,0:0:0:0:
421,178,49307,1,0,0:0:0:0:
333,212,49821,1,0,0:0:0:0:
512,198,50164,1,0,0:0:0:0:
319,32,50507,5,0,0:0:0:0:
319,32,50678,1,0,0:0:0:0:
512,198,51021,1,0,0:0:0:0:
512,198,51192,1,0,0:0:0:0:
333,212,51536,1,0,0:0:0:0:
333,212,51707,1,0,0:0:0:0:
498,18,52050,1,0,0:0:0:0:
498,18,52221,1,0,0:0:0:0:
333,212,52564,1,0,0:0:0:0:
333,212,52735,1,0,0:0:0:0:
415,115,52907,1,0,0:0:0:0:
415,115,53078,1,0,0:0:0:0:
153,92,53250,5,0,0:0:0:0:
256,192,53336,12,0,55821,0:0:0:0:
153,92,55993,6,0,B|134:163|134:163|153:230,1,144.000005493164,4|0,3:1|0:0,0:0:0:0:
410,158,56507,2,0,B|339:139|339:139|272:159,1,144.000005493164
457,344,57021,2,0,B|433:274|488:210|488:210|522:136|481:58,1,288.000010986329
487,71,58050,2,0,L|340:89,1,144.000005493164
344,88,58564,1,0,0:0:0:0:
230,211,61478,6,0,L|145:200,1,72.0000027465821
40,26,61821,2,0,B|21:97|21:97|40:164,1,144.000005493164
95,297,62336,1,0,0:0:0:0:
95,297,62507,1,0,0:0:0:0:
158,92,62678,1,0,0:0:0:0:
230,211,62850,2,0,B|326:240|297:184|411:216|411:216|465:194|526:217,1,288.000010986329
512,212,63878,2,0,L|503:283,1,72.0000027465821
334,208,64221,6,0,B|322:138|322:138|350:70,1,144.000005493164
257,295,64907,2,0,B|188:322|188:322|119:311,2,144.000005493164
466,225,66964,6,0,P|397:239|334:208,1,144.000005493164,4|8,3:1|0:0,0:0:0:0:
158,83,67478,2,0,P|205:135|209:206,1,144.000005493164,0|0,0:0|3:0,0:0:0:0:
103,287,67993,1,8,0:0:0:0:
15,62,68336,6,0,L|158:83,1,144.000005493164,0|8,3:0|0:0,0:0:0:0:
158,83,69193,1,0,3:0:0:0:
300,62,69364,1,8,0:0:0:0:
300,62,69707,6,0,B|327:126|327:126|317:199,1,144.000005493164,0|8,3:0|0:0,0:0:0:0:
317,199,70564,1,0,3:0:0:0:
296,341,70735,1,8,0:0:0:0:
379,126,71078,6,0,P|443:157|512:142,1,144.000005493164,0|8,3:0|0:0,0:0:0:0:
512,142,71936,1,0,3:0:0:0:
491,0,72107,1,8,0:0:0:0:
317,199,72450,6,0,L|310:251,3,48,0|0|0|0,3:0|0:0|0:0|0:0,0:0:0:0:
200,163,72793,2,0,L|194:115,3,48,8|0|0|0,0:0|0:0|0:0|0:0,0:0:0:0:
289,79,73136,2,0,L|336:73,3,48,0|0|0|0,3:0|0:0|3:0|0:0,0:0:0:0:
111,247,73478,2,0,L|63:241,3,48,8|0|0|0,0:0|0:0|0:0|0:0,0:0:0:0:
0,0,73821,5,0,3:0:0:0:
24,40,73906,1,0,0:0:0:0:
67,61,73992,1,0,0:0:0:0:
114,57,74078,1,0,0:0:0:0:
152,28,74164,2,0,P|175:27|199:33,3,48,8|0|0|0,0:0|0:0|0:0|0:0,0:0:0:0:
322,151,74507,2,0,L|317:199,1,48,0|0,3:0|0:0,0:0:0:0:
216,312,74678,2,0,L|210:264,1,48,0|0,3:0|0:0,0:0:0:0:
333,55,74850,1,8,0:0:0:0:
344,56,74935,1,0,0:0:0:0:
356,57,75021,1,0,0:0:0:0:
368,59,75107,1,0,3:0:0:0:
380,60,75193,5,0,3:0:0:0:
356,101,75278,1,0,0:0:0:0:
357,148,75364,1,0,3:0:0:0:
382,189,75450,1,0,0:0:0:0:
423,212,75536,1,8,0:0:0:0:
376,210,75621,1,0,0:0:0:0:
333,230,75707,1,0,3:0:0:0:
305,269,75793,1,0,0:0:0:0:
300,316,75878,5,0,3:0:0:0:
276,357,75963,1,0,0:0:0:0:
235,380,76049,1,0,3:0:0:0:
187,379,76135,1,0,0:0:0:0:
147,354,76220,1,8,0:0:0:0:
125,312,76306,1,0,0:0:0:0:
128,264,76392,1,0,3:0:0:0:
154,225,76478,1,0,0:0:0:0:
197,204,76564,5,0,3:0:0:0:
223,159,76649,1,0,3:0:0:0:
221,106,76735,1,0,3:0:0:0:
192,63,76821,1,0,3:0:0:0:
144,42,76906,1,8,0:0:0:0:
93,50,76992,1,0,3:0:0:0:
53,84,77078,1,0,3:0:0:0:
38,134,77164,1,0,3:0:0:0:
51,183,77250,5,0,3:0:0:0:
108,175,77335,1,0,3:0:0:0:
165,167,77421,1,0,3:0:0:0:
223,159,77507,1,0,3:0:0:0:
280,150,77592,1,8,0:0:0:0:
337,142,77678,1,0,3:0:0:0:
394,134,77764,1,0,3:0:0:0:
451,126,77850,1,0,3:0:0:0:
508,118,77935,5,4,3:1:0:0:
388,0,78107,1,0,0:0:0:0:
342,242,78278,1,8,0:0:0:0:
222,158,78450,1,0,0:0:0:0:
179,138,78535,1,0,0:0:0:0:
132,136,78621,1,0,0:0:0:0:
87,151,78707,1,0,0:0:0:0:
51,183,78792,1,0,3:0:0:0:
179,355,78964,2,0,P|225:363|270:346,1,96,8|0,0:0|0:0,0:0:0:0:
331,249,79221,1,0,0:0:0:0:
342,242,79307,6,0,P|388:233|433:250,1,96,0|0,3:0|0:0,0:0:0:0:
512,384,79650,1,8,0:0:0:0:
331,249,79821,1,0,0:0:0:0:
318,202,79906,1,0,0:0:0:0:
324,155,79992,1,0,0:0:0:0:
347,113,80078,1,0,0:0:0:0:
384,85,80163,1,0,3:0:0:0:
192,0,80336,2,0,L|89:12,1,96,8|0,0:0|0:0,0:0:0:0:
384,85,80678,6,0,L|479:73,1,96,0|0,3:0|0:0,0:0:0:0:
218,275,81021,1,8,0:0:0:0:
434,181,81193,2,0,B|398:166|350:170|350:170|323:154|323:154|287:161|247:145,1,192,0|0,0:0|3:0,0:0:0:0:
89,246,81707,1,8,0:0:0:0:
0,38,81878,1,0,0:0:0:0:
0,38,81964,1,0,0:0:0:0:
0,38,82050,5,0,3:0:0:0:
178,148,82221,1,0,0:0:0:0:
0,344,82393,1,8,0:0:0:0:
89,246,82564,1,0,0:0:0:0:
137,237,82649,1,0,0:0:0:0:
183,248,82735,1,0,0:0:0:0:
223,275,82821,1,0,0:0:0:0:
246,315,82906,1,0,3:0:0:0:
400,384,83078,2,0,L|413:276,1,96,8|0,0:0|0:0,0:0:0:0:
499,108,83335,1,0,3:0:0:0:
501,121,83421,6,0,L|514:229,1,96,0|0,3:0|0:0,0:0:0:0:
246,315,83764,1,8,0:0:0:0:
333,189,83936,1,0,0:0:0:0:
341,140,84021,1,0,0:0:0:0:
330,94,84107,1,0,0:0:0:0:
303,54,84193,1,0,0:0:0:0:
263,31,84278,1,0,3:0:0:0:
95,0,84450,2,0,L|0:11,1,96,8|0,0:0|0:0,0:0:0:0:
0,11,84707,1,0,0:0:0:0:
0,11,84793,5,0,3:0:0:0:
88,213,84964,1,0,0:0:0:0:
263,31,85136,1,8,0:0:0:0:
341,140,85307,1,0,0:0:0:0:
346,187,85392,1,0,0:0:0:0:
352,235,85478,1,0,0:0:0:0:
358,282,85564,1,0,0:0:0:0:
364,330,85649,1,0,3:0:0:0:
436,153,85821,2,0,P|432:105|405:66,1,96,8|0,0:0|0:0,0:0:0:0:
169,0,86164,5,0,3:0:0:0:
253,205,86336,1,0,0:0:0:0:
405,66,86507,1,8,0:0:0:0:
122,90,86678,1,0,0:0:0:0:
122,90,86764,1,0,0:0:0:0:
122,90,86850,1,0,0:0:0:0:
317,261,87021,1,0,3:0:0:0:
258,17,87193,2,0,P|216:-3|169:0,1,96,8|0,0:0|0:0,0:0:0:0:
227,243,87536,6,0,P|269:264|317:261,1,96,0|0,3:0|0:0,0:0:0:0:
461,166,87878,1,8,0:0:0:0:
185,130,88050,1,0,0:0:0:0:
145,153,88135,1,0,0:0:0:0:
118,193,88221,1,0,0:0:0:0:
107,239,88307,1,0,0:0:0:0:
115,288,88392,1,0,3:0:0:0:
393,373,88564,2,0,L|297:384,1,96,8|0,0:0|0:0,0:0:0:0:
115,288,88821,1,0,3:0:0:0:
128,290,88907,6,0,L|236:303,1,96,4|0,3:1|0:0,0:0:0:0:
407,163,89250,1,8,0:0:0:0:
261,45,89421,1,0,0:0:0:0:
218,25,89506,1,0,0:0:0:0:
171,23,89592,1,0,0:0:0:0:
126,38,89678,1,0,0:0:0:0:
90,70,89763,1,0,3:0:0:0:
235,259,89936,2,0,P|282:262|324:240,1,96,8|0,0:0|0:0,0:0:0:0:
436,76,90278,6,0,P|409:115|406:162,1,96,0|0,3:0|0:0,0:0:0:0:
426,332,90621,1,8,0:0:0:0:
258,168,90793,1,0,0:0:0:0:
258,168,90878,1,0,0:0:0:0:
258,168,90964,1,0,0:0:0:0:
495,146,91136,1,0,3:0:0:0:
313,313,91307,1,8,0:0:0:0:
144,97,91478,1,0,0:0:0:0:
144,97,91564,1,0,0:0:0:0:
144,97,91650,6,0,L|37:83,1,96,0|0,3:0|0:0,0:0:0:0:
258,168,91993,1,8,0:0:0:0:
123,320,92164,2,0,B|233:295|198:344|328:309,1,192,0|0,0:0|3:0,0:0:0:0:
458,219,92678,1,8,0:0:0:0:
258,168,92850,1,0,0:0:0:0:
258,168,92936,1,0,0:0:0:0:
258,168,93021,5,0,3:0:0:0:
423,319,93193,1,0,0:0:0:0:
363,64,93364,1,8,0:0:0:0:
197,235,93536,1,0,0:0:0:0:
149,239,93621,1,0,0:0:0:0:
104,224,93707,1,0,0:0:0:0:
67,195,93793,1,0,0:0:0:0:
44,153,93878,1,0,3:0:0:0:
0,0,94050,1,8,0:0:0:0:
197,235,94221,1,0,0:0:0:0:
197,235,94307,1,0,3:0:0:0:
197,235,94393,6,0,L|190:293,3,48,0|0|0|0,3:0|0:0|0:0|0:0,0:0:0:0:
301,147,94736,2,0,L|307:88,3,48,8|0|0|0,0:0|0:0|0:0|0:0,0:0:0:0:
173,101,95078,2,0,L|125:95,3,48,0|0|0|0,0:0|0:0|3:0|0:0,0:0:0:0:
325,281,95421,2,0,L|372:275,3,48,8|0|0|0,0:0|0:0|0:0|0:0,0:0:0:0:
479,18,95764,5,0,3:0:0:0:
440,46,95849,1,0,0:0:0:0:
426,91,95935,1,0,0:0:0:0:
435,137,96021,1,0,0:0:0:0:
467,172,96107,1,8,0:0:0:0:
495,210,96193,1,0,0:0:0:0:
501,258,96279,1,0,0:0:0:0:
482,301,96365,1,0,0:0:0:0:
445,330,96450,5,0,0:0:0:0:
398,336,96536,1,0,0:0:0:0:
354,318,96622,1,0,3:0:0:0:
325,281,96707,1,0,0:0:0:0:
327,232,96793,2,0,L|333:177,1,48,8|0,0:0|0:0,0:0:0:0:
177,50,96964,2,0,L|182:97,1,48
142,337,97136,5,0,3:0:0:0:
141,326,97221,1,0,0:0:0:0:
140,314,97307,1,0,0:0:0:0:
138,302,97393,1,0,0:0:0:0:
137,290,97478,1,8,0:0:0:0:
174,319,97563,1,0,0:0:0:0:
221,325,97649,1,0,0:0:0:0:
265,307,97735,1,0,0:0:0:0:
293,269,97820,5,0,0:0:0:0:
298,222,97906,1,0,0:0:0:0:
279,178,97992,1,0,3:0:0:0:
240,151,98078,1,0,0:0:0:0:
193,147,98163,1,8,0:0:0:0:
150,167,98250,1,0,0:0:0:0:
107,187,98336,1,0,0:0:0:0:
59,183,98421,1,0,0:0:0:0:
21,155,98507,5,0,3:0:0:0:
2,112,98593,1,0,0:0:0:0:
7,65,98679,1,0,0:0:0:0:
35,27,98764,1,0,0:0:0:0:
79,8,98850,1,8,0:0:0:0:
126,15,98936,1,0,0:0:0:0:
163,44,99021,5,0,3:0:0:0:
203,18,99106,1,0,0:0:0:0:
250,17,99192,1,0,0:0:0:0:
292,39,99278,1,0,0:0:0:0:
317,80,99363,1,0,3:0:0:0:
318,127,99449,1,0,0:0:0:0:
295,169,99536,1,8,0:0:0:0:
272,216,99621,1,0,0:0:0:0:
276,268,99707,1,0,0:0:0:0:
305,311,99793,1,0,0:0:0:0:
352,333,99878,5,4,3:1:0:0:
399,159,100050,1,0,0:0:0:0:
225,113,100221,1,8,0:0:0:0:
421,256,100393,1,0,0:0:0:0:
421,256,100478,1,0,0:0:0:0:
421,256,100564,1,0,0:0:0:0:
292,39,100736,1,0,0:0:0:0:
158,187,100907,2,0,L|57:199,1,96,8|0,0:0|0:0,0:0:0:0:
292,39,101250,6,0,L|392:51,1,96,0|0,3:0|0:0,0:0:0:0:
315,285,101593,1,8,0:0:0:0:
158,187,101764,1,0,0:0:0:0:
110,182,101849,1,0,0:0:0:0:
65,196,101935,1,0,0:0:0:0:
27,226,102021,1,0,0:0:0:0:
4,268,102106,1,0,3:0:0:0:
169,384,102278,1,8,0:0:0:0:
262,132,102450,1,0,0:0:0:0:
262,132,102536,1,0,0:0:0:0:
262,132,102621,6,0,P|306:115|353:122,1,96,0|0,3:0|0:0,0:0:0:0:
475,232,102964,1,8,0:0:0:0:
396,48,103136,2,0,P|310:29|188:78,1,192,0|0,0:0|3:0,0:0:0:0:
106,213,103650,1,8,0:0:0:0:
0,44,103821,1,0,0:0:0:0:
201,207,103993,6,0,P|193:253|163:290,1,96,0|0,3:0|0:0,0:0:0:0:
0,384,104336,1,8,0:0:0:0:
203,194,104507,1,0,0:0:0:0:
249,180,104592,1,0,0:0:0:0:
296,186,104678,1,0,0:0:0:0:
338,209,104764,1,0,0:0:0:0:
368,247,104849,1,0,3:0:0:0:
501,384,105021,2,0,L|512:288,1,96,8|0,0:0|0:0,0:0:0:0:
354,138,105278,1,0,3:0:0:0:
356,151,105364,6,0,L|369:259,1,96,0|0,3:0|0:0,0:0:0:0:
422,31,105707,2,0,B|384:45|337:37|337:37|309:52|309:52|274:43|233:57,1,192,8|0,0:0|0:0,0:0:0:0:
124,205,106221,1,0,3:0:0:0:
0,0,106393,1,8,0:0:0:0:
235,56,106564,1,0,0:0:0:0:
28,216,106736,6,0,L|124:205,1,96,0|0,3:0|0:0,0:0:0:0:
259,384,107078,1,8,0:0:0:0:
387,194,107250,1,0,0:0:0:0:
392,241,107335,1,0,0:0:0:0:
398,289,107421,1,0,0:0:0:0:
404,336,107507,1,0,0:0:0:0:
410,384,107592,1,0,3:0:0:0:
512,187,107764,1,8,0:0:0:0:
315,85,107936,1,0,0:0:0:0:
315,85,108021,1,0,0:0:0:0:
315,85,108107,6,0,B|202:79|245:121|111:109,1,192,0|8,3:0|0:0,0:0:0:0:
0,0,108621,1,0,0:0:0:0:
0,0,108707,1,0,0:0:0:0:
0,0,108793,1,0,0:0:0:0:
142,219,108964,1,0,3:0:0:0:
315,85,109136,2,0,L|410:96,1,96,8|0,0:0|0:0,0:0:0:0:
410,96,109393,1,0,0:0:0:0:
410,96,109478,5,0,3:0:0:0:
286,250,109650,1,0,0:0:0:0:
211,36,109821,1,8,0:0:0:0:
387,190,109993,1,0,0:0:0:0:
401,235,110078,1,0,0:0:0:0:
396,282,110164,1,0,0:0:0:0:
374,325,110250,1,0,0:0:0:0:
336,355,110335,1,0,3:0:0:0:
71,192,110507,1,8,0:0:0:0:
286,250,110678,1,0,0:0:0:0:
286,250,110764,1,0,3:0:0:0:
286,250,110850,5,4,3:1:0:0:
88,324,111021,1,0,0:0:0:0:
269,146,111192,1,8,0:0:0:0:
71,192,111364,1,0,0:0:0:0:
71,192,111449,1,0,0:0:0:0:
71,192,111535,1,0,0:0:0:0:
235,384,111707,1,0,3:0:0:0:
370,180,111878,2,0,L|470:167,1,96,8|0,0:0|0:0,0:0:0:0:
235,384,112221,6,0,L|134:371,1,96,0|0,3:0|0:0,0:0:0:0:
197,99,112564,1,8,0:0:0:0:
322,175,112735,1,0,0:0:0:0:
370,180,112820,1,0,0:0:0:0:
415,166,112906,1,0,0:0:0:0:
453,136,112992,1,0,0:0:0:0:
476,94,113077,1,0,3:0:0:0:
302,0,113249,1,8,0:0:0:0:
250,252,113421,1,0,0:0:0:0:
250,252,113507,1,0,0:0:0:0:
250,252,113592,6,0,P|205:268|158:261,1,96,0|0,3:0|0:0,0:0:0:0:
60,134,113936,1,8,0:0:0:0:
301,159,114107,2,0,L|276:356,1,192,0|0,0:0|3:0,0:0:0:0:
431,214,114621,1,8,0:0:0:0:
209,149,114793,1,0,0:0:0:0:
209,149,114878,1,0,0:0:0:0:
209,149,114964,6,0,P|253:165|300:158,1,96,0|0,3:0|0:0,0:0:0:0:
395,49,115307,1,8,0:0:0:0:
145,52,115478,1,0,0:0:0:0:
111,86,115563,1,0,0:0:0:0:
96,131,115649,1,0,0:0:0:0:
97,179,115735,1,0,0:0:0:0:
116,222,115820,1,0,3:0:0:0:
297,325,115993,1,8,0:0:0:0:
209,149,116164,1,0,0:0:0:0:
209,149,116250,1,0,3:0:0:0:
209,149,116336,5,0,3:0:0:0:
112,384,116507,1,0,0:0:0:0:
326,203,116678,2,0,L|429:215,1,96,8|0,0:0|0:0,0:0:0:0:
145,52,117021,2,0,L|41:64,1,96,0|0,0:0|3:0,0:0:0:0:
205,334,117364,2,0,P|252:341|297:325,1,96,8|0,0:0|0:0,0:0:0:0:
442,103,117707,6,0,B|422:214|469:176|441:308,1,192,0|8,3:0|0:0,0:0:0:0:
342,49,118221,1,0,0:0:0:0:
376,15,118306,1,0,0:0:0:0:
421,0,118392,1,0,0:0:0:0:
469,1,118478,1,0,0:0:0:0:
512,20,118563,1,0,3:0:0:0:
326,203,118736,2,0,P|279:210|234:193,1,96,8|0,0:0|0:0,0:0:0:0:
234,193,119078,5,0,0:0:0:0:
256,192,119164,12,0,121478,0:0:0:0:
149,64,121821,6,0,L|52:75,1,96,4|0,3:1|0:0,0:0:0:0:
234,193,122164,1,8,0:0:0:0:
328,123,122336,1,0,0:0:0:0:
341,125,122422,2,0,L|383:131,1,43.1999986816407
450,171,122593,1,0,0:0:0:0:
463,169,122679,1,0,3:0:0:0:
512,0,122850,1,8,0:0:0:0:
381,209,123021,1,0,0:0:0:0:
381,209,123107,1,0,0:0:0:0:
381,209,123193,6,0,L|392:304,1,96,0|0,3:0|0:0,0:0:0:0:
249,384,123536,1,8,0:0:0:0:
135,247,123707,1,0,0:0:0:0:
122,249,123793,2,0,L|80:255,1,43.1999986816407
13,295,123964,1,0,0:0:0:0:
0,293,124050,1,0,3:0:0:0:
149,64,124221,2,0,L|245:75,1,96,8|0,0:0|0:0,0:0:0:0:
381,209,124564,6,0,L|369:305,1,96,0|0,3:0|0:0,0:0:0:0:
249,384,124907,1,8,0:0:0:0:
312,142,125078,1,0,0:0:0:0:
382,133,125164,1,0,0:0:0:0:
406,136,125250,1,0,0:0:0:0:
430,140,125335,1,0,0:0:0:0:
500,131,125421,1,0,3:0:0:0:
369,304,125593,1,8,0:0:0:0:
206,90,125764,1,0,0:0:0:0:
206,90,125850,1,0,0:0:0:0:
206,90,125936,5,0,3:0:0:0:
288,235,126107,1,0,0:0:0:0:
250,0,126278,1,8,0:0:0:0:
188,189,126450,1,0,0:0:0:0:
117,189,126536,1,0,0:0:0:0:
93,183,126622,1,0,0:0:0:0:
70,176,126707,1,0,0:0:0:0:
0,177,126793,1,0,3:0:0:0:
250,318,126964,2,0,P|280:281|288:235,1,96,8|0,0:0|0:0,0:0:0:0:
378,52,127221,1,0,0:0:0:0:
377,65,127307,6,0,P|392:109|429:139,1,96,0|0,3:0|0:0,0:0:0:0:
512,0,127650,1,8,0:0:0:0:
291,48,127821,1,0,0:0:0:0:
278,46,127907,2,0,L|236:40,1,43.1999986816407
169,0,128078,1,0,0:0:0:0:
156,2,128164,1,0,3:0:0:0:
0,127,128336,2,0,P|-7:174|8:217,1,96,8|0,0:0|0:0,0:0:0:0:
171,329,128678,6,0,P|134:298|88:290,1,96,0|0,3:0|0:0,0:0:0:0:
267,166,129021,1,8,0:0:0:0:
398,287,129193,1,0,0:0:0:0:
400,274,129279,2,0,L|406:232,1,43.1999986816407
446,165,129450,1,0,0:0:0:0:
444,152,129536,1,0,3:0:0:0:
255,70,129707,2,0,L|267:166,1,96,8|0,0:0|0:0,0:0:0:0:
471,328,130050,6,0,L|483:232,1,96,0|0,3:0|0:0,0:0:0:0:
351,58,130393,1,8,0:0:0:0:
294,231,130564,1,0,0:0:0:0:
224,222,130650,1,0,0:0:0:0:
200,225,130736,1,0,0:0:0:0:
176,229,130821,1,0,0:0:0:0:
106,220,130907,1,0,3:0:0:0:
256,321,131078,2,0,P|303:328|346:313,1,96,8|0,0:0|0:0,0:0:0:0:
347,311,131336,1,0,0:0:0:0:
347,311,131421,5,0,3:0:0:0:
266,165,131593,1,0,0:0:0:0:
93,350,131764,1,8,0:0:0:0:
239,100,131936,1,0,0:0:0:0:
309,109,132022,1,0,0:0:0:0:
333,105,132107,1,0,0:0:0:0:
357,102,132193,1,0,0:0:0:0:
427,111,132279,1,0,3:0:0:0:
164,0,132450,2,0,L|68:12,1,96,8|0,0:0|0:0,0:0:0:0:
130,113,132707,1,0,3:0:0:0:
143,111,132793,6,0,L|251:98,1,96,0|0,3:0|0:0,0:0:0:0:
0,239,133136,1,8,0:0:0:0:
246,322,133307,1,0,0:0:0:0:
244,309,133393,2,0,L|238:267,1,43.1999986816407
198,200,133564,1,0,0:0:0:0:
200,187,133650,1,0,3:0:0:0:
324,24,133821,2,0,L|419:35,1,96,8|0,0:0|0:0,0:0:0:0:
346,219,134164,5,0,3:0:0:0:
238,99,134336,1,0,0:0:0:0:
419,35,134507,1,8,0:0:0:0:
200,187,134678,1,0,0:0:0:0:
187,185,134764,2,0,L|145:179,1,43.1999986816407
78,139,134935,1,0,0:0:0:0:
65,141,135021,1,0,3:0:0:0:
188,384,135193,1,8,0:0:0:0:
346,219,135364,1,0,0:0:0:0:
346,219,135450,1,0,0:0:0:0:
346,219,135536,6,0,P|390:202|437:209,1,96,0|0,3:0|0:0,0:0:0:0:
512,365,135878,1,8,0:0:0:0:
399,106,136050,1,0,0:0:0:0:
328,109,136136,1,0,0:0:0:0:
305,116,136222,1,0,0:0:0:0:
282,124,136307,1,0,0:0:0:0:
211,127,136393,1,0,3:0:0:0:
52,30,136564,1,8,0:0:0:0:
136,243,136736,1,0,0:0:0:0:
136,243,136821,1,0,0:0:0:0:
136,243,136907,5,0,3:0:0:0:
211,127,137078,1,0,0:0:0:0:
37,294,137250,1,8,0:0:0:0:
188,384,137421,1,0,0:0:0:0:
258,375,137507,1,0,0:0:0:0:
282,379,137592,1,0,0:0:0:0:
306,382,137678,1,0,0:0:0:0:
376,373,137764,1,0,3:0:0:0:
512,183,137936,1,8,0:0:0:0:
328,269,138107,1,0,0:0:0:0:
328,269,138193,1,0,3:0:0:0:
328,269,138278,6,0,L|334:317,3,48,0|0|0|0,3:0|0:0|0:0|0:0,0:0:0:0:
193,186,138621,2,0,L|187:233,3,48,8|0|0|0,0:0|0:0|0:0|0:0,0:0:0:0:
287,64,138964,2,0,L|281:16,3,48,0|0|0|0,0:0|0:0|3:0|0:0,0:0:0:0:
97,174,139307,2,0,L|91:221,3,48,8|0|0|0,0:0|0:0|0:0|0:0,0:0:0:0:
287,64,139650,5,0,3:0:0:0:
313,103,139735,1,0,0:0:0:0:
355,125,139821,1,0,0:0:0:0:
402,125,139907,1,0,0:0:0:0:
444,101,139993,1,8,0:0:0:0:
411,135,140078,1,0,0:0:0:0:
400,182,140164,1,0,0:0:0:0:
414,227,140250,1,0,0:0:0:0:
443,265,140336,5,0,0:0:0:0:
442,312,140421,1,0,0:0:0:0:
419,353,140507,1,0,3:0:0:0:
378,378,140593,1,0,0:0:0:0:
331,379,140678,1,8,0:0:0:0:
289,357,140764,1,0,0:0:0:0:
264,316,140850,1,0,0:0:0:0:
261,269,140936,1,0,0:0:0:0:
283,228,141021,5,0,3:0:0:0:
299,183,141106,1,0,0:0:0:0:
290,137,141192,1,0,0:0:0:0:
257,102,141278,1,0,0:0:0:0:
212,90,141363,1,8,0:0:0:0:
166,104,141449,1,0,0:0:0:0:
136,140,141535,1,0,0:0:0:0:
128,187,141621,1,0,0:0:0:0:
147,231,141707,6,0,L|194:224,1,48
311,322,141878,2,0,L|264:316,1,48,0|0,3:0|0:0,0:0:0:0:
134,224,142050,2,0,L|189:217,1,48,8|0,0:0|0:0,0:0:0:0:
324,328,142221,2,0,L|269:321,1,48
0,265,142393,5,0,3:0:0:0:
38,236,142478,1,0,0:0:0:0:
60,194,142564,1,0,0:0:0:0:
60,146,142650,1,0,0:0:0:0:
40,103,142736,1,8,0:0:0:0:
79,130,142821,1,0,0:0:0:0:
127,134,142907,1,0,0:0:0:0:
170,116,142993,1,0,0:0:0:0:
200,79,143079,5,0,0:0:0:0:
242,48,143164,1,0,0:0:0:0:
294,46,143250,1,0,3:0:0:0:
339,73,143336,1,0,0:0:0:0:
363,119,143421,1,8,0:0:0:0:
357,171,143507,1,0,0:0:0:0:
324,211,143593,1,0,0:0:0:0:
274,227,143679,1,0,0:0:0:0:
224,213,143764,5,4,3:1:0:0:
