osu file format v14

[General]
AudioFilename: audio.mp3
AudioLeadIn: 0
PreviewTime: -1
Countdown: 1
SampleSet: None
StackLeniency: 0.7
Mode: 0
LetterboxInBreaks: 0
WidescreenStoryboard: 0

[Editor]
DistanceSpacing: 0.8
BeatDivisor: 4
GridSize: 4
TimelineZoom: 1

[Metadata]
Title:Anywhere - Sigma
TitleUnicode:Anywhere - Sigma
Artist:Sigma
ArtistUnicode:Sigma
Creator:CocoTheCorgi
Version:Insane
Source:
Tags:CocoTheCorgi
BeatmapID:1758342
BeatmapSetID:839968

[Difficulty]
HPDrainRate:6
CircleSize:5
OverallDifficulty:8
ApproachRate:9
SliderMultiplier:1.4
SliderTickRate:1

[Events]
//Background and Video events
0,0,"Sigma Anywhere Background.jpg",0,0
//Break Periods
2,75647,90848
//Storyboard Layer 0 (Background)
//Storyboard Layer 1 (Fail)
//Storyboard Layer 2 (Pass)
//Storyboard Layer 3 (Foreground)
//Storyboard Sound Samples

[TimingPoints]
2448,500,4,1,0,100,1,0
59448,-100,4,1,0,100,0,1
75448,-100,4,1,0,100,0,0
139448,-100,4,1,0,100,0,1
155448,-100,4,1,0,100,0,0
171448,-100,4,1,0,100,0,1
203448,-100,4,1,0,100,0,0

[HitObjects]
254,192,3948,5,8,0:0:0:0:
254,192,4948,1,8,0:0:0:0:
254,192,5948,1,8,0:0:0:0:
254,192,6948,1,8,0:0:0:0:
254,192,7948,1,8,0:0:0:0:
254,192,8948,1,8,0:0:0:0:
254,192,9948,1,8,0:0:0:0:
360,261,10948,5,0,0:0:0:0:
437,186,11448,1,0,0:0:0:0:
380,108,11948,1,0,0:0:0:0:
137,109,12948,5,0,0:0:0:0:
72,189,13448,1,0,0:0:0:0:
134,267,13948,1,0,0:0:0:0:
253,309,15448,5,0,0:0:0:0:
378,270,15948,1,0,0:0:0:0:
291,216,16448,2,0,P|197:197|188:155,1,140
247,118,17448,1,0,0:0:0:0:
306,180,17823,1,0,0:0:0:0:
246,246,18198,1,0,0:0:0:0:
316,315,18573,1,0,0:0:0:0:
414,271,18948,5,0,0:0:0:0:
454,187,19448,2,0,P|453:114|394:84,1,140
284,140,20948,5,0,0:0:0:0:
201,78,21448,1,0,0:0:0:0:
111,135,21948,1,0,0:0:0:0:
197,214,22448,1,0,0:0:0:0:
278,196,23448,5,0,0:0:0:0:
387,147,23948,1,0,0:0:0:0:
429,226,24448,2,0,P|429:272|347:317,1,140
237,294,25448,2,0,L|103:227,2,140
345,293,26948,5,0,0:0:0:0:
423,331,27448,2,0,P|464:259|373:103,1,280
271,76,28948,1,0,0:0:0:0:
171,102,29448,2,0,P|83:211|140:329,1,280
233,337,30948,6,0,L|361:267,2,140
142,321,32948,1,0,0:0:0:0:
71,255,33448,1,0,0:0:0:0:
150,193,33948,1,0,0:0:0:0:
409,104,34448,5,0,0:0:0:0:
452,189,34948,1,0,0:0:0:0:
368,260,35448,1,0,0:0:0:0:
356,179,35948,2,0,P|254:79|106:77,1,280
83,138,37448,2,0,P|193:240|337:245,1,280
415,220,38948,5,0,0:0:0:0:
446,297,39448,2,0,P|298:332|166:313,1,280
102,249,40948,1,0,0:0:0:0:
180,183,41448,5,0,0:0:0:0:
271,145,41948,1,0,0:0:0:0:
251,282,42448,1,0,0:0:0:0:
350,239,42948,1,0,0:0:0:0:
429,168,43448,5,0,0:0:0:0:
356,119,43948,2,0,P|198:94|86:134,1,280
60,205,45448,1,0,0:0:0:0:
75,282,45948,2,0,P|223:331|351:276,1,280
397,220,47448,5,0,0:0:0:0:
333,141,47948,1,0,0:0:0:0:
235,107,48448,1,0,0:0:0:0:
132,146,48948,1,0,0:0:0:0:
375,308,49448,5,0,0:0:0:0:
445,226,49948,1,0,0:0:0:0:
303,201,50448,1,0,0:0:0:0:
388,115,50948,1,0,0:0:0:0:
255,192,51448,5,8,0:0:0:0:
255,192,51948,1,8,0:0:0:0:
255,192,52448,1,8,0:0:0:0:
255,192,52948,1,8,0:0:0:0:
255,192,53448,1,8,0:0:0:0:
380,192,53948,1,8,0:0:0:0:
254,85,54448,1,8,0:0:0:0:
106,189,54948,1,8,0:0:0:0:
254,306,55448,1,8,0:0:0:0:
326,282,55948,1,8,0:0:0:0:
390,246,56448,1,8,0:0:0:0:
413,167,56948,1,8,0:0:0:0:
256,192,57448,12,0,59448,0:0:0:0:
111,313,59948,5,0,0:0:0:0:
252,230,60448,1,0,0:0:0:0:
170,174,60948,2,0,P|122:118|168:77,1,140
253,77,61948,5,0,0:0:0:0:
379,164,62448,1,0,0:0:0:0:
424,262,62948,2,0,P|454:331|410:348,1,140
327,323,63948,2,0,P|165:316|83:232,1,280
159,171,65448,6,8,L|221:114,1,70
237,222,65948,2,8,L|295:169,1,70
342,276,66448,2,8,L|390:224,1,70
441,163,66948,2,8,P|403:104|322:73,1,140
241,62,67948,5,0,0:0:0:0:
131,130,68448,1,0,0:0:0:0:
238,192,68948,2,0,P|289:245|235:269,1,140
155,302,69948,5,0,0:0:0:0:
83,209,70448,1,0,0:0:0:0:
163,145,70948,2,0,P|232:101|252:153,1,140
274,215,71948,5,0,0:0:0:0:
356,175,72448,1,0,0:0:0:0:
273,90,72948,1,0,0:0:0:0:
177,178,73448,6,8,L|127:229,1,70
258,225,73948,2,8,L|201:294,1,70
344,270,74448,2,8,L|295:344,1,70
230,335,74948,2,8,P|118:323|101:301,1,140
376,149,91448,5,0,0:0:0:0:
440,266,91948,2,0,P|287:266|173:195,1,280
237,133,93448,1,0,0:0:0:0:
310,72,93948,2,0,P|383:201|355:353,1,280
258,311,95448,5,8,0:0:0:0:
197,247,95948,1,8,0:0:0:0:
118,288,96448,1,8,0:0:0:0:
60,216,96948,1,8,0:0:0:0:
166,92,97448,5,0,0:0:0:0:
242,192,97948,1,0,0:0:0:0:
295,55,98448,5,0,0:0:0:0:
355,160,98948,1,0,0:0:0:0:
413,249,99448,6,0,P|290:322|148:310,1,280
102,238,100948,1,0,0:0:0:0:
79,155,101448,2,0,P|203:67|335:92,1,280
405,150,102948,5,8,0:0:0:0:
456,242,103448,1,8,0:0:0:0:
384,313,103948,1,8,0:0:0:0:
295,267,104448,2,0,P|190:169|76:222,1,280
70,277,105948,2,0,P|210:288|308:175,1,280
423,90,107448,5,0,0:0:0:0:
449,236,108948,5,0,0:0:0:0:
380,297,109448,2,0,P|234:334|123:276,1,280
94,192,110948,1,0,0:0:0:0:
173,115,111448,1,0,0:0:0:0:
329,209,112948,5,0,0:0:0:0:
420,153,113448,2,0,P|294:84|159:97,1,280
255,193,115448,5,8,0:0:0:0:
255,193,116448,1,8,0:0:0:0:
255,193,117448,1,8,0:0:0:0:
255,193,118448,5,8,0:0:0:0:
255,193,119448,1,8,0:0:0:0:
255,193,120448,1,8,0:0:0:0:
440,293,121448,5,8,0:0:0:0:
372,186,121948,1,8,0:0:0:0:
325,329,122448,1,8,0:0:0:0:
247,221,122948,1,8,0:0:0:0:
120,119,123448,5,8,0:0:0:0:
194,85,124448,1,8,0:0:0:0:
272,81,125448,1,8,0:0:0:0:
356,110,126448,1,8,0:0:0:0:
377,276,127448,5,8,0:0:0:0:
296,329,128448,1,8,0:0:0:0:
199,340,129448,1,8,0:0:0:0:
101,296,130448,1,8,0:0:0:0:
255,192,131448,5,8,0:0:0:0:
359,192,131948,1,8,0:0:0:0:
256,87,132448,1,8,0:0:0:0:
133,188,132948,1,8,0:0:0:0:
255,314,133448,1,8,0:0:0:0:
423,190,133948,1,8,0:0:0:0:
256,47,134448,1,8,0:0:0:0:
53,192,134948,1,8,0:0:0:0:
256,337,135448,1,8,0:0:0:0:
256,192,135948,12,0,139448,0:0:0:0:
383,317,139948,5,0,0:0:0:0:
441,208,140448,1,0,0:0:0:0:
374,126,140948,2,0,P|239:79|108:138,1,280
61,205,142448,5,0,0:0:0:0:
124,305,142948,1,0,0:0:0:0:
209,328,143448,2,0,P|352:307|452:202,1,280
432,124,144948,1,0,0:0:0:0:
351,152,145448,6,8,L|309:224,1,70
361,342,145948,2,8,L|327:264,1,70
257,259,146448,5,8,0:0:0:0:
186,323,146698,1,8,0:0:0:0:
100,264,146948,1,8,0:0:0:0:
366,316,147448,5,0,0:0:0:0:
444,228,147948,1,0,0:0:0:0:
405,142,148448,2,0,P|265:80|121:108,1,280
72,184,149948,5,0,0:0:0:0:
133,300,150448,1,0,0:0:0:0:
229,330,150948,2,0,P|368:280|399:157,1,280
336,88,152448,5,0,0:0:0:0:
214,72,152948,1,0,0:0:0:0:
72,156,153448,6,8,P|109:224|110:224,1,70
156,238,153948,2,8,P|197:300|194:306,1,70
128,334,154448,1,8,0:0:0:0:
46,194,154698,1,8,0:0:0:0:
141,56,154948,1,8,0:0:0:0:
327,91,155448,6,0,P|434:201|389:329,1,280
303,339,156948,1,0,0:0:0:0:
207,308,157448,2,0,P|148:166|241:90,1,280
316,81,158948,5,0,0:0:0:0:
376,168,159448,2,0,L|451:308,2,140
316,83,160948,1,0,0:0:0:0:
241,165,161448,2,0,L|177:294,2,140
312,92,162948,5,0,0:0:0:0:
383,152,163448,2,0,P|448:286|349:334,1,280
236,323,164948,1,0,0:0:0:0:
140,280,165448,2,0,P|138:146|263:120,1,280
355,157,166948,5,8,0:0:0:0:
441,235,167448,1,8,0:0:0:0:
346,313,167948,1,8,0:0:0:0:
249,224,168448,1,8,0:0:0:0:
256,192,168948,12,0,171448,0:0:0:0:
382,115,171948,5,0,0:0:0:0:
442,286,172448,1,0,0:0:0:0:
327,301,172948,2,0,L|180:332,2,140
428,256,174448,5,0,0:0:0:0:
382,110,174948,1,0,0:0:0:0:
275,115,175448,2,0,L|107:96,2,140
396,193,176948,1,0,0:0:0:0:
104,221,177448,6,8,P|138:286|145:286,1,70
359,168,177948,2,8,P|395:234|394:238,1,70
191,80,178448,5,8,0:0:0:0:
232,196,178698,1,8,0:0:0:0:
281,317,178948,1,8,0:0:0:0:
399,264,179448,5,0,0:0:0:0:
261,123,179948,1,0,0:0:0:0:
126,159,180448,2,0,P|75:295|177:317,1,280
250,323,181948,5,0,0:0:0:0:
405,300,182448,1,0,0:0:0:0:
377,195,182948,2,0,P|266:101|153:160,1,280
211,247,184448,1,0,0:0:0:0:
372,203,184948,1,0,0:0:0:0:
167,76,185448,6,8,P|106:124|108:134,1,70
409,279,185948,2,8,P|349:330|343:327,1,70
327,101,186448,5,8,0:0:0:0:
125,187,186698,1,8,0:0:0:0:
360,324,186948,1,8,0:0:0:0:
439,245,187448,5,0,0:0:0:0:
364,141,187948,1,0,0:0:0:0:
239,83,188948,5,8,0:0:0:0:
142,119,189198,1,8,0:0:0:0:
105,223,189448,1,8,0:0:0:0:
227,329,190448,5,0,0:0:0:0:
128,194,190948,1,0,0:0:0:0:
272,121,191948,5,8,0:0:0:0:
374,145,192198,1,8,0:0:0:0:
430,245,192448,1,8,0:0:0:0:
341,324,193448,5,0,0:0:0:0:
204,324,193948,1,0,0:0:0:0:
91,237,194448,1,0,0:0:0:0:
213,104,195448,5,0,0:0:0:0:
368,115,195948,1,0,0:0:0:0:
452,231,196448,1,0,0:0:0:0:
354,329,197448,5,0,0:0:0:0:
256,198,197948,1,0,0:0:0:0:
145,74,198448,1,0,0:0:0:0:
104,325,199448,5,4,0:0:0:0:
258,199,199948,1,4,0:0:0:0:
399,92,200448,1,4,0:0:0:0:
256,192,201448,12,0,203448,0:0:0:0:
