osu file format v14

[General]
AudioFilename: audio.mp3
AudioLeadIn: 0
PreviewTime: 61812
Countdown: 1
SampleSet: Normal
StackLeniency: 0.4
Mode: 0
LetterboxInBreaks: 0
WidescreenStoryboard: 1

[Editor]
Bookmarks: 56336,79826,97373,117750,126806,144919,153976,163033,172089,194731,253599
DistanceSpacing: 0.7
BeatDivisor: 4
GridSize: 16
TimelineZoom: 1.5

[Metadata]
Title:Equale
TitleUnicode:Equale
Artist:Sigh
ArtistUnicode:Sigh
Creator:Mitchell Gwr
Version:All Is Vanity
Source:
Tags:black extreme metal rock streams jumps in somniphobia
BeatmapID:1314578
BeatmapSetID:623677

[Difficulty]
HPDrainRate:5.1
CircleSize:4
OverallDifficulty:9
ApproachRate:9.5
SliderMultiplier:1.7
SliderTickRate:1

[Events]
//Background and Video events
0,0,"In Somnophobia.jpg",0,0
//Break Periods
2,195030,209022
2,264935,290531
//Storyboard Layer 0 (Background)
//Storyboard Layer 1 (Fail)
//Storyboard Layer 2 (Pass)
//Storyboard Layer 3 (Foreground)
//Storyboard Sound Samples

[TimingPoints]
680,566.037735849057,4,1,1,60,1,0
2945,566.037735849057,4,1,1,60,1,0
43699,-66.6666666666667,4,1,1,60,0,0
61812,283.018867924528,4,1,1,60,1,0
61812,-100,4,1,1,60,0,1
79925,-100,4,1,1,60,0,0
87283,-100,4,1,1,5,0,0
87425,-100,4,1,1,60,0,0
97472,283.018867924528,4,1,1,60,1,0
97542,-133.333333333333,4,1,1,5,0,0
99736,-133.333333333333,4,1,1,60,0,0
116151,-133.333333333333,4,1,1,40,0,0
116292,-133.333333333333,4,1,1,50,0,0
116434,-133.333333333333,4,1,1,60,0,0
117849,283.018867924528,4,1,1,60,1,0
117849,-100,4,1,1,60,0,1
126905,-100,4,1,1,60,0,0
145018,-100,4,1,1,60,0,1
154075,-100,4,1,1,60,0,0
163132,-100,4,1,1,60,0,1
172188,-133.333333333333,4,1,1,60,0,0
172259,-133.333333333333,4,1,1,5,0,0
173320,-133.333333333333,4,1,1,60,0,0
174523,-133.333333333333,4,1,1,5,0,0
175584,-133.333333333333,4,1,1,60,0,0
210608,-133.333333333333,4,1,1,5,0,0
210679,-133.333333333333,4,1,1,60,0,0
211811,-133.333333333333,4,1,1,5,0,0
211882,-133.333333333333,4,1,1,60,0,0
215207,-100,4,1,1,60,0,1
235584,-100,4,1,1,60,0,0
237848,-100,4,1,1,60,0,1
244641,-100,4,1,1,60,0,0
246905,-100,4,1,1,60,0,1
247825,-100,4,1,1,5,0,1
247896,-100,4,1,1,60,0,1
263815,-100,4,1,1,5,0,1
263886,-100,4,1,1,5,0,0
292117,-100,4,1,1,5,0,0
292188,-133.333333333333,4,1,1,60,0,0
293391,-133.333333333333,4,1,1,5,0,0
293462,-133.333333333333,4,1,1,60,0,0
296716,-100,4,1,1,60,0,1
317094,-100,4,1,1,60,0,0
319358,-100,4,1,1,60,0,1
330537,-100,4,1,1,60,0,0
332943,-100,4,1,1,40,0,0
334075,-100,4,1,1,20,0,0
335207,-100,4,1,1,10,0,0
336339,-100,4,1,1,5,0,0
362058,416.666666666667,4,1,1,60,1,0
362058,-133.333333333333,4,1,1,60,0,0

[Colours]
Combo1 : 128,64,64
Combo2 : 128,0,0
Combo3 : 64,0,0
Combo4 : 128,128,128

[HitObjects]
392,118,680,5,4,0:0:0:0:
394,223,821,1,0,0:0:0:0:
298,174,963,1,0,0:0:0:0:
484,167,1387,5,0,0:0:0:0:
300,68,1670,1,0,0:0:0:0:
484,167,1953,1,8,0:0:0:0:
437,322,2236,5,8,0:0:0:0:
411,326,2378,1,4,3:0:0:0:
386,331,2519,1,4,3:0:0:0:
360,336,2661,1,4,3:0:0:0:
335,341,2802,1,4,3:0:0:0:
309,346,2944,6,0,L|195:337,2,85,0|0|8,0:0|0:0|0:0,0:0:0:0:
167,248,3794,5,0,0:0:0:0:
167,248,3935,1,0,0:0:0:0:
167,248,4077,2,0,L|251:241,1,85
400,230,4643,1,8,0:0:0:0:
409,126,4926,6,0,L|352:131,1,42.5
502,272,5209,2,0,L|492:169,1,85
481,46,5775,1,8,0:0:0:0:
400,230,6058,5,0,0:0:0:0:
271,131,6341,2,0,L|257:60,1,42.5
205,210,6624,2,0,L|191:169,1,42.5
267,271,6907,6,0,L|337:249,1,42.5,8|0,0:0|0:0,0:0:0:0:
113,217,7190,2,0,L|41:201,1,42.5
178,341,7473,6,0,P|247:322|352:364,1,170,0|8,0:0|0:0,0:0:0:0:
448,330,8180,2,0,L|467:283,2,42.5
377,216,8605,2,0,L|358:169,2,42.5
496,134,9029,1,0,0:0:0:0:
496,134,9171,2,0,P|452:120|425:81,1,85,8|0,0:0|0:0,0:0:0:0:
382,14,9595,5,0,0:0:0:0:
361,176,10020,1,0,0:0:0:0:
271,79,10303,5,4,0:0:0:0:
246,85,10445,1,8,0:0:0:0:
221,91,10586,1,8,0:0:0:0:
196,98,10728,1,8,0:0:0:0:
171,105,10869,1,8,0:0:0:0:
127,187,11152,6,0,L|200:202,2,42.5,2|0|0,0:0|0:0|0:0,0:0:0:0:
272,288,11577,2,0,L|320:236,2,42.5,2|0|0,0:0|0:0|0:0,0:0:0:0:
36,283,12001,6,0,P|97:268|158:318,1,127.5,4|0,0:0|0:0,0:0:0:0:
188,370,12567,1,8,0:0:0:0:
272,288,12850,1,0,0:0:0:0:
355,346,13275,5,0,0:0:0:0:
380,342,13416,1,0,0:0:0:0:
405,338,13558,1,0,0:0:0:0:
361,252,13699,2,0,L|346:164,2,56.6666666666667,8|0|0,0:0|0:0|0:0,0:0:0:0:
474,155,14265,5,0,0:0:0:0:
405,126,14454,1,0,0:0:0:0:
336,98,14643,1,0,0:0:0:0:
267,71,14831,2,0,L|252:-17,2,56.6666666666667,8|0|0,0:0|0:0|0:0,0:0:0:0:
198,208,15397,2,0,L|208:264,2,56.6666666666667
29,151,15963,2,0,P|95:149|167:61,1,170,8|4,0:0|0:0,0:0:0:0:
71,59,16671,5,0,0:0:0:0:
71,59,16812,1,0,0:0:0:0:
71,59,16954,1,0,0:0:0:0:
78,199,17095,2,0,L|126:208,1,42.5,8|0,0:0|0:0,0:0:0:0:
234,343,17520,5,0,0:0:0:0:
192,135,17803,1,0,0:0:0:0:
314,190,18086,2,0,L|247:207,1,42.5,0|8,0:0|0:0,0:0:0:0:
273,201,18369,1,0,0:0:0:0:
271,200,18511,1,0,0:0:0:0:
271,200,18652,1,0,0:0:0:0:
457,213,18794,6,0,L|462:149,1,42.5,2|0,0:0|0:0,0:0:0:0:
384,272,19077,2,0,L|379:336,1,42.5
468,88,19360,5,4,0:0:0:0:
442,83,19501,1,8,0:0:0:0:
416,78,19643,1,8,0:0:0:0:
390,73,19784,1,8,0:0:0:0:
364,68,19926,5,8,0:0:0:0:
189,108,20209,6,0,L|293:80,1,85,2|0,0:0|0:0,0:0:0:0:
384,272,20633,2,0,L|280:300,1,85,2|0,0:0|0:0,0:0:0:0:
220,320,21058,5,0,0:0:0:0:
136,343,21199,1,0,0:0:0:0:
113,260,21341,1,0,0:0:0:0:
195,237,21482,1,0,0:0:0:0:
31,288,21765,5,0,0:0:0:0:
284,213,22048,1,0,0:0:0:0:
83,164,22331,1,8,0:0:0:0:
295,113,22614,6,8,L|347:100,2,42.5,8|8|8,3:0|3:0|3:0,3:0:0:0:
374,190,23039,2,4,L|426:177,1,42.5,4|4,3:0|3:0,3:0:0:0:
425,272,23322,5,0,0:0:0:0:
507,295,23463,1,0,0:0:0:0:
484,378,23605,1,0,0:0:0:0:
400,355,23746,1,0,0:0:0:0:
502,161,24029,5,8,0:0:0:0:
316,322,24312,1,8,0:0:0:0:
222,345,24454,6,8,L|171:308,1,42.5,8|8,3:0|3:0,3:0:0:0:
288,201,24737,2,8,L|339:238,1,42.5,8|8,3:0|3:0,3:0:0:0:
119,269,25020,6,4,L|68:232,1,42.5,4|4,3:0|3:0,3:0:0:0:
185,125,25303,2,4,L|236:162,1,42.5,4|4,3:0|3:0,3:0:0:0:
444,37,25586,6,0,P|401:98|282:99,1,170,0|8,0:0|0:0,0:0:0:0:
256,25,26435,1,0,0:0:0:0:
219,149,26577,1,0,0:0:0:0:
130,137,27001,6,0,L|72:130,1,42.5
7,121,27284,1,8,0:0:0:0:
66,283,27567,5,0,0:0:0:0:
66,283,27709,1,0,0:0:0:0:
66,283,27850,2,0,P|132:323|235:296,1,170,0|8,0:0|0:0,0:0:0:0:
352,228,28699,2,0,L|272:211,1,42.5
423,292,28982,2,0,P|450:239|443:194,1,85
224,199,29548,1,8,0:0:0:0:
358,343,29831,5,0,0:0:0:0:
257,120,30114,2,0,P|175:126|137:201,1,170,0|8,0:0|0:0,0:0:0:0:
335,185,30963,1,0,0:0:0:0:
335,185,31105,1,0,0:0:0:0:
335,185,31246,2,0,L|355:67,1,85
224,199,31812,2,0,L|204:317,1,85,8|0,0:0|0:0,0:0:0:0:
126,330,32378,2,0,P|209:309|281:360,1,170,0|4,0:0|0:0,0:0:0:0:
377,351,33086,5,8,0:0:0:0:
460,309,33228,1,8,0:0:0:0:
380,260,33369,1,8,0:0:0:0:
462,215,33511,1,8,0:0:0:0:
325,101,33794,6,0,L|307:188,1,85
462,215,34218,2,0,L|480:128,1,85
417,64,34643,6,0,P|332:77|266:32,1,170,0|8,0:0|0:0,0:0:0:0:
111,161,35492,1,0,0:0:0:0:
171,42,35633,1,0,0:0:0:0:
163,245,36058,6,0,L|90:274,1,42.5
189,337,36341,2,0,L|288:297,1,85,8|0,0:0|0:0,0:0:0:0:
292,141,36907,2,0,L|192:180,1,85
350,278,37473,1,8,0:0:0:0:
308,116,37756,2,0,L|230:148,1,85
429,186,38322,1,0,0:0:0:0:
429,186,38605,1,8,0:0:0:0:
372,366,38888,5,0,0:0:0:0:
372,366,39029,1,0,0:0:0:0:
372,366,39171,2,0,P|294:347|270:240,1,170,0|8,0:0|0:0,0:0:0:0:
479,271,40020,1,0,0:0:0:0:
415,104,40303,5,4,0:0:0:0:
293,193,40586,6,8,L|223:186,1,42.5
386,244,40869,1,8,3:0:0:0:
391,219,41011,1,8,3:0:0:0:
397,194,41152,1,4,3:0:0:0:
276,108,41435,5,0,0:0:0:0:
310,301,41577,1,0,0:0:0:0:
276,108,41718,1,0,0:0:0:0:
310,301,41860,1,0,0:0:0:0:
408,348,42143,5,0,0:0:0:0:
197,312,42426,1,0,0:0:0:0:
484,290,42709,1,0,0:0:0:0:
406,202,42992,6,8,L|401:150,2,42.5,8|8|8,3:0|3:0|3:0,3:0:0:0:
460,79,43416,1,4,3:0:0:0:
460,79,43558,1,4,3:0:0:0:
460,79,43699,6,0,B|394:72|394:72|317:96,1,127.500004863739,4|0,0:0|0:0,0:0:0:0:
259,191,44265,2,0,L|332:182,1,63.7500024318696
248,53,44548,2,0,L|169:62,1,63.7500024318696
147,149,44831,6,0,L|174:273,1,127.500004863739
308,327,45397,2,0,L|326:256,1,63.7500024318696
77,215,45680,2,0,L|61:276,1,63.7500024318696
103,370,45963,6,0,L|235:346,1,127.500004863739
455,313,46529,5,8,0:0:0:0:
450,274,46671,1,8,0:0:0:0:
445,236,46812,1,8,0:0:0:0:
441,197,46954,1,8,0:0:0:0:
437,159,47095,1,8,0:0:0:0:
490,81,47378,6,0,P|433:113|339:80,1,127.500004863739
277,31,47803,2,0,L|290:192,1,127.500004863739
242,273,48228,6,0,P|300:247|383:280,1,127.500004863739
459,318,48794,2,8,L|382:371,1,63.7500024318696,8|8,3:0|3:0,3:0:0:0:
445,236,49077,2,8,L|522:183,1,63.7500024318696,8|8,3:0|3:0,3:0:0:0:
255,358,49360,6,0,P|186:341|157:276,1,127.500004863739
118,173,49926,2,4,L|91:238,1,63.7500024318696,4|4,3:0|3:0,3:0:0:0:
346,367,50209,2,4,L|373:302,1,63.7500024318696,4|4,3:0|3:0,3:0:0:0:
44,309,50492,6,0,P|111:324|161:292,1,127.500004863739
238,206,51058,5,8,0:0:0:0:
233,168,51199,1,8,0:0:0:0:
226,130,51341,1,8,0:0:0:0:
220,92,51482,1,8,0:0:0:0:
214,54,51624,1,8,0:0:0:0:
311,278,51907,5,0,0:0:0:0:
322,104,52190,1,0,0:0:0:0:
376,341,52331,2,0,P|443:344|507:266,1,127.500004863739
496,222,52756,6,0,L|466:57,1,127.500004863739
449,7,53322,5,0,0:0:0:0:
395,189,53463,1,0,0:0:0:0:
449,7,53605,1,0,0:0:0:0:
395,189,53746,1,0,0:0:0:0:
502,270,53888,6,0,B|333:328,1,127.500004863739
267,346,54454,5,0,0:0:0:0:
75,271,54595,1,0,0:0:0:0:
267,346,54737,1,0,0:0:0:0:
75,271,54878,1,0,0:0:0:0:
172,306,55020,6,0,B|134:152,1,127.500004863739
63,70,55586,5,4,3:0:0:0:
141,182,55728,1,4,3:0:0:0:
21,161,55869,1,4,3:0:0:0:
166,90,56011,1,4,3:0:0:0:
49,261,56152,1,4,3:0:0:0:
49,261,56435,6,0,L|131:271,1,63.7500024318696
226,282,56718,1,8,0:0:0:0:
423,310,56860,2,0,B|324:298|324:298|377:335,1,127.500004863739
226,282,57284,6,0,P|210:221|235:164,1,127.500004863739,8|8,0:0|0:0,0:0:0:0:
317,112,57850,5,4,3:0:0:0:
478,227,57992,1,4,3:0:0:0:
317,112,58133,1,4,3:0:0:0:
478,227,58275,1,4,3:0:0:0:
222,74,58416,6,0,P|164:112|153:180,1,127.500004863739
179,253,58982,5,4,3:0:0:0:
396,178,59124,1,4,3:0:0:0:
179,253,59265,1,4,3:0:0:0:
396,178,59407,1,4,3:0:0:0:
140,333,59548,6,0,P|91:276|105:211,1,127.500004863739
150,165,60114,5,8,0:0:0:0:
314,109,60256,1,8,0:0:0:0:
273,277,60397,1,8,0:0:0:0:
150,165,60539,1,8,0:0:0:0:
314,109,60680,1,8,0:0:0:0:
460,221,60963,6,0,L|390:245,1,63.7500024318696
191,310,61246,1,0,0:0:0:0:
388,325,61388,1,0,0:0:0:0:
191,310,61671,1,0,0:0:0:0:
483,330,61812,6,0,P|504:260|451:164,1,170,0|8,0:0|0:0,0:0:0:0:
345,119,62236,1,8,0:0:0:0:
345,119,62378,2,0,L|247:122,1,85
191,310,62661,2,0,P|286:303|327:216,1,170,8|0,0:0|0:0,0:0:0:0:
121,236,63085,1,0,0:0:0:0:
121,236,63227,2,8,P|90:293|97:345,1,85
139,379,63510,5,0,0:0:0:0:
202,190,63651,1,0,0:0:0:0:
348,350,63793,2,0,L|234:326,1,85,8|0,0:0|0:0,0:0:0:0:
425,308,64076,6,0,P|464:247|433:148,1,170,0|8,0:0|0:0,0:0:0:0:
284,111,64500,1,0,0:0:0:0:
360,203,64642,1,0,0:0:0:0:
425,36,64783,1,0,0:0:0:0:
360,203,64925,2,0,P|268:222|186:174,1,170,8|0,0:0|0:0,0:0:0:0:
139,107,65349,1,0,0:0:0:0:
162,284,65491,1,8,0:0:0:0:
162,284,65632,1,8,0:0:0:0:
284,111,65774,5,0,0:0:0:0:
80,200,65915,1,0,0:0:0:0:
259,339,66057,2,0,L|371:331,1,85,8|0,0:0|0:0,0:0:0:0:
195,203,66340,6,0,P|173:270|71:317,1,170,0|8,0:0|0:0,0:0:0:0:
80,200,66764,1,8,0:0:0:0:
289,246,66906,1,0,0:0:0:0:
89,316,67047,1,0,0:0:0:0:
24,131,67189,2,0,P|104:114|169:209,1,170,8|0,0:0|0:0,0:0:0:0:
278,331,67613,2,0,L|293:223,1,85,0|8,0:0|0:0,0:0:0:0:
304,124,67896,1,0,0:0:0:0:
427,221,68038,5,0,0:0:0:0:
203,257,68179,1,0,0:0:0:0:
427,221,68321,1,8,0:0:0:0:
203,257,68462,1,8,0:0:0:0:
432,302,68604,6,0,L|507:311,2,56.6666666666667
403,202,68887,2,0,L|478:211,2,56.6666666666667,8|0|0,0:0|0:0|0:0,0:0:0:0:
403,101,69170,5,0,0:0:0:0:
377,112,69264,1,0,0:0:0:0:
351,123,69359,1,0,0:0:0:0:
280,153,69453,6,0,L|198:190,2,56.6666666666667,8|0|0,0:0|0:0|0:0,0:0:0:0:
197,95,69736,2,0,L|115:132,2,56.6666666666667,8|0|0,0:0|0:0|0:0,0:0:0:0:
33,43,70019,5,8,0:0:0:0:
52,228,70161,2,0,L|40:113,1,85,8|0,0:0|0:0,0:0:0:0:
33,43,70444,1,0,0:0:0:0:
46,267,70585,2,0,L|34:152,1,85,8|0,0:0|0:0,0:0:0:0:
118,318,70868,6,0,P|165:273|287:316,1,170,0|8,0:0|0:0,0:0:0:0:
323,380,71293,1,0,0:0:0:0:
411,301,71434,2,0,L|433:179,1,85
447,116,71717,1,8,0:0:0:0:
220,109,71859,2,0,P|289:163|369:144,1,170
306,67,72283,1,8,0:0:0:0:
426,217,72425,1,8,0:0:0:0:
214,239,72566,5,0,0:0:0:0:
364,147,72708,1,0,0:0:0:0:
273,331,72849,2,0,L|160:355,1,85,8|0,0:0|0:0,0:0:0:0:
86,306,73132,6,0,P|66:263|82:202,1,85
154,141,73415,1,8,0:0:0:0:
0,183,73557,1,8,0:0:0:0:
221,251,73698,1,0,0:0:0:0:
221,251,73840,1,0,0:0:0:0:
176,51,73981,2,0,P|116:57|68:165,1,170,8|0,0:0|0:0,0:0:0:0:
86,306,74406,1,0,0:0:0:0:
306,222,74547,1,8,0:0:0:0:
154,141,74689,1,0,0:0:0:0:
313,323,74830,5,0,0:0:0:0:
464,194,74972,1,0,0:0:0:0:
313,323,75113,1,8,0:0:0:0:
464,194,75255,1,8,0:0:0:0:
487,346,75396,6,0,L|397:336,1,85
152,256,75679,2,0,L|242:266,1,85,8|0,0:0|0:0,0:0:0:0:
346,153,75963,1,0,0:0:0:0:
313,323,76104,1,0,0:0:0:0:
259,142,76245,2,0,P|293:85|407:90,1,170,8|0,0:0|0:0,0:0:0:0:
419,258,76670,1,0,0:0:0:0:
512,158,76811,1,8,0:0:0:0:
512,158,76953,1,0,0:0:0:0:
490,328,77095,5,0,0:0:0:0:
346,153,77236,1,0,0:0:0:0:
490,328,77378,2,0,L|383:365,1,85,8|0,0:0|0:0,0:0:0:0:
284,358,77661,6,0,L|223:337,2,56.6666666666667
244,246,77944,2,0,L|231:183,2,56.6666666666667,8|0|0,0:0|0:0|0:0,0:0:0:0:
145,286,78227,2,0,L|102:323,2,56.6666666666667
71,221,78510,5,8,0:0:0:0:
67,187,78604,1,0,0:0:0:0:
64,153,78698,1,0,0:0:0:0:
60,118,78793,5,4,0:0:0:0:
233,190,78934,1,4,0:0:0:0:
109,39,79076,2,0,L|2:25,1,85,8|4,0:0|0:0,0:0:0:0:
284,105,79359,1,0,0:0:0:0:
284,105,79429,1,0,0:0:0:0:
284,105,79500,2,4,L|391:91,1,85,4|12,0:0|0:0,0:0:0:0:
474,87,79925,5,4,0:0:0:0:
474,87,80066,1,0,0:0:0:0:
456,237,80208,1,8,0:0:0:0:
456,237,80349,2,0,L|371:248,1,85
166,282,80632,5,0,0:0:0:0:
222,356,80774,1,8,0:0:0:0:
300,305,80915,1,0,0:0:0:0:
204,174,81057,5,0,0:0:0:0:
204,174,81198,1,0,0:0:0:0:
59,250,81340,1,8,0:0:0:0:
59,250,81481,2,0,P|24:181|80:91,1,170
60,102,81906,1,8,0:0:0:0:
204,174,82047,5,0,0:0:0:0:
356,24,82189,1,0,0:0:0:0:
263,47,82330,1,0,0:0:0:0:
334,119,82472,1,8,0:0:0:0:
356,24,82613,1,0,0:0:0:0:
402,228,82896,5,0,0:0:0:0:
433,86,83038,1,8,0:0:0:0:
304,265,83321,5,0,0:0:0:0:
204,174,83462,1,0,0:0:0:0:
269,355,83604,2,0,L|365:348,1,85,8|0,0:0|0:0,0:0:0:0:
481,336,84028,1,0,0:0:0:0:
481,336,84170,1,8,0:0:0:0:
412,255,84311,5,0,0:0:0:0:
412,255,84382,1,0,0:0:0:0:
412,255,84453,2,0,L|405:170,1,85,4|0,0:0|0:0,0:0:0:0:
398,53,84736,1,8,0:0:0:0:
398,53,84878,1,0,0:0:0:0:
167,191,85161,5,0,0:0:0:0:
289,115,85303,1,8,0:0:0:0:
112,277,85585,2,0,L|-6:258,2,85,0|0|8,0:0|0:0|0:0,0:0:0:0:
231,295,86010,1,0,0:0:0:0:
193,87,86293,5,0,0:0:0:0:
231,295,86434,1,8,0:0:0:0:
262,190,86576,5,0,0:0:0:0:
301,365,86717,1,0,0:0:0:0:
328,263,86859,1,0,0:0:0:0:
328,263,87000,1,8,0:0:0:0:
145,354,87142,2,0,L|33:323,1,85
231,295,87425,5,0,0:0:0:0:
231,295,87566,1,8,0:0:0:0:
56,235,87849,6,0,P|41:193|74:126,1,85
279,123,88132,1,8,0:0:0:0:
129,185,88274,1,0,0:0:0:0:
208,43,88557,5,0,0:0:0:0:
163,279,88698,1,8,0:0:0:0:
249,344,88840,5,0,0:0:0:0:
249,344,88911,1,0,0:0:0:0:
249,344,88981,2,0,L|355:337,1,85,4|0,0:0|0:0,0:0:0:0:
456,329,89264,1,8,0:0:0:0:
456,329,89406,1,0,0:0:0:0:
485,166,89689,5,0,0:0:0:0:
456,329,89830,1,8,0:0:0:0:
311,267,89972,5,0,0:0:0:0:
311,267,90113,1,0,0:0:0:0:
229,227,90255,1,0,0:0:0:0:
269,146,90396,1,8,0:0:0:0:
349,185,90538,1,0,0:0:0:0:
155,325,90821,5,0,0:0:0:0:
126,162,90962,1,8,0:0:0:0:
55,346,91104,5,0,0:0:0:0:
155,325,91245,1,0,0:0:0:0:
89,253,91387,1,0,0:0:0:0:
55,346,91528,1,8,0:0:0:0:
251,295,91670,1,0,0:0:0:0:
31,143,91953,5,0,0:0:0:0:
227,194,92095,1,8,0:0:0:0:
193,91,92236,1,0,0:0:0:0:
227,194,92378,5,0,0:0:0:0:
193,91,92519,1,0,0:0:0:0:
131,167,92661,1,8,0:0:0:0:
321,223,92802,2,0,L|501:265,1,170
486,261,93227,1,8,0:0:0:0:
372,339,93368,5,0,0:0:0:0:
372,339,93439,1,0,0:0:0:0:
372,339,93510,2,0,L|261:364,1,85,4|0,0:0|0:0,0:0:0:0:
181,380,93793,1,8,0:0:0:0:
222,282,93934,1,0,0:0:0:0:
181,380,94217,5,0,0:0:0:0:
159,185,94359,1,8,0:0:0:0:
99,263,94642,5,0,0:0:0:0:
63,174,94783,1,0,0:0:0:0:
159,185,94925,1,8,0:0:0:0:
99,263,95066,1,0,0:0:0:0:
131,77,95349,5,0,0:0:0:0:
188,297,95491,1,8,0:0:0:0:
99,263,95632,5,0,0:0:0:0:
260,232,95774,1,0,0:0:0:0:
99,263,95915,1,0,0:0:0:0:
260,232,96057,1,8,0:0:0:0:
109,363,96198,1,0,0:0:0:0:
170,164,96481,5,0,0:0:0:0:
109,363,96622,1,8,0:0:0:0:
170,164,96906,6,0,L|267:130,1,85
354,98,97189,1,8,0:0:0:0:
354,98,97472,5,6,0:0:0:0:
256,192,97542,12,0,99665,0:0:0:0:
391,324,99736,6,0,L|407:169,1,127.500004863739
480,108,100302,5,8,0:0:0:0:
472,97,100443,1,8,0:0:0:0:
464,86,100585,1,8,0:0:0:0:
456,75,100726,1,8,0:0:0:0:
448,64,100868,6,0,B|383:50|383:50|300:58,1,127.500004863739
227,108,101434,5,8,0:0:0:0:
322,174,101575,1,8,0:0:0:0:
227,108,101717,1,8,0:0:0:0:
322,174,101858,1,8,0:0:0:0:
198,345,102000,6,0,L|210:216,1,127.500004863739
90,265,102566,5,4,3:0:0:0:
77,263,102707,1,4,3:0:0:0:
63,155,102849,1,4,3:0:0:0:
50,153,102990,1,4,3:0:0:0:
121,62,103132,1,4,3:0:0:0:
228,171,103415,6,0,P|264:117|336:99,1,127.500004863739
436,137,103839,2,0,L|396:-3,1,127.500004863739
322,188,104264,6,0,L|362:328,1,127.500004863739
457,312,104830,5,8,0:0:0:0:
493,178,104972,1,8,0:0:0:0:
457,312,105113,1,8,0:0:0:0:
493,178,105255,1,8,0:0:0:0:
289,274,105396,6,0,P|224:269|168:319,1,127.500004863739
87,361,105962,1,8,3:0:0:0:
120,200,106104,1,8,3:0:0:0:
87,361,106245,1,8,3:0:0:0:
21,270,106387,1,8,3:0:0:0:
201,147,106528,6,0,P|194:84|143:48,1,127.500004863739
264,230,107094,5,4,3:0:0:0:
301,237,107236,1,4,3:0:0:0:
338,244,107377,1,4,3:0:0:0:
375,251,107519,1,4,3:0:0:0:
412,257,107660,1,4,3:0:0:0:
410,161,107943,5,8,0:0:0:0:
359,354,108226,1,8,0:0:0:0:
493,126,108368,2,0,P|443:80|370:83,1,127.500004863739,8|0,0:0|0:0,0:0:0:0:
304,109,108792,6,0,P|241:103|197:60,1,127.500004863739
126,155,109358,5,0,0:0:0:0:
75,53,109500,1,0,0:0:0:0:
196,59,109641,1,0,0:0:0:0:
15,128,109783,1,0,0:0:0:0:
99,267,109924,6,0,L|220:219,1,127.500004863739
324,172,110490,5,0,0:0:0:0:
476,257,110632,1,0,0:0:0:0:
324,172,110773,1,0,0:0:0:0:
476,257,110915,1,0,0:0:0:0:
329,81,111056,6,0,P|288:85|233:157,1,127.500004863739
344,305,111622,5,8,0:0:0:0:
465,171,111764,1,8,0:0:0:0:
324,172,111905,1,8,0:0:0:0:
476,257,112047,1,8,0:0:0:0:
459,83,112188,1,8,0:0:0:0:
324,172,112471,6,0,L|185:139,1,127.500004863739,0|0,0:0|0:0,0:0:0:0:
137,176,112896,2,0,P|175:127|172:65,1,127.500004863739,0|0,0:0|0:0,0:0:0:0:
46,245,113321,2,0,L|185:278,1,127.500004863739
329,338,113887,5,8,3:0:0:0:
297,345,114028,1,8,3:0:0:0:
266,352,114170,1,8,3:0:0:0:
235,360,114311,1,8,3:0:0:0:
423,301,114453,6,0,P|425:235|365:179,1,127.500004863739
292,167,115019,5,4,3:0:0:0:
196,273,115160,1,4,3:0:0:0:
292,167,115302,1,4,3:0:0:0:
144,190,115443,1,4,3:0:0:0:
282,71,115585,6,0,L|139:42,1,127.500004863739
43,24,116151,5,8,0:0:0:0:
49,99,116292,1,8,0:0:0:0:
55,175,116434,1,8,0:0:0:0:
62,250,116575,1,8,0:0:0:0:
69,326,116717,5,8,0:0:0:0:
329,206,117000,5,0,0:0:0:0:
69,326,117283,1,0,0:0:0:0:
69,326,117424,1,0,0:0:0:0:
426,161,117707,1,0,0:0:0:0:
302,302,117849,6,0,P|243:249|246:151,1,170,4|8,0:0|0:0,0:0:0:0:
383,24,118273,1,0,0:0:0:0:
426,161,118415,2,0,L|302:160,1,85,0|0,0:0|0:0,0:0:0:0:
131,159,118698,1,8,0:0:0:0:
317,383,118839,2,0,P|380:332|368:252,1,170,0|0,0:0|0:0,0:0:0:0:
131,159,119264,1,8,0:0:0:0:
192,309,119405,1,8,0:0:0:0:
202,72,119547,5,0,0:0:0:0:
39,273,119688,1,0,0:0:0:0:
304,304,119830,2,0,L|258:205,1,85,8|0,0:0|0:0,0:0:0:0:
386,349,120113,6,0,P|450:330|484:218,1,170,4|8,0:0|0:0,0:0:0:0:
364,119,120537,1,0,0:0:0:0:
398,256,120679,1,0,0:0:0:0:
445,47,120820,1,0,0:0:0:0:
234,131,120962,1,8,0:0:0:0:
471,124,121103,2,0,P|450:53|357:14,1,170,0|0,0:0|0:0,0:0:0:0:
234,131,121528,1,8,0:0:0:0:
234,131,121669,1,8,0:0:0:0:
364,119,121811,5,0,0:0:0:0:
92,133,121952,1,0,0:0:0:0:
399,281,122094,2,0,L|437:193,1,85,12|0,0:0|0:0,0:0:0:0:
445,370,122377,6,0,P|407:332|278:320,1,170,4|8,0:0|0:0,0:0:0:0:
133,367,122801,1,0,0:0:0:0:
77,217,122943,2,0,L|95:121,1,85
311,75,123226,1,8,0:0:0:0:
375,285,123367,2,0,P|291:280|226:228,1,170
336,170,123792,1,8,0:0:0:0:
271,368,123933,1,8,0:0:0:0:
192,159,124075,5,0,0:0:0:0:
430,124,124216,1,0,0:0:0:0:
204,7,124358,2,0,L|142:89,1,85,8|0,0:0|0:0,0:0:0:0:
101,206,124641,5,0,0:0:0:0:
133,251,124735,1,0,0:0:0:0:
188,264,124830,1,0,0:0:0:0:
268,225,124924,5,8,0:0:0:0:
324,225,125018,1,0,0:0:0:0:
358,270,125113,1,0,0:0:0:0:
422,330,125207,5,0,0:0:0:0:
476,315,125301,1,0,0:0:0:0:
497,262,125396,1,0,0:0:0:0:
456,188,125490,5,8,0:0:0:0:
432,136,125584,1,0,0:0:0:0:
451,82,125679,1,0,0:0:0:0:
368,37,125773,6,0,L|264:52,1,85,4|0,0:0|0:0,0:0:0:0:
189,217,126056,1,8,0:0:0:0:
189,217,126198,2,0,P|214:141|136:58,1,170,8|0,0:0|0:0,0:0:0:0:
0,160,126622,1,4,0:0:0:0:
216,318,126905,5,4,0:0:0:0:
216,318,127047,1,0,0:0:0:0:
216,318,127188,6,0,L|334:327,1,85,8|0,0:0|0:0,0:0:0:0:
446,190,127613,1,0,0:0:0:0:
353,147,127754,1,8,0:0:0:0:
361,249,127896,1,0,0:0:0:0:
435,89,128037,5,0,0:0:0:0:
278,86,128179,1,0,0:0:0:0:
361,249,128320,1,8,0:0:0:0:
367,20,128462,1,0,0:0:0:0:
187,156,128745,5,0,0:0:0:0:
446,190,128886,1,8,0:0:0:0:
265,304,129169,5,0,0:0:0:0:
103,248,129311,1,0,0:0:0:0:
187,156,129452,1,8,0:0:0:0:
128,346,129594,1,0,0:0:0:0:
283,214,129877,5,0,0:0:0:0:
20,274,130018,1,8,0:0:0:0:
265,304,130301,5,0,0:0:0:0:
187,156,130443,1,0,0:0:0:0:
265,304,130584,1,8,0:0:0:0:
247,90,130726,2,0,P|197:67|95:151,1,170
103,118,131150,1,8,0:0:0:0:
276,195,131292,5,0,0:0:0:0:
276,195,131363,1,0,0:0:0:0:
276,195,131433,1,4,0:0:0:0:
381,58,131575,1,0,0:0:0:0:
247,90,131716,1,8,0:0:0:0:
489,80,131858,1,0,0:0:0:0:
489,80,132141,5,0,0:0:0:0:
411,165,132282,1,8,0:0:0:0:
381,58,132424,1,0,0:0:0:0:
487,224,132565,5,0,0:0:0:0:
276,195,132707,1,0,0:0:0:0:
489,80,132849,1,8,0:0:0:0:
440,310,132990,1,0,0:0:0:0:
210,280,133273,5,0,0:0:0:0:
487,224,133415,1,8,0:0:0:0:
276,195,133698,5,0,0:0:0:0:
191,180,133839,1,0,0:0:0:0:
203,96,133981,1,8,0:0:0:0:
288,110,134122,1,0,0:0:0:0:
210,280,134405,5,0,0:0:0:0:
269,21,134547,1,8,0:0:0:0:
469,167,134830,5,0,0:0:0:0:
391,94,134971,1,0,0:0:0:0:
431,302,135113,1,8,0:0:0:0:
493,74,135254,2,0,P|462:25|357:4,1,170
357,3,135679,1,8,0:0:0:0:
245,222,135820,5,0,0:0:0:0:
245,222,135891,1,0,0:0:0:0:
245,222,135962,2,0,L|352:197,1,85,4|0,0:0|0:0,0:0:0:0:
469,167,136245,1,8,0:0:0:0:
202,125,136386,1,0,0:0:0:0:
245,222,136669,5,0,0:0:0:0:
293,68,136810,1,8,0:0:0:0:
254,331,137094,5,0,0:0:0:0:
327,202,137235,1,0,0:0:0:0:
144,231,137377,1,8,0:0:0:0:
400,272,137518,1,0,0:0:0:0:
470,152,137801,5,0,0:0:0:0:
245,222,137943,1,8,0:0:0:0:
400,272,138084,5,0,0:0:0:0:
327,202,138226,1,0,0:0:0:0:
394,365,138367,1,0,0:0:0:0:
470,152,138509,1,8,0:0:0:0:
245,222,138650,1,0,0:0:0:0:
488,246,138933,5,0,0:0:0:0:
453,38,139074,1,8,0:0:0:0:
470,152,139358,5,0,0:0:0:0:
245,222,139499,1,0,0:0:0:0:
470,152,139641,1,8,0:0:0:0:
219,311,139782,2,0,P|156:236|192:150,1,170
170,172,140207,1,8,0:0:0:0:
332,98,140348,5,0,0:0:0:0:
332,98,140419,1,0,0:0:0:0:
332,98,140490,1,4,0:0:0:0:
247,223,140632,1,0,0:0:0:0:
280,1,140773,1,8,0:0:0:0:
369,181,140915,1,0,0:0:0:0:
76,157,141198,5,0,0:0:0:0:
369,181,141339,1,8,0:0:0:0:
302,285,141481,5,0,0:0:0:0:
243,179,141622,1,0,0:0:0:0:
369,181,141764,1,0,0:0:0:0:
194,281,141905,1,8,0:0:0:0:
175,99,142047,1,0,0:0:0:0:
87,203,142330,5,0,0:0:0:0:
369,181,142471,1,8,0:0:0:0:
329,285,142754,5,0,0:0:0:0:
466,225,142896,1,0,0:0:0:0:
275,138,143037,1,8,0:0:0:0:
407,353,143179,1,0,0:0:0:0:
449,126,143462,5,0,0:0:0:0:
407,353,143603,1,8,0:0:0:0:
466,225,143886,5,0,0:0:0:0:
321,384,144028,1,0,0:0:0:0:
449,126,144169,1,8,0:0:0:0:
505,321,144311,1,0,0:0:0:0:
338,259,144594,5,4,0:0:0:0:
213,379,144735,1,12,0:0:0:0:
213,379,145018,6,0,L|245:275,1,85,4|0,0:0|0:0,0:0:0:0:
215,115,145301,1,8,0:0:0:0:
27,215,145443,2,0,P|71:285|173:300,1,170
350,174,145867,1,8,0:0:0:0:
152,306,146009,1,0,0:0:0:0:
410,238,146150,6,0,P|439:180|432:148,1,85
94,133,146433,1,8,0:0:0:0:
226,263,146575,2,0,B|272:296|335:284|335:284|380:349|480:310,1,255,0|8,0:0|0:0,0:0:0:0:
461,316,147141,5,0,0:0:0:0:
350,174,147282,1,0,0:0:0:0:
503,224,147424,1,0,0:0:0:0:
335,286,147565,1,8,0:0:0:0:
299,88,147707,2,0,P|369:80|451:151,1,170
474,381,148132,2,0,L|492:278,1,85,8|0,0:0|0:0,0:0:0:0:
350,174,148415,5,0,0:0:0:0:
503,224,148556,1,0,0:0:0:0:
250,313,148698,1,8,0:0:0:0:
302,76,148839,2,0,P|374:74|454:139,1,170
242,194,149264,5,8,0:0:0:0:
217,198,149334,1,0,0:0:0:0:
191,202,149405,1,0,0:0:0:0:
165,206,149476,1,0,0:0:0:0:
139,209,149547,6,0,P|122:171|128:122,1,85,12|0,0:0|0:0,0:0:0:0:
350,174,149830,1,8,0:0:0:0:
182,290,149971,2,0,B|51:310|51:310|83:289,1,170
309,293,150396,6,0,P|325:352|320:390,1,85,8|0,0:0|0:0,0:0:0:0:
125,128,150679,2,0,L|220:116,1,85
445,93,150962,1,8,0:0:0:0:
309,293,151103,2,0,B|225:321|144:303|144:303|99:333|99:333|154:344,1,255,0|4,0:0|0:0,0:0:0:0:
405,276,151669,5,0,0:0:0:0:
405,276,151740,1,0,0:0:0:0:
405,276,151811,2,0,P|414:226|393:180,1,85,4|0,0:0|0:0,0:0:0:0:
199,220,152094,1,8,0:0:0:0:
362,371,152235,2,0,P|445:367|502:303,1,170
459,81,152660,1,8,0:0:0:0:
512,215,152801,1,0,0:0:0:0:
366,39,152943,6,0,L|246:63,1,85
384,255,153226,1,8,0:0:0:0:
359,51,153367,2,0,L|182:86,1,170
192,83,153792,1,8,0:0:0:0:
195,208,154075,5,4,0:0:0:0:
270,343,154216,1,0,0:0:0:0:
279,145,154358,1,8,0:0:0:0:
270,343,154499,1,0,0:0:0:0:
270,343,154782,6,0,L|160:293,1,85,0|8,0:0|0:0,0:0:0:0:
99,261,155065,1,0,0:0:0:0:
263,236,155207,1,0,0:0:0:0:
105,360,155348,1,0,0:0:0:0:
170,166,155490,1,8,0:0:0:0:
192,307,155632,1,0,0:0:0:0:
48,207,155915,5,0,0:0:0:0:
105,360,156056,1,8,0:0:0:0:
258,105,156339,5,0,0:0:0:0:
170,166,156481,1,0,0:0:0:0:
165,65,156622,1,8,0:0:0:0:
258,105,156764,1,0,0:0:0:0:
67,120,157047,5,0,0:0:0:0:
301,230,157188,2,0,L|405:206,1,85,8|0,0:0|0:0,0:0:0:0:
493,184,157471,5,0,0:0:0:0:
347,129,157613,1,0,0:0:0:0:
331,317,157754,1,8,0:0:0:0:
331,317,157896,2,0,P|392:325|488:261,1,170
481,272,158320,1,8,0:0:0:0:
383,210,158462,5,0,0:0:0:0:
383,210,158532,1,0,0:0:0:0:
383,210,158603,1,4,0:0:0:0:
331,317,158745,1,0,0:0:0:0:
493,184,158886,1,8,0:0:0:0:
291,132,159028,1,0,0:0:0:0:
331,317,159311,5,0,0:0:0:0:
410,113,159453,1,8,0:0:0:0:
188,155,159735,5,0,0:0:0:0:
410,113,159877,1,0,0:0:0:0:
235,53,160018,1,8,0:0:0:0:
243,257,160160,1,0,0:0:0:0:
243,257,160443,5,0,0:0:0:0:
48,157,160584,1,8,0:0:0:0:
115,271,160726,5,0,0:0:0:0:
298,167,160867,1,0,0:0:0:0:
131,111,161009,1,0,0:0:0:0:
172,344,161150,1,8,0:0:0:0:
196,178,161292,1,0,0:0:0:0:
115,271,161575,5,0,0:0:0:0:
298,167,161716,1,8,0:0:0:0:
353,267,161999,5,0,0:0:0:0:
298,167,162141,1,0,0:0:0:0:
339,356,162282,1,8,0:0:0:0:
433,187,162424,1,0,0:0:0:0:
490,279,162707,5,0,0:0:0:0:
452,77,162848,1,8,0:0:0:0:
336,49,162990,5,0,0:0:0:0:
336,49,163061,1,0,0:0:0:0:
336,49,163132,2,0,L|234:64,1,85,6|0,0:0|0:0,0:0:0:0:
58,212,163415,1,8,0:0:0:0:
58,212,163556,2,0,L|160:197,1,85,2|0,0:0|0:0,0:0:0:0:
269,266,163839,5,0,0:0:0:0:
73,299,163981,1,8,0:0:0:0:
306,357,164122,1,0,0:0:0:0:
382,291,164264,6,0,L|393:183,1,85,2|0,0:0|0:0,0:0:0:0:
315,23,164547,1,8,0:0:0:0:
315,23,164688,2,0,L|304:131,1,85,2|0,0:0|0:0,0:0:0:0:
294,231,164971,1,2,0:0:0:0:
418,81,165113,1,10,0:0:0:0:
294,231,165254,1,2,0:0:0:0:
470,197,165396,6,0,L|388:173,1,85,2|0,0:0|0:0,0:0:0:0:
219,306,165679,1,8,0:0:0:0:
219,306,165820,2,0,L|300:329,1,85,2|0,0:0|0:0,0:0:0:0:
429,360,166103,5,0,0:0:0:0:
294,231,166245,1,8,0:0:0:0:
507,295,166386,1,0,0:0:0:0:
300,329,166528,6,0,L|219:306,1,85,2|0,0:0|0:0,0:0:0:0:
99,264,166811,1,8,0:0:0:0:
99,264,166952,1,0,0:0:0:0:
99,264,167094,1,0,0:0:0:0:
141,358,167235,5,2,0:0:0:0:
151,168,167377,1,10,0:0:0:0:
141,358,167518,1,2,0:0:0:0:
249,142,167660,6,0,L|216:55,1,85,2|0,0:0|0:0,0:0:0:0:
13,124,167943,1,8,0:0:0:0:
13,124,168084,2,0,L|46:211,1,85,2|0,0:0|0:0,0:0:0:0:
201,277,168367,5,0,0:0:0:0:
404,152,168509,1,8,0:0:0:0:
269,180,168650,1,0,0:0:0:0:
441,311,168792,6,0,L|461:211,1,85,2|0,0:0|0:0,0:0:0:0:
287,97,169075,1,8,0:0:0:0:
287,97,169216,2,0,L|270:180,1,85,2|0,0:0|0:0,0:0:0:0:
237,314,169499,5,2,0:0:0:0:
191,137,169641,1,10,0:0:0:0:
237,314,169782,1,2,0:0:0:0:
99,330,169924,6,0,L|7:288,1,85,2|0,0:0|0:0,0:0:0:0:
33,121,170207,1,8,0:0:0:0:
33,121,170348,2,0,L|110:156,1,85,2|0,0:0|0:0,0:0:0:0:
261,208,170632,1,0,0:0:0:0:
104,63,170773,1,8,0:0:0:0:
110,252,170915,1,0,0:0:0:0:
261,208,171056,6,0,L|297:131,1,85,2|0,0:0|0:0,0:0:0:0:
110,252,171339,1,8,0:0:0:0:
110,252,171481,2,0,L|74:329,1,85,2|0,0:0|0:0,0:0:0:0:
217,301,171905,5,12,0:0:0:0:
440,112,172188,6,2,B|457:78|457:78|331:124|259:82|259:82|198:111|111:84|111:84|67:93|67:93|64:56,1,446.250017023087,12|2,0:0|0:0,0:0:0:0:
86,215,174452,6,2,B|113:189|113:189|52:218|52:218|89:250|89:250|186:205|240:230|240:230|319:213|382:235,1,446.250017023087,12|2,0:0|0:0,0:0:0:0:
365,119,176716,6,2,B|416:101|456:116|456:116|440:0|294:5|279:94|279:94|298:144|284:192|284:192|355:246|438:196|438:196|362:285|413:354|413:354|351:336|288:358,1,892.500034046174,12|0,0:0|0:0,0:0:0:0:
311,351,178839,1,0,0:0:0:0:
311,351,178981,1,0,0:0:0:0:
152,306,179264,6,0,L|62:322,2,63.7500024318696,2|0|8,0:0|0:0|0:0,0:0:0:0:
290,204,179830,2,0,L|358:214,2,63.7500024318696
163,72,180396,2,0,B|125:77|125:77|81:82,2,63.7500024318696,2|0|8,0:0|0:0|0:0,0:0:0:0:
371,33,180962,1,0,0:0:0:0:
371,33,181245,5,4,0:0:0:0:
389,35,181315,1,0,0:0:0:0:
407,38,181386,1,0,0:0:0:0:
425,41,181457,1,0,0:0:0:0:
475,106,181528,5,0,0:0:0:0:
447,98,181598,1,0,0:0:0:0:
418,96,181669,1,0,0:0:0:0:
390,104,181740,1,0,0:0:0:0:
368,117,181811,5,8,0:0:0:0:
350,136,181882,1,0,0:0:0:0:
339,159,181952,1,0,0:0:0:0:
337,184,182023,1,0,0:0:0:0:
359,263,182094,5,0,0:0:0:0:
370,233,182165,1,0,0:0:0:0:
395,213,182235,1,0,0:0:0:0:
426,210,182306,1,0,0:0:0:0:
457,254,182377,5,0,0:0:0:0:
452,304,182448,1,0,0:0:0:0:
415,338,182518,1,0,0:0:0:0:
363,339,182589,1,0,0:0:0:0:
320,311,182660,1,4,0:0:0:0:
284,274,182731,1,0,0:0:0:0:
234,264,182801,1,0,0:0:0:0:
187,286,182872,1,0,0:0:0:0:
164,332,182943,5,8,0:0:0:0:
111,249,183084,5,0,0:0:0:0:
74,280,183155,1,0,0:0:0:0:
26,281,183225,1,0,0:0:0:0:
45,156,183367,5,0,0:0:0:0:
88,136,183438,1,0,0:0:0:0:
135,140,183509,1,0,0:0:0:0:
251,92,183650,5,0,0:0:0:0:
291,67,183720,1,0,0:0:0:0:
307,21,183791,1,0,0:0:0:0:
412,101,183933,5,0,0:0:0:0:
414,148,184004,1,0,0:0:0:0:
450,179,184075,1,0,0:0:0:0:
462,295,184216,5,0,0:0:0:0:
463,342,184287,1,0,0:0:0:0:
421,366,184358,1,0,0:0:0:0:
314,302,184499,5,0,0:0:0:0:
283,264,184570,1,0,0:0:0:0:
275,216,184641,2,0,L|295:183,4,21.2500008106232
184,203,184924,6,0,L|98:224,1,63.7500024318696,4|0,0:0|0:0,0:0:0:0:
178,334,185207,1,8,0:0:0:0:
178,334,185348,1,8,0:0:0:0:
115,98,185632,1,0,0:0:0:0:
115,98,185773,6,0,P|212:135|318:110,1,191.250007295609,4|0,0:0|0:0,0:0:0:0:
402,39,186339,2,0,P|435:90|421:170,1,127.500004863739,8|0,0:0|0:0,0:0:0:0:
452,307,186764,2,0,P|400:269|318:268,1,127.500004863739
228,350,187188,2,0,L|256:201,1,127.500004863739,0|8,0:0|0:0,0:0:0:0:
275,92,187613,1,0,0:0:0:0:
228,350,187754,1,0,0:0:0:0:
17,287,188037,6,0,P|70:323|170:253,1,191.250007295609
101,115,188603,2,0,L|88:242,1,127.500004863739,8|0,0:0|0:0,0:0:0:0:
180,176,189028,2,0,P|248:144|309:171,1,127.500004863739
389,238,189452,2,0,L|376:111,1,127.500004863739,0|8,0:0|0:0,0:0:0:0:
247,225,189877,1,0,0:0:0:0:
478,143,190018,1,0,0:0:0:0:
470,300,190301,6,0,P|388:332|291:272,1,191.250007295609
244,150,190867,2,0,P|243:238|199:276,1,127.500004863739,8|0,0:0|0:0,0:0:0:0:
223,375,191292,2,0,P|182:330|102:332,1,127.500004863739
27,376,191716,2,0,L|53:237,1,127.500004863739,0|8,0:0|0:0,0:0:0:0:
130,93,192141,1,0,0:0:0:0:
118,324,192282,1,0,0:0:0:0:
102,186,192565,6,0,P|156:183|210:149,1,95.6250036478044,4|0,0:0|0:0,0:0:0:0:
264,109,192848,5,0,0:0:0:0:
313,75,192943,1,0,0:0:0:0:
372,78,193037,1,0,0:0:0:0:
413,121,193132,1,4,0:0:0:0:
414,180,193226,1,0,0:0:0:0:
384,231,193320,1,0,0:0:0:0:
326,246,193415,5,8,0:0:0:0:
266,243,193509,1,0,0:0:0:0:
229,289,193603,1,0,0:0:0:0:
239,347,193698,1,8,0:0:0:0:
290,375,193792,1,0,0:0:0:0:
341,346,193886,1,0,0:0:0:0:
365,291,193981,6,0,L|353:233,2,42.5000016212464,12|0|0,0:0|0:0|0:0,0:0:0:0:
182,217,194264,2,8,L|170:159,2,42.5000016212464,12|8|8,0:0|0:0|0:0,0:0:0:0:
377,101,194547,5,4,0:0:0:0:
377,101,194830,5,12,0:0:0:0:
256,192,209547,12,0,210608,0:0:0:0:
193,320,210679,6,2,L|471:292,1,255.000009727478
100,238,211740,6,4,L|41:225,1,31.8750012159348,6|4,0:0|0:0,0:0:0:0:
308,129,212660,5,2,0:0:0:0:
308,129,212802,1,2,0:0:0:0:
308,129,212943,2,0,L|363:110,4,31.8750012159348,6|0|0|0|0,0:0|0:0|0:0|0:0|0:0,0:0:0:0:
183,68,213509,2,0,L|128:49,5,31.8750012159348,4|0|0|0|0|0,0:0|0:0|0:0|0:0|0:0|0:0,0:0:0:0:
288,231,214075,5,8,0:0:0:0:
308,222,214146,1,8,0:0:0:0:
328,213,214216,1,8,0:0:0:0:
348,205,214287,1,8,0:0:0:0:
369,197,214358,5,8,0:0:0:0:
363,257,214429,1,8,0:0:0:0:
321,299,214499,1,8,0:0:0:0:
261,310,214570,1,8,0:0:0:0:
209,277,214641,5,4,0:0:0:0:
213,288,214712,1,0,0:0:0:0:
217,299,214782,1,0,0:0:0:0:
221,310,214853,1,0,0:0:0:0:
189,351,214924,5,4,0:0:0:0:
185,340,214995,1,0,0:0:0:0:
181,329,215065,1,0,0:0:0:0:
177,318,215136,1,0,0:0:0:0:
145,281,215207,6,0,L|52:264,1,85,2|8,0:0|0:0,0:0:0:0:
217,85,215490,1,0,0:0:0:0:
248,227,215632,1,8,0:0:0:0:
25,156,215773,6,0,L|136:117,1,85,2|8,0:0|0:0,0:0:0:0:
338,123,216056,1,0,0:0:0:0:
136,38,216198,1,8,0:0:0:0:
435,40,216339,6,8,P|482:46|527:75,1,85,2|8,0:0|0:0,0:0:0:0:
418,236,216622,1,0,0:0:0:0:
453,126,216764,1,8,0:0:0:0:
493,305,216905,1,0,0:0:0:0:
323,283,217047,1,8,0:0:0:0:
512,203,217188,5,2,0:0:0:0:
404,356,217330,1,10,0:0:0:0:
236,247,217471,2,0,L|209:161,1,85,2|8,0:0|0:0,0:0:0:0:
418,70,217754,2,0,L|445:156,1,85,2|8,0:0|0:0,0:0:0:0:
295,273,218037,6,0,P|250:283|208:331,1,85,2|8,0:0|0:0,0:0:0:0:
357,47,218320,2,0,P|402:37|444:-11,1,85,2|8,0:0|0:0,0:0:0:0:
413,255,218603,5,2,0:0:0:0:
418,70,218745,1,10,0:0:0:0:
406,274,218886,1,2,0:0:0:0:
512,181,219028,1,10,0:0:0:0:
306,133,219169,5,6,0:0:0:0:
298,137,219240,1,0,0:0:0:0:
290,141,219311,1,8,0:0:0:0:
282,145,219382,1,0,0:0:0:0:
274,149,219452,1,4,0:0:0:0:
192,247,219594,5,0,0:0:0:0:
192,247,219665,1,0,0:0:0:0:
192,247,219735,2,0,L|141:153,1,85,12|0,0:0|0:0,0:0:0:0:
145,160,219948,1,0,0:0:0:0:
139,148,220018,1,8,0:0:0:0:
135,334,220160,5,0,0:0:0:0:
135,334,220231,1,0,0:0:0:0:
135,334,220301,2,0,P|207:354|244:348,1,85,10|0,0:0|0:0,0:0:0:0:
229,352,220514,1,0,0:0:0:0:
241,350,220584,2,0,L|313:337,1,42.5,10|0,0:0|0:0,0:0:0:0:
371,227,220726,1,2,0:0:0:0:
371,227,220797,1,0,0:0:0:0:
371,227,220867,2,0,L|299:240,1,42.5,10|0,0:0|0:0,0:0:0:0:
465,294,221009,5,0,0:0:0:0:
470,282,221080,1,0,0:0:0:0:
475,270,221150,1,8,0:0:0:0:
425,146,221292,5,0,0:0:0:0:
430,134,221363,1,0,0:0:0:0:
437,123,221433,6,0,L|464:70,1,42.5,10|0,0:0|0:0,0:0:0:0:
327,96,221575,1,0,0:0:0:0:
314,99,221646,1,0,0:0:0:0:
302,103,221716,2,0,L|231:125,1,42.5,10|0,0:0|0:0,0:0:0:0:
339,323,221858,2,0,L|410:301,1,42.5,2|0,0:0|0:0,0:0:0:0:
257,205,221999,2,0,L|186:227,1,42.5,10|0,0:0|0:0,0:0:0:0:
187,352,222141,5,0,0:0:0:0:
181,340,222212,1,0,0:0:0:0:
175,328,222282,1,8,0:0:0:0:
94,282,222424,5,0,0:0:0:0:
88,270,222495,1,0,0:0:0:0:
82,258,222565,2,0,L|50:170,1,85,10|0,0:0|0:0,0:0:0:0:
47,166,222778,1,0,0:0:0:0:
42,154,222848,6,0,L|22:96,1,42.5,10|0,0:0|0:0,0:0:0:0:
169,28,222990,2,0,L|128:74,1,42.5,2|0,0:0|0:0,0:0:0:0:
159,184,223132,6,0,L|219:195,1,42.5,10|0,0:0|0:0,0:0:0:0:
291,70,223273,2,0,L|263:37,1,42.5,2|0,0:0|0:0,0:0:0:0:
325,255,223415,6,0,L|284:247,1,42.5,10|0,0:0|0:0,0:0:0:0:
381,81,223556,2,0,L|408:48,1,42.5,2|0,0:0|0:0,0:0:0:0:
396,318,223698,6,0,L|437:309,1,42.5,10|0,0:0|0:0,0:0:0:0:
280,168,223839,2,0,L|238:176,1,42.5,2|0,0:0|0:0,0:0:0:0:
267,376,223981,6,0,L|301:328,1,42.5,10|0,0:0|0:0,0:0:0:0:
509,207,224122,2,0,L|484:241,1,42.5,2|0,0:0|0:0,0:0:0:0:
198,322,224264,6,0,P|142:313|95:323,1,85,14|0,0:0|0:0,0:0:0:0:
103,323,224476,1,0,0:0:0:0:
92,330,224547,1,8,0:0:0:0:
71,140,224688,1,0,0:0:0:0:
60,147,224759,1,0,0:0:0:0:
48,153,224830,6,0,L|-20:191,1,42.5,10|0,0:0|0:0,0:0:0:0:
112,63,224971,1,0,0:0:0:0:
123,56,225042,1,0,0:0:0:0:
135,50,225113,2,0,L|203:12,1,42.5,10|0,0:0|0:0,0:0:0:0:
252,238,225254,2,0,L|184:276,1,42.5,2|0,0:0|0:0,0:0:0:0:
279,30,225396,2,0,L|316:9,1,42.5,10|0,0:0|0:0,0:0:0:0:
479,90,225537,5,0,0:0:0:0:
463,99,225607,1,0,0:0:0:0:
447,108,225678,1,8,0:0:0:0:
464,192,225820,1,0,0:0:0:0:
448,201,225890,1,0,0:0:0:0:
429,209,225962,6,0,L|339:186,1,85,10|0,0:0|0:0,0:0:0:0:
332,184,226174,1,0,0:0:0:0:
319,180,226245,6,0,L|283:119,1,42.5,10|0,0:0|0:0,0:0:0:0:
266,345,226386,2,0,L|244:308,1,42.5,2|0,0:0|0:0,0:0:0:0:
101,282,226528,2,0,L|79:245,1,42.5,10|0,0:0|0:0,0:0:0:0:
9,147,226669,5,0,0:0:0:0:
27,136,226739,1,0,0:0:0:0:
45,125,226810,1,8,0:0:0:0:
151,170,226952,5,0,0:0:0:0:
169,159,227022,1,0,0:0:0:0:
187,147,227094,2,0,P|204:96|182:43,1,85,10|0,0:0|0:0,0:0:0:0:
187,58,227306,1,0,0:0:0:0:
174,55,227377,6,0,L|112:52,1,42.5,10|0,0:0|0:0,0:0:0:0:
297,143,227518,2,0,L|359:146,1,42.5,2|0,0:0|0:0,0:0:0:0:
117,263,227660,2,0,L|55:260,3,42.5,10|0|0|0,0:0|0:0|0:0|0:0,0:0:0:0:
187,339,227943,6,0,L|242:310,1,42.5,10|0,0:0|0:0,0:0:0:0:
151,170,228084,2,0,L|206:141,1,42.5,2|0,0:0|0:0,0:0:0:0:
323,359,228226,6,8,L|378:330,1,42.5,10|8,0:0|0:0,0:0:0:0:
229,65,228367,2,8,L|284:36,1,42.5,10|8,0:0|0:0,0:0:0:0:
442,365,228509,6,0,L|497:336,1,42.5,10|0,0:0|0:0,0:0:0:0:
348,71,228650,2,0,L|403:42,1,42.5,10|0,0:0|0:0,0:0:0:0:
487,179,228792,6,0,P|446:157|391:161,1,85,4|8,0:0|0:0,0:0:0:0:
142,294,229075,6,0,L|226:285,1,85,2|8,0:0|0:0,0:0:0:0:
242,173,229358,2,0,L|327:165,1,85,2|8,0:0|0:0,0:0:0:0:
48,130,229641,2,0,L|132:121,1,85,2|8,0:0|0:0,0:0:0:0:
408,99,229924,5,2,0:0:0:0:
413,138,229995,1,0,0:0:0:0:
417,171,230065,1,8,0:0:0:0:
421,204,230136,1,0,0:0:0:0:
422,238,230207,6,0,L|337:246,1,85,2|8,0:0|0:0,0:0:0:0:
490,339,230490,1,2,0:0:0:0:
490,339,230632,1,10,0:0:0:0:
273,306,230773,2,0,P|252:247|263:207,1,85,2|8,0:0|0:0,0:0:0:0:
292,87,231056,1,0,0:0:0:0:
337,246,231198,1,8,0:0:0:0:
173,333,231339,6,0,L|76:320,1,85,2|8,0:0|0:0,0:0:0:0:
255,226,231622,2,0,L|158:213,1,85,2|8,0:0|0:0,0:0:0:0:
143,114,231905,2,0,L|46:101,1,85,2|8,0:0|0:0,0:0:0:0:
316,137,232188,5,2,0:0:0:0:
358,143,232259,1,0,0:0:0:0:
400,150,232330,1,8,0:0:0:0:
441,157,232400,1,0,0:0:0:0:
482,164,232471,6,0,P|498:124|484:67,1,85,2|8,0:0|0:0,0:0:0:0:
269,52,232754,1,2,0:0:0:0:
269,52,232896,1,8,0:0:0:0:
404,242,233037,2,0,L|512:260,1,85,2|8,0:0|0:0,0:0:0:0:
341,384,233320,1,0,0:0:0:0:
222,297,233462,1,8,0:0:0:0:
250,149,233603,6,0,L|350:126,1,85,2|8,0:0|0:0,0:0:0:0:
364,277,233886,2,0,L|464:254,1,85,2|8,0:0|0:0,0:0:0:0:
186,71,234169,2,0,L|286:48,1,85,2|8,0:0|0:0,0:0:0:0:
187,211,234452,5,2,0:0:0:0:
149,191,234523,1,0,0:0:0:0:
106,185,234594,1,8,0:0:0:0:
63,190,234665,1,0,0:0:0:0:
27,212,234735,2,0,L|18:320,2,85,2|10|2,0:0|0:0|0:0,0:0:0:0:
97,81,235160,5,8,0:0:0:0:
97,81,235231,1,0,0:0:0:0:
97,81,235301,2,0,P|138:93|192:81,1,85,0|8,0:0|0:0,0:0:0:0:
266,59,235584,5,6,0:0:0:0:
267,55,235655,1,0,0:0:0:0:
268,51,235726,1,0,0:0:0:0:
269,47,235797,1,2,0:0:0:0:
270,43,235867,1,0,0:0:0:0:
271,39,235938,1,2,0:0:0:0:
272,35,236009,1,0,0:0:0:0:
274,31,236080,1,0,0:0:0:0:
275,27,236150,5,10,0:0:0:0:
364,258,236339,1,8,0:0:0:0:
392,123,236528,1,8,0:0:0:0:
279,308,236716,5,6,0:0:0:0:
278,304,236787,1,0,0:0:0:0:
277,300,236858,1,0,0:0:0:0:
276,296,236929,1,2,0:0:0:0:
275,292,236999,1,0,0:0:0:0:
274,288,237070,1,2,0:0:0:0:
273,284,237141,1,0,0:0:0:0:
271,280,237212,1,0,0:0:0:0:
270,276,237282,5,10,0:0:0:0:
79,230,237471,1,8,0:0:0:0:
306,174,237660,1,8,0:0:0:0:
79,230,237848,6,0,L|60:140,1,85,6|8,0:0|0:0,0:0:0:0:
140,365,238132,1,0,0:0:0:0:
140,365,238273,1,8,0:0:0:0:
64,266,238415,2,0,L|45:176,1,85,2|8,0:0|0:0,0:0:0:0:
230,180,238698,1,0,0:0:0:0:
238,178,238768,1,0,0:0:0:0:
246,176,238839,1,8,0:0:0:0:
286,56,238981,6,0,L|202:73,1,85,2|8,0:0|0:0,0:0:0:0:
81,43,239264,1,0,0:0:0:0:
79,35,239334,1,0,0:0:0:0:
77,27,239405,1,8,0:0:0:0:
141,222,239547,1,0,0:0:0:0:
202,73,239688,1,8,0:0:0:0:
251,283,239830,5,2,0:0:0:0:
202,73,239971,1,10,0:0:0:0:
90,251,240113,2,0,L|173:268,1,85,2|8,0:0|0:0,0:0:0:0:
371,352,240396,2,0,L|287:334,1,85,2|8,0:0|0:0,0:0:0:0:
57,196,240679,2,0,L|140:213,1,85,2|8,0:0|0:0,0:0:0:0:
334,300,240962,2,0,L|250:282,1,85,2|8,0:0|0:0,0:0:0:0:
128,339,241245,5,2,0:0:0:0:
310,208,241386,1,10,0:0:0:0:
58,262,241528,1,2,0:0:0:0:
310,208,241669,1,10,0:0:0:0:
58,262,241811,6,0,P|46:216|72:159,1,85,2|8,0:0|0:0,0:0:0:0:
116,125,242094,5,2,0:0:0:0:
123,121,242165,1,0,0:0:0:0:
130,118,242235,1,8,0:0:0:0:
311,60,242377,6,0,L|216:39,1,85,6|8,0:0|0:0,0:0:0:0:
310,208,242660,1,0,0:0:0:0:
311,60,242801,1,8,0:0:0:0:
227,226,242943,2,0,L|322:205,1,85,2|8,0:0|0:0,0:0:0:0:
432,139,243226,1,0,0:0:0:0:
440,139,243297,1,0,0:0:0:0:
448,139,243367,1,8,0:0:0:0:
444,318,243509,6,0,L|349:297,1,85,2|8,0:0|0:0,0:0:0:0:
240,348,243792,1,0,0:0:0:0:
223,352,243863,1,0,0:0:0:0:
206,356,243933,1,8,0:0:0:0:
135,256,244075,1,0,0:0:0:0:
118,252,244146,1,0,0:0:0:0:
101,248,244216,1,8,0:0:0:0:
109,362,244358,5,2,0:0:0:0:
92,139,244499,1,2,0:0:0:0:
109,362,244641,5,8,0:0:0:0:
184,62,244830,1,8,0:0:0:0:
135,256,245018,1,8,0:0:0:0:
268,103,245207,5,8,0:0:0:0:
269,107,245278,1,0,0:0:0:0:
270,111,245348,1,0,0:0:0:0:
271,115,245419,1,0,0:0:0:0:
272,119,245490,1,0,0:0:0:0:
273,123,245561,1,0,0:0:0:0:
274,127,245632,1,0,0:0:0:0:
275,130,245702,1,0,0:0:0:0:
276,134,245773,5,8,0:0:0:0:
227,362,245962,1,8,0:0:0:0:
184,62,246150,1,8,0:0:0:0:
332,297,246339,5,12,0:0:0:0:
331,301,246410,1,0,0:0:0:0:
330,305,246480,1,0,0:0:0:0:
329,309,246551,1,0,0:0:0:0:
328,313,246622,1,8,0:0:0:0:
36,168,246905,6,0,L|136:157,1,85,4|0,0:0|0:0,0:0:0:0:
331,139,247188,1,8,0:0:0:0:
215,55,247330,1,0,0:0:0:0:
274,209,247471,1,0,0:0:0:0:
351,52,247613,1,0,0:0:0:0:
433,292,247754,2,0,L|465:250,1,42.5,8|0,0:0|0:0,0:0:0:0:
379,350,247896,6,0,P|301:327|201:361,1,170
61,341,248320,1,8,0:0:0:0:
164,165,248462,1,8,0:0:0:0:
185,278,248603,1,0,0:0:0:0:
185,278,248745,1,0,0:0:0:0:
24,139,248886,2,0,L|113:86,1,85,8|0,0:0|0:0,0:0:0:0:
164,165,249169,6,0,P|213:175|263:160,1,85,4|0,0:0|0:0,0:0:0:0:
393,46,249452,2,0,P|344:36|294:51,1,85,8|0,0:0|0:0,0:0:0:0:
325,205,249735,1,0,0:0:0:0:
338,245,249806,1,0,0:0:0:0:
351,285,249877,1,0,0:0:0:0:
364,325,249948,1,0,0:0:0:0:
377,364,250018,5,8,0:0:0:0:
475,248,250160,1,0,0:0:0:0:
258,332,250301,2,0,L|167:314,1,85
99,185,250584,1,8,0:0:0:0:
99,185,250726,1,8,0:0:0:0:
225,115,250867,2,0,L|316:133,1,85
40,260,251150,2,0,P|5:218|5:175,1,85,8|0,0:0|0:0,0:0:0:0:
138,49,251433,5,0,0:0:0:0:
146,47,251504,1,0,0:0:0:0:
154,45,251575,1,0,0:0:0:0:
162,43,251646,1,0,0:0:0:0:
170,41,251716,5,8,0:0:0:0:
220,36,251787,1,0,0:0:0:0:
263,62,251858,1,0,0:0:0:0:
276,111,251929,1,0,0:0:0:0:
303,153,251999,1,0,0:0:0:0:
350,172,252070,1,0,0:0:0:0:
401,172,252141,1,0,0:0:0:0:
446,148,252212,1,0,0:0:0:0:
462,100,252282,6,0,L|451:32,3,42.5,8|0|0|0,0:0|0:0|0:0|0:0,0:0:0:0:
446,148,252565,6,0,P|408:178|327:153,1,113.333333333333
384,106,252848,1,8,0:0:0:0:
384,106,252990,1,8,0:0:0:0:
273,263,253132,2,8,L|391:277,1,85,0|0,0:0|0:0,0:0:0:0:
482,288,253415,1,8,0:0:0:0:
482,288,253556,1,0,0:0:0:0:
410,357,253698,6,8,L|325:367,1,85,0|0,0:0|0:0,0:0:0:0:
72,304,253981,2,8,L|156:293,1,85,8|0,0:0|0:0,0:0:0:0:
357,273,254264,5,0,0:0:0:0:
170,140,254405,1,0,0:0:0:0:
260,343,254547,1,8,0:0:0:0:
309,172,254688,1,12,0:0:0:0:
109,215,254830,5,0,0:0:0:0:
260,343,254971,1,0,0:0:0:0:
377,110,255113,1,0,0:0:0:0:
109,215,255254,1,0,0:0:0:0:
260,343,255396,1,0,0:0:0:0:
377,110,255537,1,4,0:0:0:0:
416,193,255679,6,8,B|489:203|489:203|451:174,1,85,8|0,0:0|0:0,0:0:0:0:
251,165,255962,1,0,0:0:0:0:
356,295,256103,1,0,0:0:0:0:
432,33,256245,2,8,P|349:21|286:77,1,170,8|0,0:0|0:0,0:0:0:0:
262,314,256669,5,0,0:0:0:0:
377,110,256811,1,8,0:0:0:0:
438,276,256952,2,0,L|355:295,1,85
124,341,257235,1,0,0:0:0:0:
267,206,257377,1,8,0:0:0:0:
332,377,257518,1,0,0:0:0:0:
113,252,257660,5,0,0:0:0:0:
110,209,257731,1,0,0:0:0:0:
107,167,257801,1,0,0:0:0:0:
104,124,257872,1,0,0:0:0:0:
101,81,257943,1,8,0:0:0:0:
18,196,258084,1,8,0:0:0:0:
287,112,258226,6,0,L|303:12,1,85
230,260,258509,1,8,0:0:0:0:
201,51,258650,1,0,0:0:0:0:
353,183,258792,2,0,P|411:189|452:222,1,85
252,348,259075,2,0,P|194:342|153:309,1,85,8|0,0:0|0:0,0:0:0:0:
479,172,259358,6,0,L|452:260,1,85
375,359,259641,1,8,0:0:0:0:
375,359,259782,1,8,0:0:0:0:
285,251,259924,2,0,L|260:169,1,85
233,67,260207,5,4,0:0:0:0:
233,67,260490,5,4,0:0:0:0:
91,173,260632,6,0,L|173:148,1,85,0|8,0:0|0:0,0:0:0:0:
399,87,260915,1,0,0:0:0:0:
470,174,261056,5,0,0:0:0:0:
462,219,261127,1,0,0:0:0:0:
454,265,261198,1,0,0:0:0:0:
447,310,261268,1,0,0:0:0:0:
441,357,261339,5,8,0:0:0:0:
256,256,261481,1,0,0:0:0:0:
441,357,261622,1,0,0:0:0:0:
344,192,261764,1,0,0:0:0:0:
256,352,261905,1,8,0:0:0:0:
168,192,262047,1,8,0:0:0:0:
71,357,262188,5,0,0:0:0:0:
65,310,262259,1,0,0:0:0:0:
58,265,262329,1,0,0:0:0:0:
50,219,262400,1,0,0:0:0:0:
42,174,262471,5,8,0:0:0:0:
80,25,262613,1,0,0:0:0:0:
168,192,262754,6,0,L|259:201,1,85
439,208,263037,1,8,0:0:0:0:
316,104,263179,1,0,0:0:0:0:
368,292,263320,1,0,0:0:0:0:
421,44,263462,1,0,0:0:0:0:
168,192,263603,5,12,0:0:0:0:
498,118,263745,1,4,0:0:0:0:
256,192,263815,12,0,264735,0:0:0:0:
256,192,291056,12,0,292117,0:0:0:0:
140,247,292188,6,2,B|204:219|251:255|251:255|310:228|322:277|375:253|375:253|348:233,1,255.000009727478
59,283,293320,2,2,L|49:336,1,31.8750012159348
161,107,294169,5,0,0:0:0:0:
410,159,294311,1,0,0:0:0:0:
208,218,294452,5,0,0:0:0:0:
204,236,294523,1,0,0:0:0:0:
200,255,294594,1,0,0:0:0:0:
197,274,294665,1,0,0:0:0:0:
194,292,294735,1,0,0:0:0:0:
410,159,295018,5,0,0:0:0:0:
406,141,295089,1,0,0:0:0:0:
402,122,295160,1,0,0:0:0:0:
399,103,295231,1,0,0:0:0:0:
396,85,295301,1,0,0:0:0:0:
448,238,295584,5,8,0:0:0:0:
421,241,295655,1,8,0:0:0:0:
395,245,295726,1,8,0:0:0:0:
369,249,295797,1,8,0:0:0:0:
344,254,295867,5,8,0:0:0:0:
288,237,295938,1,8,0:0:0:0:
254,189,296009,1,8,0:0:0:0:
256,131,296080,1,8,0:0:0:0:
289,85,296150,5,4,0:0:0:0:
278,90,296221,1,0,0:0:0:0:
268,95,296291,1,0,0:0:0:0:
257,100,296362,1,0,0:0:0:0:
213,72,296433,5,4,0:0:0:0:
224,67,296504,1,0,0:0:0:0:
234,62,296574,1,0,0:0:0:0:
245,57,296645,1,0,0:0:0:0:
283,63,296716,6,0,P|327:73|393:52,1,85,2|8,0:0|0:0,0:0:0:0:
425,199,296999,1,2,0:0:0:0:
466,29,297141,1,10,0:0:0:0:
490,265,297282,6,0,P|452:284|410:287,1,85,2|8,0:0|0:0,0:0:0:0:
154,181,297565,2,0,P|191:161|233:158,1,85,2|8,0:0|0:0,0:0:0:0:
169,292,297848,1,2,0:0:0:0:
119,82,297990,1,8,0:0:0:0:
43,351,298132,5,2,0:0:0:0:
119,82,298273,1,8,0:0:0:0:
169,292,298415,6,0,L|76:263,1,85,2|8,0:0|0:0,0:0:0:0:
25,164,298698,1,0,0:0:0:0:
25,164,298839,1,8,0:0:0:0:
119,82,298981,6,0,L|212:111,1,85,2|8,0:0|0:0,0:0:0:0:
352,166,299264,1,2,0:0:0:0:
333,175,299334,1,0,0:0:0:0:
314,184,299405,1,8,0:0:0:0:
35,83,299547,6,0,P|49:32|97:-2,1,85,2|8,0:0|0:0,0:0:0:0:
314,55,299830,1,0,0:0:0:0:
119,82,299971,1,8,0:0:0:0:
187,230,300113,5,2,0:0:0:0:
201,30,300254,1,10,0:0:0:0:
267,305,300396,1,2,0:0:0:0:
119,82,300537,1,10,0:0:0:0:
402,140,300679,5,10,0:0:0:0:
407,168,300749,1,0,0:0:0:0:
413,197,300820,1,0,0:0:0:0:
419,226,300891,1,0,0:0:0:0:
425,255,300962,1,10,0:0:0:0:
473,62,301103,5,0,0:0:0:0:
452,58,301174,1,0,0:0:0:0:
430,54,301245,1,12,0:0:0:0:
269,147,301386,5,0,0:0:0:0:
291,151,301457,1,0,0:0:0:0:
312,155,301528,1,8,0:0:0:0:
475,265,301669,5,0,0:0:0:0:
454,261,301740,1,0,0:0:0:0:
432,257,301811,2,0,L|324:234,1,85,10|0,0:0|0:0,0:0:0:0:
329,247,302023,1,0,0:0:0:0:
310,257,302094,2,0,L|256:290,1,42.5,10|0,0:0|0:0,0:0:0:0:
269,147,302235,5,0,0:0:0:0:
251,135,302306,1,0,0:0:0:0:
234,121,302377,2,0,L|176:71,1,42.5,10|0,0:0|0:0,0:0:0:0:
89,184,302518,5,0,0:0:0:0:
109,180,302589,1,0,0:0:0:0:
129,176,302660,1,8,0:0:0:0:
59,307,302801,5,0,0:0:0:0:
79,303,302872,1,0,0:0:0:0:
99,297,302943,2,0,P|158:299|202:339,1,85,10|0,0:0|0:0,0:0:0:0:
198,320,303155,1,0,0:0:0:0:
216,330,303226,6,0,L|202:379,1,42.5,10|0,0:0|0:0,0:0:0:0:
341,268,303367,2,0,L|355:219,1,42.5,2|0,0:0|0:0,0:0:0:0:
219,104,303509,2,0,L|205:153,1,42.5,10|0,0:0|0:0,0:0:0:0:
216,233,303650,5,0,0:0:0:0:
237,230,303721,1,0,0:0:0:0:
258,227,303792,1,8,0:0:0:0:
394,150,303933,5,0,0:0:0:0:
415,147,304004,1,0,0:0:0:0:
436,143,304075,2,0,P|440:94|414:45,1,85,10|0,0:0|0:0,0:0:0:0:
415,43,304287,1,0,0:0:0:0:
398,29,304358,6,0,L|331:36,1,42.5,10|0,0:0|0:0,0:0:0:0:
176,108,304499,2,0,L|243:101,1,42.5,2|0,0:0|0:0,0:0:0:0:
436,143,304641,6,0,L|369:150,1,42.5,10|0,0:0|0:0,0:0:0:0:
214,222,304782,2,0,L|281:215,1,42.5,2|0,0:0|0:0,0:0:0:0:
389,254,304924,6,0,L|346:306,1,42.5,10|0,0:0|0:0,0:0:0:0:
88,232,305065,2,0,L|130:179,1,42.5,2|0,0:0|0:0,0:0:0:0:
180,376,305207,6,0,L|113:383,1,42.5,10|0,0:0|0:0,0:0:0:0:
244,192,305348,2,0,L|311:185,1,42.5,2|0,0:0|0:0,0:0:0:0:
352,371,305490,6,0,L|419:364,1,42.5,10|0,0:0|0:0,0:0:0:0:
451,123,305632,2,0,L|384:130,1,42.5,2|0,0:0|0:0,0:0:0:0:
293,278,305773,6,0,P|238:270|195:293,1,85,14|0,0:0|0:0,0:0:0:0:
201,299,305985,1,0,0:0:0:0:
191,317,306056,1,8,0:0:0:0:
150,167,306198,1,0,0:0:0:0:
140,185,306269,1,0,0:0:0:0:
129,203,306339,6,0,L|94:260,1,42.5,10|0,0:0|0:0,0:0:0:0:
91,78,306481,1,0,0:0:0:0:
110,72,306551,1,0,0:0:0:0:
130,65,306622,2,0,L|193:43,1,42.5,10|0,0:0|0:0,0:0:0:0:
40,162,306764,2,0,L|-17:127,1,42.5,2|0,0:0|0:0,0:0:0:0:
269,76,306905,2,0,L|326:111,1,42.5,10|0,0:0|0:0,0:0:0:0:
415,180,307047,5,0,0:0:0:0:
394,183,307117,1,0,0:0:0:0:
372,186,307188,1,8,0:0:0:0:
279,298,307330,5,0,0:0:0:0:
300,301,307400,1,0,0:0:0:0:
320,305,307471,2,0,L|416:320,1,85,10|0,0:0|0:0,0:0:0:0:
425,321,307683,1,0,0:0:0:0:
446,323,307754,6,0,L|507:291,1,42.5,10|0,0:0|0:0,0:0:0:0:
479,112,307896,2,0,L|441:92,1,42.5,2|0,0:0|0:0,0:0:0:0:
245,195,308037,2,0,L|306:227,1,42.5,10|0,0:0|0:0,0:0:0:0:
256,100,308179,5,0,0:0:0:0:
233,89,308249,1,0,0:0:0:0:
213,80,308320,1,8,0:0:0:0:
72,226,308462,5,0,0:0:0:0:
95,237,308532,1,0,0:0:0:0:
115,244,308603,2,0,P|150:201|149:155,1,85,10|0,0:0|0:0,0:0:0:0:
143,154,308815,1,0,0:0:0:0:
126,140,308886,2,0,L|63:109,1,42.5,10|0,0:0|0:0,0:0:0:0:
19,308,309028,2,0,L|82:339,1,42.5,2|0,0:0|0:0,0:0:0:0:
147,329,309169,6,0,L|185:310,3,42.5,10|0|0|0,0:0|0:0|0:0|0:0,0:0:0:0:
277,312,309452,6,0,L|295:350,1,42.5,10|0,0:0|0:0,0:0:0:0:
375,104,309594,2,0,L|393:142,1,42.5,2|0,0:0|0:0,0:0:0:0:
426,348,309735,6,8,L|362:348,1,42.5,10|8,0:0|0:0,0:0:0:0:
242,102,309877,2,8,L|306:102,1,42.5,10|8,0:0|0:0,0:0:0:0:
485,170,310018,6,0,L|466:208,1,42.5,10|0,0:0|0:0,0:0:0:0:
189,195,310160,2,0,L|170:156,1,42.5,10|0,0:0|0:0,0:0:0:0:
50,255,310301,6,0,P|116:258|141:292,1,85,4|8,0:0|0:0,0:0:0:0:
260,350,310584,6,0,L|214:256,1,85,2|8,0:0|0:0,0:0:0:0:
318,232,310867,2,0,L|272:138,1,85,2|8,0:0|0:0,0:0:0:0:
453,333,311150,2,0,L|407:239,1,85,2|8,0:0|0:0,0:0:0:0:
438,74,311433,5,2,0:0:0:0:
395,67,311504,1,0,0:0:0:0:
352,60,311575,1,8,0:0:0:0:
309,53,311646,1,0,0:0:0:0:
267,46,311716,6,0,L|149:26,1,85,2|8,0:0|0:0,0:0:0:0:
422,172,311999,1,2,0:0:0:0:
422,172,312141,1,10,0:0:0:0:
318,327,312282,2,0,L|234:312,1,85,2|8,0:0|0:0,0:0:0:0:
409,369,312565,1,0,0:0:0:0:
300,207,312707,1,8,0:0:0:0:
495,227,312848,6,0,P|512:171|500:121,1,85,2|8,0:0|0:0,0:0:0:0:
252,139,313132,2,0,P|268:177|299:206,1,85,2|8,0:0|0:0,0:0:0:0:
476,61,313415,2,0,P|436:45|394:46,1,85,2|8,0:0|0:0,0:0:0:0:
154,174,313698,5,2,0:0:0:0:
158,215,313768,1,0,0:0:0:0:
163,257,313839,1,8,0:0:0:0:
167,299,313910,1,0,0:0:0:0:
173,341,313981,6,0,L|269:336,1,85,2|8,0:0|0:0,0:0:0:0:
389,196,314264,1,2,0:0:0:0:
389,196,314405,1,10,0:0:0:0:
249,81,314547,2,0,L|153:86,1,85,2|8,0:0|0:0,0:0:0:0:
245,213,314830,1,0,0:0:0:0:
312,15,314971,1,8,0:0:0:0:
89,53,315113,6,0,P|83:105|120:158,1,85,2|8,0:0|0:0,0:0:0:0:
402,216,315396,2,0,P|359:184|295:190,1,85,2|8,0:0|0:0,0:0:0:0:
129,342,315679,2,0,P|177:321|204:262,1,85,2|8,0:0|0:0,0:0:0:0:
413,109,315962,5,2,0:0:0:0:
371,96,316032,1,0,0:0:0:0:
330,84,316103,1,8,0:0:0:0:
287,74,316174,1,0,0:0:0:0:
246,65,316245,6,0,L|142:90,1,85,2|8,0:0|0:0,0:0:0:0:
315,238,316528,1,2,0:0:0:0:
246,65,316669,1,8,0:0:0:0:
150,199,316811,2,0,L|232:219,1,85,0|8,0:0|0:0,0:0:0:0:
407,263,317094,5,4,0:0:0:0:
81,328,317282,1,4,0:0:0:0:
495,244,317471,1,4,0:0:0:0:
63,234,317660,5,8,0:0:0:0:
58,204,317731,1,8,0:0:0:0:
53,174,317801,1,8,0:0:0:0:
48,144,317872,1,8,0:0:0:0:
44,114,317943,5,8,0:0:0:0:
44,114,318226,5,4,0:0:0:0:
495,244,318415,1,4,0:0:0:0:
44,114,318603,1,4,0:0:0:0:
383,192,318792,5,8,0:0:0:0:
388,222,318863,1,8,0:0:0:0:
393,252,318933,1,8,0:0:0:0:
398,282,319004,1,8,0:0:0:0:
402,312,319075,5,8,0:0:0:0:
492,118,319358,6,0,L|383:92,1,85,6|8,0:0|0:0,0:0:0:0:
191,171,319641,1,0,0:0:0:0:
402,312,319782,1,8,0:0:0:0:
20,118,319924,6,0,L|129:92,1,85,6|8,0:0|0:0,0:0:0:0:
321,171,320207,1,0,0:0:0:0:
110,312,320348,1,8,0:0:0:0:
483,356,320490,6,0,P|492:305|472:253,1,85,6|8,0:0|0:0,0:0:0:0:
240,217,320773,1,0,0:0:0:0:
215,234,320844,1,0,0:0:0:0:
190,251,320915,1,8,0:0:0:0:
302,365,321056,1,0,0:0:0:0:
321,171,321198,1,8,0:0:0:0:
240,104,321339,5,6,0:0:0:0:
302,365,321481,1,14,0:0:0:0:
411,197,321622,2,0,P|410:138|390:105,1,85,6|8,0:0|0:0,0:0:0:0:
126,184,321905,1,0,0:0:0:0:
126,184,322047,1,8,0:0:0:0:
390,291,322188,6,0,L|481:265,1,85,6|8,0:0|0:0,0:0:0:0:
410,25,322471,2,0,L|319:51,1,85,2|8,0:0|0:0,0:0:0:0:
256,192,322754,5,6,0:0:0:0:
390,291,322896,1,10,0:0:0:0:
400,124,323037,1,2,0:0:0:0:
126,184,323179,1,10,0:0:0:0:
471,267,323320,2,0,P|479:226|465:187,1,85,2|8,0:0|0:0,0:0:0:0:
306,285,323603,2,0,L|424:294,1,85,4|8,0:0|0:0,0:0:0:0:
152,64,323886,6,0,L|67:70,1,85,6|8,0:0|0:0,0:0:0:0:
201,348,324169,1,0,0:0:0:0:
257,107,324311,1,8,0:0:0:0:
21,362,324452,6,0,L|105:355,1,85,6|8,0:0|0:0,0:0:0:0:
390,291,324735,1,0,0:0:0:0:
77,214,324877,1,8,0:0:0:0:
454,354,325018,6,0,P|476:318|477:276,1,85,6|8,0:0|0:0,0:0:0:0:
399,101,325301,1,0,0:0:0:0:
390,291,325443,1,8,0:0:0:0:
499,191,325584,1,0,0:0:0:0:
324,168,325726,1,8,0:0:0:0:
454,354,325867,5,6,0:0:0:0:
399,101,326009,1,14,0:0:0:0:
308,267,326150,2,0,L|404:295,1,85,6|8,0:0|0:0,0:0:0:0:
470,32,326433,2,0,L|374:4,1,85,6|8,0:0|0:0,0:0:0:0:
152,313,326716,6,0,L|248:341,1,85,6|8,0:0|0:0,0:0:0:0:
314,78,326999,2,0,L|218:50,1,85,6|8,0:0|0:0,0:0:0:0:
137,23,327282,5,4,0:0:0:0:
216,248,327424,1,8,0:0:0:0:
392,8,327565,1,0,0:0:0:0:
176,136,327707,1,8,0:0:0:0:
360,176,327848,5,4,0:0:0:0:
232,54,327990,1,8,0:0:0:0:
360,336,328132,1,0,0:0:0:0:
480,56,328273,1,8,0:0:0:0:
216,248,328415,5,6,0:0:0:0:
502,167,328698,1,6,0:0:0:0:
176,128,328981,5,6,0:0:0:0:
472,280,329264,1,6,0:0:0:0:
80,256,329547,5,6,0:0:0:0:
384,128,329830,1,6,0:0:0:0:
176,352,330113,5,6,0:0:0:0:
464,48,330396,1,8,0:0:0:0:
464,48,330537,1,8,0:0:0:0:
256,192,332235,12,0,337188,0:0:0:0:
