osu file format v14

[General]
AudioFilename: audio.mp3
AudioLeadIn: 0
PreviewTime: 152686
Countdown: 0
SampleSet: Normal
StackLeniency: 0.2
Mode: 1
LetterboxInBreaks: 0
WidescreenStoryboard: 0

[Editor]
DistanceSpacing: 1
BeatDivisor: 4
GridSize: 32
TimelineZoom: 2.2

[Metadata]
Title:Say You Do (feat. Imani & DJ Fresh)
TitleUnicode:Say You Do (feat. Imani & DJ Fresh)
Artist:Sigala
ArtistUnicode:Sigala
Creator:Stingy
Version:If You Love Me
Source:
Tags:electronic dance music tropical drum and bass ministry of sound the invisible men faputa gaston_2199 english beach house edm dnb ft. williams
BeatmapID:2241625
BeatmapSetID:1070904

[Difficulty]
HPDrainRate:5
CircleSize:2
OverallDifficulty:6.5
ApproachRate:10
SliderMultiplier:1.4
SliderTickRate:1

[Events]
//Background and Video events
0,0,"sea-1574689734374-3021_waifu2x_art_noise1_scale_tta_1.jpg",0,0
//Break Periods
//Storyboard Layer 0 (Background)
//Storyboard Layer 1 (Fail)
//Storyboard Layer 2 (Pass)
//Storyboard Layer 3 (Foreground)
//Storyboard Layer 4 (Overlay)
//Storyboard Sound Samples

[TimingPoints]
100,344.827586206897,4,1,0,100,1,0
11134,-100,4,1,0,100,0,0
22168,-100,4,1,0,100,0,0
33203,-100,4,1,0,100,0,0
44237,-100,4,1,0,100,0,0
55272,-100,4,1,0,100,0,1
65789,-100,4,1,0,100,0,0
66306,-100,4,1,0,100,0,1
75962,-100,4,1,0,100,0,0
77341,-100,4,1,0,100,0,1
88375,-100,4,1,0,100,0,0
110444,-100,4,1,0,100,0,1
120962,-100,4,1,0,100,0,0
121479,-100,4,1,0,100,0,1
130962,-100,4,1,0,100,0,0
132513,-100,4,1,0,100,0,0
154582,-100,4,1,0,100,0,1
165100,-100,4,1,0,100,0,0
165617,-100,4,1,0,100,0,1
175272,-100,4,1,0,100,0,0
176651,-100,4,1,0,100,0,1
187168,-100,4,1,0,100,0,0
187686,-100,4,1,0,100,0,1
197341,-100,4,1,0,100,0,0

[HitObjects]
256,192,100,5,0,0:0:0:0:
256,192,444,1,0,0:0:0:0:
256,192,617,1,0,0:0:0:0:
256,192,789,1,8,0:0:0:0:
256,192,962,1,0,0:0:0:0:
256,192,1134,1,8,0:0:0:0:
256,192,1306,1,8,0:0:0:0:
256,192,1479,1,0,0:0:0:0:
256,192,1651,1,8,0:0:0:0:
256,192,1824,1,0,0:0:0:0:
256,192,2168,1,8,0:0:0:0:
256,192,2341,1,0,0:0:0:0:
256,192,2513,1,8,0:0:0:0:
256,192,2858,1,0,0:0:0:0:
256,192,3203,1,0,0:0:0:0:
256,192,3375,1,0,0:0:0:0:
256,192,3548,1,8,0:0:0:0:
256,192,3720,1,0,0:0:0:0:
256,192,4065,1,0,0:0:0:0:
256,192,4410,1,0,0:0:0:0:
256,192,4755,1,0,0:0:0:0:
256,192,4927,1,8,0:0:0:0:
256,192,5100,1,8,0:0:0:0:
256,192,5444,1,8,0:0:0:0:
256,192,5617,1,0,0:0:0:0:
256,192,5961,1,0,0:0:0:0:
256,192,6134,1,0,0:0:0:0:
256,192,6306,1,8,0:0:0:0:
256,192,6479,1,0,0:0:0:0:
256,192,6651,1,8,0:0:0:0:
256,192,6823,1,8,0:0:0:0:
256,192,6996,1,0,0:0:0:0:
256,192,7168,1,8,0:0:0:0:
256,192,7341,1,0,0:0:0:0:
256,192,7685,1,8,0:0:0:0:
256,192,7858,1,0,0:0:0:0:
256,192,8030,1,8,0:0:0:0:
256,192,8375,1,0,0:0:0:0:
256,192,8720,1,0,0:0:0:0:
256,192,8892,1,0,0:0:0:0:
256,192,9065,1,8,0:0:0:0:
256,192,9237,1,0,0:0:0:0:
256,192,9582,1,0,0:0:0:0:
256,192,9927,1,0,0:0:0:0:
256,192,10272,1,0,0:0:0:0:
256,192,10444,1,8,0:0:0:0:
256,192,10617,1,0,0:0:0:0:
256,192,10789,1,8,0:0:0:0:
256,192,10962,1,8,0:0:0:0:
256,192,11134,1,0,0:0:0:0:
256,192,11479,1,0,0:0:0:0:
256,192,11651,1,0,0:0:0:0:
256,192,11996,1,0,0:0:0:0:
256,192,12168,1,0,0:0:0:0:
256,192,12513,1,8,0:0:0:0:
256,192,12858,1,8,0:0:0:0:
256,192,13031,1,0,0:0:0:0:
256,192,13375,1,0,0:0:0:0:
256,192,13720,1,0,0:0:0:0:
256,192,14410,1,0,0:0:0:0:
256,192,14754,1,0,0:0:0:0:
256,192,15099,1,0,0:0:0:0:
256,192,15962,1,8,0:0:0:0:
256,192,16134,1,0,0:0:0:0:
256,192,16306,1,8,0:0:0:0:
256,192,16479,1,8,0:0:0:0:
256,192,16651,1,0,0:0:0:0:
256,192,16996,1,8,0:0:0:0:
256,192,17168,1,0,0:0:0:0:
256,192,17513,1,0,0:0:0:0:
256,192,17686,1,0,0:0:0:0:
256,192,18031,1,8,0:0:0:0:
256,192,18375,1,8,0:0:0:0:
256,192,18548,1,0,0:0:0:0:
256,192,18892,1,0,0:0:0:0:
256,192,19237,1,0,0:0:0:0:
256,192,19927,1,0,0:0:0:0:
256,192,20271,1,0,0:0:0:0:
256,192,20616,1,0,0:0:0:0:
256,192,21824,1,8,0:0:0:0:
256,192,21996,1,8,0:0:0:0:
256,192,22168,1,0,0:0:0:0:
256,192,22513,1,0,0:0:0:0:
256,192,22858,1,8,0:0:0:0:
256,192,23203,1,8,0:0:0:0:
256,192,23548,1,0,0:0:0:0:
256,192,23893,1,8,0:0:0:0:
256,192,24065,1,0,0:0:0:0:
256,192,24237,1,8,0:0:0:0:
256,192,24582,1,8,0:0:0:0:
256,192,24927,1,0,0:0:0:0:
256,192,25272,1,8,0:0:0:0:
256,192,25617,1,0,0:0:0:0:
256,192,26306,1,0,0:0:0:0:
256,192,26651,1,8,0:0:0:0:
256,192,26996,1,0,0:0:0:0:
256,192,27168,1,0,0:0:0:0:
256,192,27341,1,8,0:0:0:0:
256,192,27513,1,8,0:0:0:0:
256,192,27686,1,0,0:0:0:0:
256,192,28031,1,8,0:0:0:0:
256,192,28203,1,0,0:0:0:0:
256,192,28375,1,8,0:0:0:0:
256,192,28720,1,8,0:0:0:0:
256,192,29065,1,0,0:0:0:0:
256,192,29410,1,8,0:0:0:0:
256,192,29582,1,0,0:0:0:0:
256,192,29755,1,0,0:0:0:0:
256,192,30100,1,8,0:0:0:0:
256,192,30444,1,0,0:0:0:0:
256,192,30617,1,8,0:0:0:0:
256,192,30789,1,0,0:0:0:0:
256,192,31134,1,8,0:0:0:0:
256,192,31479,1,8,0:0:0:0:
256,192,31651,1,8,0:0:0:0:
256,192,31824,1,0,0:0:0:0:
256,192,32168,1,0,0:0:0:0:
256,192,32255,1,8,0:0:0:0:
256,192,32341,1,0,0:0:0:0:
256,192,32513,1,8,0:0:0:0:
256,192,32686,1,8,0:0:0:0:
256,192,32772,1,0,0:0:0:0:
256,192,32858,1,8,0:0:0:0:
256,192,33203,1,4,0:0:0:0:
256,192,33548,1,0,0:0:0:0:
256,192,33720,1,0,0:0:0:0:
256,192,33893,1,8,0:0:0:0:
256,192,34237,1,8,0:0:0:0:
256,192,34410,1,0,0:0:0:0:
256,192,34582,1,8,0:0:0:0:
256,192,35100,1,0,0:0:0:0:
256,192,35272,1,8,0:0:0:0:
256,192,35444,1,0,0:0:0:0:
256,192,35789,1,0,0:0:0:0:
256,192,35962,1,0,0:0:0:0:
256,192,36306,1,0,0:0:0:0:
256,192,36479,1,0,0:0:0:0:
256,192,36651,1,8,0:0:0:0:
256,192,36996,1,0,0:0:0:0:
256,192,37168,1,8,0:0:0:0:
256,192,37341,1,8,0:0:0:0:
256,192,37686,1,8,0:0:0:0:
256,192,37858,1,0,0:0:0:0:
256,192,38031,1,8,0:0:0:0:
256,192,38203,1,8,0:0:0:0:
256,192,38375,1,8,0:0:0:0:
256,192,38720,1,0,0:0:0:0:
256,192,39065,1,0,0:0:0:0:
256,192,39237,1,0,0:0:0:0:
256,192,39410,1,8,0:0:0:0:
256,192,39755,1,8,0:0:0:0:
256,192,39927,1,0,0:0:0:0:
256,192,40100,1,8,0:0:0:0:
256,192,40617,1,0,0:0:0:0:
256,192,40789,1,8,0:0:0:0:
256,192,40962,1,0,0:0:0:0:
256,192,41306,1,0,0:0:0:0:
256,192,41479,1,0,0:0:0:0:
256,192,41824,1,0,0:0:0:0:
256,192,41996,1,0,0:0:0:0:
256,192,42168,1,8,0:0:0:0:
256,192,42513,1,0,0:0:0:0:
256,192,42686,1,0,0:0:0:0:
256,192,42858,1,8,0:0:0:0:
256,192,43203,1,0,0:0:0:0:
256,192,43375,1,8,0:0:0:0:
256,192,43548,1,8,0:0:0:0:
256,192,43720,1,0,0:0:0:0:
256,192,43893,1,8,0:0:0:0:
256,192,44237,1,4,0:0:0:0:
256,192,44582,1,8,0:0:0:0:
256,192,44841,1,8,0:0:0:0:
256,192,44927,1,0,0:0:0:0:
256,192,45100,1,0,0:0:0:0:
256,192,45272,1,8,0:0:0:0:
256,192,45444,1,8,0:0:0:0:
256,192,45531,1,8,0:0:0:0:
256,192,45617,1,0,0:0:0:0:
256,192,45962,1,8,0:0:0:0:
256,192,46134,1,0,0:0:0:0:
256,192,46306,1,8,0:0:0:0:
256,192,46651,1,8,0:0:0:0:
256,192,46824,1,8,0:0:0:0:
256,192,46996,1,0,0:0:0:0:
256,192,47341,1,8,0:0:0:0:
256,192,47513,1,0,0:0:0:0:
256,192,47600,1,0,0:0:0:0:
256,192,47686,1,8,0:0:0:0:
256,192,48031,1,0,0:0:0:0:
256,192,48203,1,8,0:0:0:0:
256,192,48375,1,0,0:0:0:0:
256,192,48634,1,0,0:0:0:0:
256,192,48720,1,8,0:0:0:0:
256,192,48893,1,0,0:0:0:0:
256,192,49065,1,8,0:0:0:0:
256,192,49237,1,8,0:0:0:0:
256,192,49410,1,0,0:0:0:0:
256,192,49582,1,8,0:0:0:0:
256,192,49668,1,8,0:0:0:0:
256,192,49755,1,0,0:0:0:0:
256,192,50100,1,0,0:0:0:0:
256,192,50272,1,0,0:0:0:0:
256,192,50358,1,0,0:0:0:0:
256,192,50444,1,8,0:0:0:0:
256,192,50617,1,0,0:0:0:0:
256,192,50789,1,8,0:0:0:0:
256,192,50962,1,8,0:0:0:0:
256,192,51134,1,8,0:0:0:0:
256,192,51220,1,0,0:0:0:0:
256,192,51306,1,0,0:0:0:0:
256,192,51479,1,0,0:0:0:0:
256,192,51651,1,0,0:0:0:0:
256,192,51737,1,0,0:0:0:0:
256,192,51824,1,8,0:0:0:0:
256,192,51996,1,0,0:0:0:0:
256,192,52168,1,0,0:0:0:0:
256,192,52255,1,0,0:0:0:0:
256,192,52341,1,0,0:0:0:0:
256,192,52513,1,0,0:0:0:0:
256,192,52600,1,0,0:0:0:0:
256,192,52686,1,0,0:0:0:0:
256,192,52772,1,0,0:0:0:0:
256,192,52858,1,8,0:0:0:0:
256,192,53031,1,0,0:0:0:0:
256,192,53117,1,0,0:0:0:0:
256,192,53203,1,8,0:0:0:0:
256,192,53289,1,8,0:0:0:0:
256,192,53375,1,0,0:0:0:0:
256,192,53462,1,0,0:0:0:0:
256,192,53548,1,8,0:0:0:0:
256,192,53634,1,8,0:0:0:0:
256,192,53720,1,8,0:0:0:0:
256,192,53806,1,8,0:0:0:0:
256,192,54755,1,0,0:0:0:0:
256,192,54927,1,8,0:0:0:0:
256,192,55272,1,4,0:0:0:0:
256,192,55617,1,8,0:0:0:0:
256,192,55789,1,8,0:0:0:0:
256,192,55875,1,8,0:0:0:0:
256,192,55962,1,8,0:0:0:0:
256,192,56048,1,8,0:0:0:0:
256,192,56134,1,0,0:0:0:0:
256,192,56306,1,0,0:0:0:0:
256,192,56393,1,8,0:0:0:0:
256,192,56479,1,0,0:0:0:0:
256,192,56565,1,0,0:0:0:0:
256,192,56651,1,8,0:0:0:0:
256,192,56996,1,8,0:0:0:0:
256,192,57168,1,0,0:0:0:0:
256,192,57255,1,0,0:0:0:0:
256,192,57341,1,8,0:0:0:0:
256,192,57427,1,8,0:0:0:0:
256,192,57513,1,0,0:0:0:0:
256,192,57686,1,8,0:0:0:0:
256,192,58031,1,0,0:0:0:0:
256,192,58376,1,8,0:0:0:0:
256,192,58548,1,8,0:0:0:0:
256,192,58634,1,8,0:0:0:0:
256,192,58721,1,8,0:0:0:0:
256,192,58807,1,8,0:0:0:0:
256,192,58893,1,0,0:0:0:0:
256,192,59065,1,0,0:0:0:0:
256,192,59152,1,8,0:0:0:0:
256,192,59238,1,0,0:0:0:0:
256,192,59324,1,0,0:0:0:0:
256,192,59410,1,8,0:0:0:0:
256,192,59582,1,0,0:0:0:0:
256,192,59755,1,8,0:0:0:0:
256,192,59841,1,0,0:0:0:0:
256,192,59927,1,8,0:0:0:0:
256,192,60100,1,0,0:0:0:0:
256,192,60272,1,0,0:0:0:0:
256,192,60358,1,0,0:0:0:0:
256,192,60445,1,8,0:0:0:0:
256,192,60789,1,4,0:0:0:0:
256,192,61134,1,8,0:0:0:0:
256,192,61306,1,8,0:0:0:0:
256,192,61392,1,8,0:0:0:0:
256,192,61479,1,8,0:0:0:0:
256,192,61565,1,8,0:0:0:0:
256,192,61651,1,0,0:0:0:0:
256,192,61823,1,8,0:0:0:0:
256,192,61910,1,0,0:0:0:0:
256,192,61996,1,8,0:0:0:0:
256,192,62082,1,0,0:0:0:0:
256,192,62168,1,8,0:0:0:0:
256,192,62513,1,8,0:0:0:0:
256,192,62685,1,0,0:0:0:0:
256,192,62772,1,8,0:0:0:0:
256,192,62858,1,8,0:0:0:0:
256,192,62944,1,8,0:0:0:0:
256,192,63030,1,0,0:0:0:0:
256,192,63203,1,8,0:0:0:0:
256,192,63548,1,0,0:0:0:0:
256,192,63893,1,8,0:0:0:0:
256,192,64065,1,8,0:0:0:0:
256,192,64151,1,8,0:0:0:0:
256,192,64238,1,8,0:0:0:0:
256,192,64324,1,8,0:0:0:0:
256,192,64410,1,0,0:0:0:0:
256,192,64582,1,8,0:0:0:0:
256,192,64669,1,0,0:0:0:0:
256,192,64755,1,8,0:0:0:0:
256,192,64841,1,0,0:0:0:0:
256,192,64927,1,8,0:0:0:0:
256,192,65100,1,0,0:0:0:0:
256,192,65272,1,8,0:0:0:0:
256,192,65358,1,8,0:0:0:0:
256,192,65444,1,8,0:0:0:0:
256,192,65617,1,0,0:0:0:0:
256,192,65789,1,8,0:0:0:0:
256,192,65962,1,0,0:0:0:0:
256,192,66134,1,8,0:0:0:0:
256,192,66306,1,4,0:0:0:0:
256,192,66651,1,8,0:0:0:0:
256,192,66823,1,8,0:0:0:0:
256,192,66909,1,8,0:0:0:0:
256,192,66996,1,8,0:0:0:0:
256,192,67082,1,8,0:0:0:0:
256,192,67168,1,0,0:0:0:0:
256,192,67340,1,0,0:0:0:0:
256,192,67427,1,8,0:0:0:0:
256,192,67513,1,0,0:0:0:0:
256,192,67599,1,0,0:0:0:0:
256,192,67685,1,8,0:0:0:0:
256,192,68030,1,8,0:0:0:0:
256,192,68202,1,0,0:0:0:0:
256,192,68289,1,0,0:0:0:0:
256,192,68375,1,8,0:0:0:0:
256,192,68461,1,0,0:0:0:0:
256,192,68547,1,0,0:0:0:0:
256,192,68720,1,8,0:0:0:0:
256,192,69065,1,0,0:0:0:0:
256,192,69410,1,8,0:0:0:0:
256,192,69582,1,8,0:0:0:0:
256,192,69668,1,8,0:0:0:0:
256,192,69755,1,8,0:0:0:0:
256,192,69841,1,8,0:0:0:0:
256,192,69927,1,0,0:0:0:0:
256,192,70099,1,0,0:0:0:0:
256,192,70186,1,8,0:0:0:0:
256,192,70272,1,0,0:0:0:0:
256,192,70358,1,0,0:0:0:0:
256,192,70444,1,8,0:0:0:0:
256,192,70617,1,0,0:0:0:0:
256,192,70789,1,8,0:0:0:0:
256,192,70875,1,0,0:0:0:0:
256,192,70961,1,8,0:0:0:0:
256,192,71134,1,0,0:0:0:0:
256,192,71306,1,0,0:0:0:0:
256,192,71392,1,0,0:0:0:0:
256,192,71479,1,8,0:0:0:0:
256,192,71651,1,8,0:0:0:0:
256,192,71823,1,4,0:0:0:0:
256,192,72168,1,8,0:0:0:0:
256,192,72340,1,0,0:0:0:0:
256,192,72426,1,0,0:0:0:0:
256,192,72513,1,0,0:0:0:0:
256,192,72599,1,0,0:0:0:0:
256,192,72685,1,0,0:0:0:0:
256,192,72857,1,8,0:0:0:0:
256,192,72944,1,0,0:0:0:0:
256,192,73030,1,8,0:0:0:0:
256,192,73116,1,8,0:0:0:0:
256,192,73202,1,0,0:0:0:0:
256,192,73547,1,8,0:0:0:0:
256,192,73719,1,0,0:0:0:0:
256,192,73806,1,0,0:0:0:0:
256,192,73892,1,8,0:0:0:0:
256,192,73978,1,0,0:0:0:0:
256,192,74064,1,0,0:0:0:0:
256,192,74237,1,8,0:0:0:0:
256,192,74582,1,0,0:0:0:0:
256,192,74755,1,0,0:0:0:0:
256,192,74927,1,8,0:0:0:0:
256,192,75100,1,0,0:0:0:0:
256,192,75272,1,0,0:0:0:0:
256,192,75444,1,0,0:0:0:0:
256,192,75531,1,0,0:0:0:0:
256,192,75617,1,8,0:0:0:0:
256,192,75789,1,0,0:0:0:0:
256,192,75962,1,0,0:0:0:0:
256,192,76306,1,8,0:0:0:0:
256,192,76479,1,8,0:0:0:0:
256,192,76565,1,8,0:0:0:0:
256,192,76651,1,8,0:0:0:0:
256,192,76824,1,0,0:0:0:0:
256,192,76996,1,8,0:0:0:0:
256,192,77341,1,4,0:0:0:0:
256,192,77686,1,8,0:0:0:0:
256,192,77858,1,8,0:0:0:0:
256,192,77944,1,8,0:0:0:0:
256,192,78031,1,8,0:0:0:0:
256,192,78203,1,0,0:0:0:0:
256,192,78289,1,8,0:0:0:0:
256,192,78375,1,0,0:0:0:0:
256,192,78548,1,0,0:0:0:0:
256,192,78720,1,8,0:0:0:0:
256,192,78806,1,0,0:0:0:0:
256,192,78893,1,8,0:0:0:0:
256,192,79065,1,0,0:0:0:0:
256,192,79237,1,0,0:0:0:0:
256,192,79324,1,0,0:0:0:0:
256,192,79410,1,8,0:0:0:0:
256,192,79496,1,0,0:0:0:0:
256,192,79582,1,8,0:0:0:0:
256,192,79755,1,0,0:0:0:0:
256,192,80100,1,8,0:0:0:0:
256,192,80444,1,8,0:0:0:0:
256,192,80617,1,8,0:0:0:0:
256,192,80703,1,8,0:0:0:0:
256,192,80789,1,8,0:0:0:0:
256,192,80962,1,0,0:0:0:0:
256,192,81134,1,8,0:0:0:0:
256,192,81220,1,0,0:0:0:0:
256,192,81306,1,8,0:0:0:0:
256,192,81479,1,0,0:0:0:0:
256,192,81737,1,0,0:0:0:0:
256,192,81824,1,8,0:0:0:0:
256,192,81996,1,8,0:0:0:0:
256,192,82082,1,8,0:0:0:0:
256,192,82168,1,0,0:0:0:0:
256,192,82341,1,0,0:0:0:0:
256,192,82513,1,8,0:0:0:0:
256,192,82686,1,8,0:0:0:0:
256,192,82772,1,8,0:0:0:0:
256,192,82858,1,4,0:0:0:0:
256,192,83203,1,8,0:0:0:0:
256,192,83375,1,8,0:0:0:0:
256,192,83461,1,8,0:0:0:0:
256,192,83548,1,8,0:0:0:0:
256,192,83720,1,0,0:0:0:0:
256,192,83806,1,8,0:0:0:0:
256,192,83892,1,0,0:0:0:0:
256,192,84065,1,0,0:0:0:0:
256,192,84237,1,8,0:0:0:0:
256,192,84323,1,0,0:0:0:0:
256,192,84410,1,8,0:0:0:0:
256,192,84582,1,0,0:0:0:0:
256,192,84754,1,0,0:0:0:0:
256,192,84841,1,0,0:0:0:0:
256,192,84927,1,8,0:0:0:0:
256,192,85013,1,0,0:0:0:0:
256,192,85099,1,8,0:0:0:0:
256,192,85272,1,0,0:0:0:0:
256,192,85617,1,8,0:0:0:0:
256,192,85961,1,8,0:0:0:0:
256,192,86134,1,8,0:0:0:0:
256,192,86220,1,8,0:0:0:0:
256,192,86306,1,8,0:0:0:0:
256,192,86479,1,0,0:0:0:0:
256,192,86651,1,8,0:0:0:0:
256,192,86996,1,0,0:0:0:0:
256,192,87341,1,8,0:0:0:0:
256,192,87513,1,8,0:0:0:0:
256,192,87599,1,8,0:0:0:0:
256,192,87685,1,0,0:0:0:0:
256,192,87858,1,0,0:0:0:0:
256,192,88031,1,8,0:0:0:0:
256,192,88203,1,8,0:0:0:0:
256,192,88375,1,0,0:0:0:0:
256,192,88720,1,8,0:0:0:0:
256,192,88893,1,8,0:0:0:0:
256,192,89237,1,0,0:0:0:0:
256,192,89410,1,8,0:0:0:0:
256,192,89582,1,8,0:0:0:0:
256,192,89755,1,0,0:0:0:0:
256,192,90100,1,8,0:0:0:0:
256,192,90272,1,8,0:0:0:0:
256,192,90617,1,0,0:0:0:0:
256,192,90789,1,8,0:0:0:0:
256,192,90962,1,0,0:0:0:0:
256,192,91134,1,0,0:0:0:0:
256,192,91479,1,8,0:0:0:0:
256,192,91651,1,0,0:0:0:0:
256,192,91996,1,0,0:0:0:0:
256,192,92168,1,8,0:0:0:0:
256,192,92341,1,0,0:0:0:0:
256,192,92513,1,0,0:0:0:0:
256,192,92858,1,8,0:0:0:0:
256,192,93031,1,8,0:0:0:0:
256,192,93203,1,0,0:0:0:0:
256,192,93375,1,0,0:0:0:0:
256,192,93548,1,8,0:0:0:0:
256,192,93720,1,8,0:0:0:0:
256,192,93893,1,0,0:0:0:0:
256,192,94238,1,8,0:0:0:0:
256,192,94411,1,8,0:0:0:0:
256,192,94755,1,0,0:0:0:0:
256,192,94928,1,8,0:0:0:0:
256,192,95273,1,0,0:0:0:0:
256,192,95618,1,8,0:0:0:0:
256,192,95790,1,8,0:0:0:0:
256,192,96135,1,0,0:0:0:0:
256,192,96307,1,8,0:0:0:0:
256,192,96480,1,0,0:0:0:0:
256,192,96652,1,0,0:0:0:0:
256,192,96997,1,8,0:0:0:0:
256,192,97169,1,0,0:0:0:0:
256,192,97514,1,0,0:0:0:0:
256,192,97686,1,8,0:0:0:0:
256,192,97859,1,0,0:0:0:0:
256,192,98031,1,0,0:0:0:0:
256,192,98203,1,0,0:0:0:0:
256,192,98376,1,8,0:0:0:0:
256,192,98548,1,0,0:0:0:0:
256,192,98721,1,8,0:0:0:0:
256,192,98893,1,8,0:0:0:0:
256,192,98979,1,0,0:0:0:0:
256,192,99065,1,0,0:0:0:0:
256,192,99238,1,8,0:0:0:0:
256,192,99410,1,4,0:0:0:0:
256,192,99755,1,8,0:0:0:0:
256,192,99927,1,0,0:0:0:0:
256,192,100013,1,0,0:0:0:0:
256,192,100100,1,8,0:0:0:0:
256,192,100272,1,0,0:0:0:0:
256,192,100444,1,8,0:0:0:0:
256,192,100789,1,0,0:0:0:0:
256,192,101134,1,8,0:0:0:0:
256,192,101306,1,8,0:0:0:0:
256,192,101393,1,8,0:0:0:0:
256,192,101479,1,0,0:0:0:0:
256,192,101651,1,0,0:0:0:0:
256,192,101824,1,8,0:0:0:0:
256,192,102168,1,0,0:0:0:0:
256,192,102513,1,8,0:0:0:0:
256,192,102686,1,0,0:0:0:0:
256,192,102772,1,0,0:0:0:0:
256,192,102858,1,8,0:0:0:0:
256,192,103031,1,0,0:0:0:0:
256,192,103203,1,8,0:0:0:0:
256,192,103375,1,8,0:0:0:0:
256,192,103462,1,8,0:0:0:0:
256,192,103548,1,0,0:0:0:0:
256,192,103720,1,0,0:0:0:0:
256,192,103893,1,8,0:0:0:0:
256,192,104065,1,8,0:0:0:0:
256,192,104151,1,8,0:0:0:0:
256,192,104237,1,8,0:0:0:0:
256,192,104324,1,8,0:0:0:0:
256,192,104410,1,0,0:0:0:0:
256,192,104582,1,8,0:0:0:0:
256,192,104755,1,8,0:0:0:0:
256,192,104841,1,8,0:0:0:0:
256,192,104927,1,0,0:0:0:0:
256,192,105272,1,8,0:0:0:0:
256,192,105444,1,0,0:0:0:0:
256,192,105531,1,8,0:0:0:0:
256,192,105617,1,0,0:0:0:0:
256,192,105789,1,0,0:0:0:0:
256,192,105962,1,8,0:0:0:0:
256,192,106134,1,8,0:0:0:0:
256,192,106220,1,8,0:0:0:0:
256,192,106306,1,0,0:0:0:0:
256,192,106479,1,0,0:0:0:0:
256,192,106651,1,8,0:0:0:0:
256,192,106824,1,0,0:0:0:0:
256,192,106996,1,0,0:0:0:0:
256,192,107082,1,8,0:0:0:0:
256,192,107168,1,0,0:0:0:0:
256,192,107255,1,0,0:0:0:0:
256,192,107341,1,8,0:0:0:0:
256,192,107513,1,0,0:0:0:0:
256,192,107686,1,8,0:0:0:0:
256,192,107772,1,0,0:0:0:0:
256,192,107858,1,0,0:0:0:0:
256,192,107944,1,0,0:0:0:0:
256,192,108031,1,8,0:0:0:0:
256,192,108203,1,0,0:0:0:0:
256,192,108289,1,0,0:0:0:0:
256,192,108375,1,8,0:0:0:0:
256,192,108462,1,0,0:0:0:0:
256,192,108548,1,8,0:0:0:0:
256,192,108634,1,0,0:0:0:0:
256,192,108720,1,8,0:0:0:0:
256,192,108806,1,8,0:0:0:0:
256,192,108893,1,8,0:0:0:0:
256,192,108979,1,8,0:0:0:0:
256,192,109927,1,0,0:0:0:0:
256,192,110100,1,8,0:0:0:0:
256,192,110444,1,4,0:0:0:0:
256,192,110789,1,8,0:0:0:0:
256,192,110962,1,0,0:0:0:0:
256,192,111048,1,0,0:0:0:0:
256,192,111134,1,0,0:0:0:0:
256,192,111220,1,0,0:0:0:0:
256,192,111306,1,0,0:0:0:0:
256,192,111479,1,8,0:0:0:0:
256,192,111565,1,0,0:0:0:0:
256,192,111651,1,8,0:0:0:0:
256,192,111824,1,0,0:0:0:0:
256,192,112168,1,8,0:0:0:0:
256,192,112341,1,0,0:0:0:0:
256,192,112427,1,0,0:0:0:0:
256,192,112513,1,8,0:0:0:0:
256,192,112600,1,8,0:0:0:0:
256,192,112686,1,0,0:0:0:0:
256,192,112858,1,8,0:0:0:0:
256,192,113203,1,0,0:0:0:0:
256,192,113548,1,8,0:0:0:0:
256,192,113720,1,0,0:0:0:0:
256,192,113806,1,0,0:0:0:0:
256,192,113893,1,0,0:0:0:0:
256,192,113979,1,0,0:0:0:0:
256,192,114065,1,0,0:0:0:0:
256,192,114237,1,8,0:0:0:0:
256,192,114324,1,8,0:0:0:0:
256,192,114410,1,0,0:0:0:0:
256,192,114496,1,0,0:0:0:0:
256,192,114582,1,8,0:0:0:0:
256,192,114755,1,0,0:0:0:0:
256,192,114927,1,8,0:0:0:0:
256,192,115013,1,0,0:0:0:0:
256,192,115100,1,8,0:0:0:0:
256,192,115186,1,8,0:0:0:0:
256,192,115272,1,0,0:0:0:0:
256,192,115444,1,8,0:0:0:0:
256,192,115617,1,0,0:0:0:0:
256,192,115789,1,8,0:0:0:0:
256,192,115962,1,4,0:0:0:0:
256,192,116307,1,8,0:0:0:0:
256,192,116480,1,0,0:0:0:0:
256,192,116566,1,0,0:0:0:0:
256,192,116652,1,0,0:0:0:0:
256,192,116738,1,0,0:0:0:0:
256,192,116824,1,0,0:0:0:0:
256,192,116997,1,8,0:0:0:0:
256,192,117083,1,0,0:0:0:0:
256,192,117169,1,8,0:0:0:0:
256,192,117342,1,0,0:0:0:0:
256,192,117686,1,8,0:0:0:0:
256,192,117859,1,0,0:0:0:0:
256,192,117945,1,8,0:0:0:0:
256,192,118031,1,8,0:0:0:0:
256,192,118118,1,8,0:0:0:0:
256,192,118204,1,0,0:0:0:0:
256,192,118376,1,8,0:0:0:0:
256,192,118721,1,0,0:0:0:0:
256,192,119066,1,8,0:0:0:0:
256,192,119238,1,0,0:0:0:0:
256,192,119324,1,0,0:0:0:0:
256,192,119411,1,0,0:0:0:0:
256,192,119497,1,0,0:0:0:0:
256,192,119583,1,0,0:0:0:0:
256,192,119755,1,8,0:0:0:0:
256,192,119842,1,0,0:0:0:0:
256,192,119928,1,0,0:0:0:0:
256,192,120014,1,0,0:0:0:0:
256,192,120100,1,8,0:0:0:0:
256,192,120272,1,0,0:0:0:0:
256,192,120445,1,8,0:0:0:0:
256,192,120531,1,8,0:0:0:0:
256,192,120618,1,0,0:0:0:0:
256,192,120703,1,8,0:0:0:0:
256,192,120789,1,0,0:0:0:0:
256,192,120962,1,8,0:0:0:0:
256,192,121135,1,0,0:0:0:0:
256,192,121306,1,8,0:0:0:0:
256,192,121479,1,4,0:0:0:0:
256,192,121824,1,8,0:0:0:0:
256,192,121997,1,0,0:0:0:0:
256,192,122083,1,0,0:0:0:0:
256,192,122169,1,0,0:0:0:0:
256,192,122255,1,0,0:0:0:0:
256,192,122341,1,0,0:0:0:0:
256,192,122514,1,8,0:0:0:0:
256,192,122600,1,8,0:0:0:0:
256,192,122686,1,8,0:0:0:0:
256,192,122859,1,0,0:0:0:0:
256,192,123203,1,8,0:0:0:0:
256,192,123376,1,0,0:0:0:0:
256,192,123462,1,0,0:0:0:0:
256,192,123548,1,8,0:0:0:0:
256,192,123635,1,0,0:0:0:0:
256,192,123721,1,0,0:0:0:0:
256,192,123893,1,8,0:0:0:0:
256,192,124238,1,0,0:0:0:0:
256,192,124583,1,8,0:0:0:0:
256,192,124755,1,0,0:0:0:0:
256,192,124841,1,0,0:0:0:0:
256,192,124928,1,0,0:0:0:0:
256,192,125014,1,0,0:0:0:0:
256,192,125100,1,0,0:0:0:0:
256,192,125272,1,8,0:0:0:0:
256,192,125359,1,8,0:0:0:0:
256,192,125445,1,0,0:0:0:0:
256,192,125531,1,0,0:0:0:0:
256,192,125617,1,8,0:0:0:0:
256,192,125789,1,0,0:0:0:0:
256,192,125962,1,8,0:0:0:0:
256,192,126048,1,0,0:0:0:0:
256,192,126135,1,8,0:0:0:0:
256,192,126220,1,0,0:0:0:0:
256,192,126306,1,0,0:0:0:0:
256,192,126479,1,0,0:0:0:0:
256,192,126652,1,8,0:0:0:0:
256,192,126824,1,8,0:0:0:0:
256,192,126910,1,8,0:0:0:0:
256,192,126996,1,4,0:0:0:0:
256,192,127341,1,8,0:0:0:0:
256,192,127513,1,0,0:0:0:0:
256,192,127600,1,0,0:0:0:0:
256,192,127686,1,0,0:0:0:0:
256,192,127772,1,0,0:0:0:0:
256,192,127858,1,0,0:0:0:0:
256,192,128031,1,8,0:0:0:0:
256,192,128117,1,0,0:0:0:0:
256,192,128203,1,8,0:0:0:0:
256,192,128375,1,0,0:0:0:0:
256,192,128720,1,8,0:0:0:0:
256,192,128893,1,0,0:0:0:0:
256,192,128979,1,0,0:0:0:0:
256,192,129065,1,8,0:0:0:0:
256,192,129151,1,0,0:0:0:0:
256,192,129237,1,0,0:0:0:0:
256,192,129410,1,8,0:0:0:0:
256,192,129755,1,0,0:0:0:0:
256,192,129927,1,0,0:0:0:0:
256,192,130100,1,8,0:0:0:0:
256,192,130272,1,0,0:0:0:0:
256,192,130444,1,0,0:0:0:0:
256,192,130617,1,0,0:0:0:0:
256,192,130703,1,0,0:0:0:0:
256,192,130789,1,8,0:0:0:0:
256,192,130962,1,0,0:0:0:0:
256,192,132168,1,8,0:0:0:0:
256,192,132255,1,8,0:0:0:0:
256,192,132341,1,8,0:0:0:0:
256,192,132427,1,8,0:0:0:0:
256,192,132513,1,4,0:0:0:0:
256,192,132686,1,8,0:0:0:0:
256,192,133031,1,8,0:0:0:0:
256,192,133203,1,12,0:0:0:0:
256,192,133548,1,8,0:0:0:0:
256,192,134065,1,8,0:0:0:0:
256,192,134410,1,8,0:0:0:0:
256,192,134582,1,12,0:0:0:0:
256,192,134927,1,8,0:0:0:0:
256,192,135013,1,8,0:0:0:0:
256,192,135100,1,8,0:0:0:0:
256,192,135186,1,8,0:0:0:0:
256,192,135272,1,4,0:0:0:0:
256,192,135444,1,8,0:0:0:0:
256,192,135789,1,8,0:0:0:0:
256,192,135962,1,12,0:0:0:0:
256,192,136306,1,8,0:0:0:0:
256,192,136824,1,8,0:0:0:0:
256,192,136996,1,8,0:0:0:0:
256,192,137341,1,12,0:0:0:0:
256,192,137686,1,8,0:0:0:0:
256,192,137772,1,8,0:0:0:0:
256,192,137858,1,8,0:0:0:0:
256,192,137944,1,8,0:0:0:0:
256,192,138031,1,4,0:0:0:0:
256,192,138203,1,8,0:0:0:0:
256,192,138548,1,8,0:0:0:0:
256,192,138720,1,12,0:0:0:0:
256,192,139065,1,8,0:0:0:0:
256,192,139582,1,8,0:0:0:0:
256,192,139927,1,8,0:0:0:0:
256,192,140100,1,12,0:0:0:0:
256,192,140444,1,8,0:0:0:0:
256,192,140531,1,8,0:0:0:0:
256,192,140617,1,8,0:0:0:0:
256,192,140703,1,8,0:0:0:0:
256,192,140789,1,4,0:0:0:0:
256,192,140962,1,8,0:0:0:0:
256,192,141306,1,8,0:0:0:0:
256,192,141479,1,12,0:0:0:0:
256,192,141824,1,8,0:0:0:0:
256,192,142168,1,0,0:0:0:0:
256,192,142341,1,8,0:0:0:0:
256,192,142513,1,8,0:0:0:0:
256,192,142686,1,0,0:0:0:0:
256,192,142858,1,12,0:0:0:0:
256,192,143203,1,8,0:0:0:0:
256,192,143289,1,8,0:0:0:0:
256,192,143375,1,8,0:0:0:0:
256,192,143462,1,8,0:0:0:0:
256,192,143548,1,4,0:0:0:0:
256,192,143720,1,8,0:0:0:0:
256,192,143893,1,0,0:0:0:0:
256,192,144065,1,8,0:0:0:0:
256,192,144237,1,12,0:0:0:0:
256,192,144410,1,0,0:0:0:0:
256,192,144582,1,0,0:0:0:0:
256,192,144927,1,0,0:0:0:0:
256,192,145100,1,8,0:0:0:0:
256,192,145272,1,0,0:0:0:0:
256,192,145444,1,8,0:0:0:0:
256,192,145617,1,12,0:0:0:0:
256,192,145962,1,8,0:0:0:0:
256,192,146048,1,8,0:0:0:0:
256,192,146134,1,8,0:0:0:0:
256,192,146220,1,8,0:0:0:0:
256,192,146306,1,4,0:0:0:0:
256,192,146479,1,8,0:0:0:0:
256,192,146651,1,0,0:0:0:0:
256,192,146824,1,8,0:0:0:0:
256,192,146996,1,12,0:0:0:0:
256,192,147168,1,0,0:0:0:0:
256,192,147341,1,0,0:0:0:0:
256,192,147686,1,0,0:0:0:0:
256,192,147858,1,8,0:0:0:0:
256,192,148031,1,8,0:0:0:0:
256,192,148203,1,0,0:0:0:0:
256,192,148375,1,12,0:0:0:0:
256,192,148720,1,8,0:0:0:0:
256,192,148806,1,8,0:0:0:0:
256,192,148893,1,8,0:0:0:0:
256,192,148979,1,8,0:0:0:0:
256,192,149065,1,4,0:0:0:0:
256,192,149237,1,8,0:0:0:0:
256,192,149410,1,0,0:0:0:0:
256,192,149582,1,0,0:0:0:0:
256,192,149755,1,12,0:0:0:0:
256,192,149927,1,0,0:0:0:0:
256,192,150100,1,0,0:0:0:0:
256,192,150444,1,0,0:0:0:0:
256,192,150617,1,0,0:0:0:0:
256,192,150789,1,8,0:0:0:0:
256,192,150962,1,0,0:0:0:0:
256,192,151134,1,12,0:0:0:0:
256,192,151306,1,0,0:0:0:0:
256,192,151479,1,8,0:0:0:0:
256,192,151565,1,8,0:0:0:0:
256,192,151651,1,8,0:0:0:0:
256,192,151737,1,8,0:0:0:0:
256,192,151824,1,0,0:0:0:0:
256,192,151910,1,0,0:0:0:0:
256,192,151996,1,0,0:0:0:0:
256,192,152082,1,0,0:0:0:0:
256,192,152168,1,8,0:0:0:0:
256,192,152255,1,8,0:0:0:0:
256,192,152341,1,0,0:0:0:0:
256,192,152427,1,0,0:0:0:0:
256,192,152513,1,0,0:0:0:0:
256,192,152600,1,0,0:0:0:0:
256,192,152686,1,0,0:0:0:0:
256,192,152772,1,0,0:0:0:0:
256,192,152858,1,8,0:0:0:0:
256,192,152944,1,0,0:0:0:0:
256,192,153031,1,8,0:0:0:0:
256,192,153117,1,8,0:0:0:0:
256,192,154065,1,0,0:0:0:0:
256,192,154237,1,8,0:0:0:0:
256,192,154582,1,4,0:0:0:0:
256,192,154927,1,8,0:0:0:0:
256,192,155100,1,8,0:0:0:0:
256,192,155186,1,8,0:0:0:0:
256,192,155272,1,8,0:0:0:0:
256,192,155358,1,8,0:0:0:0:
256,192,155444,1,0,0:0:0:0:
256,192,155617,1,8,0:0:0:0:
256,192,155703,1,0,0:0:0:0:
256,192,155789,1,8,0:0:0:0:
256,192,155962,1,0,0:0:0:0:
256,192,156134,1,0,0:0:0:0:
256,192,156306,1,8,0:0:0:0:
256,192,156479,1,0,0:0:0:0:
256,192,156565,1,8,0:0:0:0:
256,192,156651,1,8,0:0:0:0:
256,192,156737,1,8,0:0:0:0:
256,192,156824,1,0,0:0:0:0:
256,192,156996,1,8,0:0:0:0:
256,192,157168,1,8,0:0:0:0:
256,192,157341,1,0,0:0:0:0:
256,192,157686,1,8,0:0:0:0:
256,192,157858,1,8,0:0:0:0:
256,192,157944,1,8,0:0:0:0:
256,192,158031,1,8,0:0:0:0:
256,192,158117,1,8,0:0:0:0:
256,192,158203,1,0,0:0:0:0:
256,192,158375,1,0,0:0:0:0:
256,192,158462,1,8,0:0:0:0:
256,192,158548,1,8,0:0:0:0:
256,192,158634,1,8,0:0:0:0:
256,192,158720,1,0,0:0:0:0:
256,192,158893,1,0,0:0:0:0:
256,192,158979,1,0,0:0:0:0:
256,192,159065,1,8,0:0:0:0:
256,192,159151,1,0,0:0:0:0:
256,192,159237,1,8,0:0:0:0:
256,192,159324,1,8,0:0:0:0:
256,192,159410,1,0,0:0:0:0:
256,192,159582,1,0,0:0:0:0:
256,192,159755,1,8,0:0:0:0:
256,192,159927,1,8,0:0:0:0:
256,192,160100,1,4,0:0:0:0:
256,192,160445,1,8,0:0:0:0:
256,192,160618,1,8,0:0:0:0:
256,192,160704,1,8,0:0:0:0:
256,192,160790,1,8,0:0:0:0:
256,192,160876,1,8,0:0:0:0:
256,192,160962,1,0,0:0:0:0:
256,192,161135,1,8,0:0:0:0:
256,192,161221,1,0,0:0:0:0:
256,192,161307,1,8,0:0:0:0:
256,192,161480,1,0,0:0:0:0:
256,192,161651,1,0,0:0:0:0:
256,192,161824,1,8,0:0:0:0:
256,192,161997,1,0,0:0:0:0:
256,192,162083,1,8,0:0:0:0:
256,192,162169,1,8,0:0:0:0:
256,192,162255,1,8,0:0:0:0:
256,192,162342,1,0,0:0:0:0:
256,192,162514,1,8,0:0:0:0:
256,192,162686,1,8,0:0:0:0:
256,192,162859,1,0,0:0:0:0:
256,192,163031,1,0,0:0:0:0:
256,192,163204,1,8,0:0:0:0:
256,192,163376,1,8,0:0:0:0:
256,192,163462,1,8,0:0:0:0:
256,192,163549,1,8,0:0:0:0:
256,192,163635,1,8,0:0:0:0:
256,192,163721,1,0,0:0:0:0:
256,192,163893,1,0,0:0:0:0:
256,192,163980,1,8,0:0:0:0:
256,192,164066,1,8,0:0:0:0:
256,192,164152,1,8,0:0:0:0:
256,192,164238,1,0,0:0:0:0:
256,192,164410,1,8,0:0:0:0:
256,192,164497,1,0,0:0:0:0:
256,192,164583,1,8,0:0:0:0:
256,192,164669,1,0,0:0:0:0:
256,192,164755,1,8,0:0:0:0:
256,192,164842,1,8,0:0:0:0:
256,192,164928,1,0,0:0:0:0:
256,192,165100,1,8,0:0:0:0:
256,192,165273,1,0,0:0:0:0:
256,192,165445,1,8,0:0:0:0:
256,192,165617,1,4,0:0:0:0:
256,192,165962,1,8,0:0:0:0:
256,192,166135,1,0,0:0:0:0:
256,192,166221,1,0,0:0:0:0:
256,192,166307,1,0,0:0:0:0:
256,192,166393,1,8,0:0:0:0:
256,192,166479,1,0,0:0:0:0:
256,192,166652,1,8,0:0:0:0:
256,192,166737,1,0,0:0:0:0:
256,192,166824,1,8,0:0:0:0:
256,192,166910,1,8,0:0:0:0:
256,192,166997,1,0,0:0:0:0:
256,192,167168,1,0,0:0:0:0:
256,192,167341,1,8,0:0:0:0:
256,192,167514,1,0,0:0:0:0:
256,192,167600,1,0,0:0:0:0:
256,192,167686,1,8,0:0:0:0:
256,192,167772,1,8,0:0:0:0:
256,192,167859,1,0,0:0:0:0:
256,192,168031,1,8,0:0:0:0:
256,192,168117,1,0,0:0:0:0:
256,192,168203,1,8,0:0:0:0:
256,192,168376,1,0,0:0:0:0:
256,192,168721,1,8,0:0:0:0:
256,192,168893,1,0,0:0:0:0:
256,192,168979,1,0,0:0:0:0:
256,192,169066,1,0,0:0:0:0:
256,192,169152,1,8,0:0:0:0:
256,192,169238,1,0,0:0:0:0:
256,192,169410,1,8,0:0:0:0:
256,192,169497,1,0,0:0:0:0:
256,192,169583,1,8,0:0:0:0:
256,192,169669,1,8,0:0:0:0:
256,192,169755,1,0,0:0:0:0:
256,192,169927,1,0,0:0:0:0:
256,192,170013,1,0,0:0:0:0:
256,192,170100,1,8,0:0:0:0:
256,192,170186,1,0,0:0:0:0:
256,192,170272,1,8,0:0:0:0:
256,192,170359,1,8,0:0:0:0:
256,192,170445,1,0,0:0:0:0:
256,192,170617,1,0,0:0:0:0:
256,192,170790,1,8,0:0:0:0:
256,192,170962,1,8,0:0:0:0:
256,192,171134,1,4,0:0:0:0:
256,192,171479,1,8,0:0:0:0:
256,192,171651,1,0,0:0:0:0:
256,192,171737,1,0,0:0:0:0:
256,192,171824,1,0,0:0:0:0:
256,192,171910,1,0,0:0:0:0:
256,192,171996,1,0,0:0:0:0:
256,192,172168,1,8,0:0:0:0:
256,192,172255,1,8,0:0:0:0:
256,192,172341,1,0,0:0:0:0:
256,192,172427,1,8,0:0:0:0:
256,192,172513,1,0,0:0:0:0:
256,192,172858,1,8,0:0:0:0:
256,192,173031,1,8,0:0:0:0:
256,192,173117,1,0,0:0:0:0:
256,192,173203,1,0,0:0:0:0:
256,192,173289,1,8,0:0:0:0:
256,192,173375,1,0,0:0:0:0:
256,192,173548,1,8,0:0:0:0:
256,192,173720,1,8,0:0:0:0:
256,192,173893,1,0,0:0:0:0:
256,192,174065,1,0,0:0:0:0:
256,192,174237,1,8,0:0:0:0:
256,192,174410,1,0,0:0:0:0:
256,192,174582,1,0,0:0:0:0:
256,192,174755,1,0,0:0:0:0:
256,192,174841,1,0,0:0:0:0:
256,192,174927,1,8,0:0:0:0:
256,192,175100,1,0,0:0:0:0:
256,192,175272,1,0,0:0:0:0:
256,192,175617,1,8,0:0:0:0:
256,192,175789,1,8,0:0:0:0:
256,192,175875,1,8,0:0:0:0:
256,192,176048,1,8,0:0:0:0:
256,192,176134,1,0,0:0:0:0:
256,192,176306,1,8,0:0:0:0:
256,192,176651,1,4,0:0:0:0:
256,192,176996,1,8,0:0:0:0:
256,192,177168,1,8,0:0:0:0:
256,192,177255,1,8,0:0:0:0:
256,192,177341,1,8,0:0:0:0:
256,192,177427,1,8,0:0:0:0:
256,192,177513,1,0,0:0:0:0:
256,192,177686,1,8,0:0:0:0:
256,192,177772,1,0,0:0:0:0:
256,192,177858,1,8,0:0:0:0:
256,192,178031,1,0,0:0:0:0:
256,192,178289,1,0,0:0:0:0:
256,192,178375,1,8,0:0:0:0:
256,192,178548,1,8,0:0:0:0:
256,192,178634,1,8,0:0:0:0:
256,192,178720,1,0,0:0:0:0:
256,192,178806,1,0,0:0:0:0:
256,192,178893,1,0,0:0:0:0:
256,192,179065,1,8,0:0:0:0:
256,192,179410,1,0,0:0:0:0:
256,192,179755,1,8,0:0:0:0:
256,192,179927,1,8,0:0:0:0:
256,192,180013,1,8,0:0:0:0:
256,192,180100,1,8,0:0:0:0:
256,192,180186,1,8,0:0:0:0:
256,192,180272,1,0,0:0:0:0:
256,192,180444,1,8,0:0:0:0:
256,192,180531,1,0,0:0:0:0:
256,192,180617,1,8,0:0:0:0:
256,192,180789,1,0,0:0:0:0:
256,192,181048,1,0,0:0:0:0:
256,192,181134,1,8,0:0:0:0:
256,192,181220,1,0,0:0:0:0:
256,192,181306,1,8,0:0:0:0:
256,192,181565,1,8,0:0:0:0:
256,192,181651,1,0,0:0:0:0:
256,192,181824,1,8,0:0:0:0:
256,192,182168,1,4,0:0:0:0:
256,192,182513,1,8,0:0:0:0:
256,192,182686,1,8,0:0:0:0:
256,192,182772,1,8,0:0:0:0:
256,192,182858,1,8,0:0:0:0:
256,192,182944,1,8,0:0:0:0:
256,192,183031,1,0,0:0:0:0:
256,192,183203,1,8,0:0:0:0:
256,192,183289,1,0,0:0:0:0:
256,192,183375,1,8,0:0:0:0:
256,192,183548,1,0,0:0:0:0:
256,192,183806,1,0,0:0:0:0:
256,192,183893,1,8,0:0:0:0:
256,192,184065,1,8,0:0:0:0:
256,192,184151,1,8,0:0:0:0:
256,192,184237,1,0,0:0:0:0:
256,192,184324,1,0,0:0:0:0:
256,192,184410,1,0,0:0:0:0:
256,192,184582,1,8,0:0:0:0:
256,192,184927,1,0,0:0:0:0:
256,192,185272,1,8,0:0:0:0:
256,192,185444,1,8,0:0:0:0:
256,192,185531,1,8,0:0:0:0:
256,192,185617,1,8,0:0:0:0:
256,192,185703,1,8,0:0:0:0:
256,192,185789,1,0,0:0:0:0:
256,192,185962,1,8,0:0:0:0:
256,192,186048,1,0,0:0:0:0:
256,192,186134,1,8,0:0:0:0:
256,192,186306,1,0,0:0:0:0:
256,192,186565,1,0,0:0:0:0:
256,192,186651,1,8,0:0:0:0:
256,192,186824,1,0,0:0:0:0:
256,192,187168,1,8,0:0:0:0:
256,192,187341,1,0,0:0:0:0:
256,192,187513,1,8,0:0:0:0:
256,192,187686,1,4,0:0:0:0:
256,192,188031,1,8,0:0:0:0:
256,192,188203,1,0,0:0:0:0:
256,192,188289,1,0,0:0:0:0:
256,192,188375,1,0,0:0:0:0:
256,192,188462,1,0,0:0:0:0:
256,192,188548,1,0,0:0:0:0:
256,192,188720,1,8,0:0:0:0:
256,192,188806,1,8,0:0:0:0:
256,192,188893,1,8,0:0:0:0:
256,192,189065,1,0,0:0:0:0:
256,192,189324,1,0,0:0:0:0:
256,192,189410,1,8,0:0:0:0:
256,192,189582,1,0,0:0:0:0:
256,192,189668,1,0,0:0:0:0:
256,192,189755,1,8,0:0:0:0:
256,192,189841,1,8,0:0:0:0:
256,192,189927,1,0,0:0:0:0:
256,192,190100,1,8,0:0:0:0:
256,192,190444,1,0,0:0:0:0:
256,192,190789,1,8,0:0:0:0:
256,192,190962,1,0,0:0:0:0:
256,192,191048,1,0,0:0:0:0:
256,192,191134,1,0,0:0:0:0:
256,192,191220,1,0,0:0:0:0:
256,192,191306,1,0,0:0:0:0:
256,192,191479,1,8,0:0:0:0:
256,192,191565,1,8,0:0:0:0:
256,192,191651,1,8,0:0:0:0:
256,192,191824,1,0,0:0:0:0:
256,192,192082,1,0,0:0:0:0:
256,192,192168,1,8,0:0:0:0:
256,192,192255,1,8,0:0:0:0:
256,192,192341,1,0,0:0:0:0:
256,192,192600,1,8,0:0:0:0:
256,192,192686,1,0,0:0:0:0:
256,192,192858,1,8,0:0:0:0:
256,192,193203,1,4,0:0:0:0:
256,192,193548,1,8,0:0:0:0:
256,192,193720,1,0,0:0:0:0:
256,192,193806,1,0,0:0:0:0:
256,192,193893,1,0,0:0:0:0:
256,192,193979,1,0,0:0:0:0:
256,192,194065,1,0,0:0:0:0:
256,192,194237,1,8,0:0:0:0:
256,192,194324,1,8,0:0:0:0:
256,192,194410,1,8,0:0:0:0:
256,192,194582,1,0,0:0:0:0:
256,192,194927,1,8,0:0:0:0:
256,192,195100,1,0,0:0:0:0:
256,192,195186,1,0,0:0:0:0:
256,192,195272,1,0,0:0:0:0:
256,192,195358,1,0,0:0:0:0:
256,192,195444,1,0,0:0:0:0:
256,192,195617,1,8,0:0:0:0:
256,192,195962,1,0,0:0:0:0:
256,192,196134,1,0,0:0:0:0:
256,192,196306,1,8,0:0:0:0:
256,192,196479,1,0,0:0:0:0:
256,192,196651,1,0,0:0:0:0:
256,192,196824,1,0,0:0:0:0:
256,192,196910,1,0,0:0:0:0:
256,192,196996,1,8,0:0:0:0:
256,192,197168,1,0,0:0:0:0:
256,192,197341,1,0,0:0:0:0:
256,192,197686,1,8,0:0:0:0:
256,192,197858,1,8,0:0:0:0:
256,192,197944,1,8,0:0:0:0:
256,192,198117,1,8,0:0:0:0:
256,192,198203,1,0,0:0:0:0:
256,192,198375,1,8,0:0:0:0:
256,192,198548,1,8,0:0:0:0:
256,192,198720,12,0,199410,0:0:0:0:
