osu file format v14

[General]
AudioFilename: audio.mp3
AudioLeadIn: 0
PreviewTime: 152686
Countdown: 0
SampleSet: Normal
StackLeniency: 0.2
Mode: 1
LetterboxInBreaks: 0
WidescreenStoryboard: 0

[Editor]
DistanceSpacing: 1
BeatDivisor: 4
GridSize: 32
TimelineZoom: 2.2

[Metadata]
Title:Say You Do (feat. Imani & DJ Fresh)
TitleUnicode:Say You Do (feat. Imani & DJ Fresh)
Artist:Sigala
ArtistUnicode:Sigala
Creator:Stingy
Version:Collab Futsuu
Source:
Tags:electronic dance music tropical drum and bass ministry of sound the invisible men faputa gaston_2199 english beach house edm dnb ft. williams
BeatmapID:2253132
BeatmapSetID:1070904

[Difficulty]
HPDrainRate:7
CircleSize:2
OverallDifficulty:4
ApproachRate:10
SliderMultiplier:1.4
SliderTickRate:1

[Events]
//Background and Video events
0,0,"sea-1574689734374-3021_waifu2x_art_noise1_scale_tta_1.jpg",0,0
//Break Periods
//Storyboard Layer 0 (Background)
//Storyboard Layer 1 (Fail)
//Storyboard Layer 2 (Pass)
//Storyboard Layer 3 (Foreground)
//Storyboard Layer 4 (Overlay)
//Storyboard Sound Samples

[TimingPoints]
100,344.827586206897,4,1,0,100,1,0
22168,-100,4,1,0,100,0,0
33203,-100,4,1,0,100,0,0
44237,-100,4,1,0,100,0,0
55272,-100,4,1,0,100,0,1
65789,-100,4,1,0,100,0,0
66306,-100,4,1,0,100,0,1
75962,-100,4,1,0,100,0,0
77341,-100,4,1,0,100,0,1
88375,-100,4,1,0,100,0,0
110444,-100,4,1,0,100,0,1
120962,-100,4,1,0,100,0,0
121479,-100,4,1,0,100,0,1
131134,-100,4,1,0,100,0,0
131306,-100,4,1,0,100,0,0
143548,-100,4,1,0,100,0,0
154582,-100,4,1,0,100,0,1
165100,-100,4,1,0,100,0,0
165617,-100,4,1,0,100,0,1
175272,-100,4,1,0,100,0,0
176651,-100,4,1,0,100,0,1
187168,-100,4,1,0,100,0,0
187686,-100,4,1,0,100,0,1
198720,-100,4,1,0,100,0,0

[HitObjects]
256,192,100,5,0,0:0:0:0:
256,192,789,1,8,0:0:0:0:
256,192,2168,1,8,0:0:0:0:
256,192,2858,1,0,0:0:0:0:
256,192,3547,1,8,0:0:0:0:
256,192,4926,1,8,0:0:0:0:
256,192,5617,1,0,0:0:0:0:
256,192,6306,1,8,0:0:0:0:
256,192,7685,1,8,0:0:0:0:
256,192,8375,1,0,0:0:0:0:
256,192,9064,1,8,0:0:0:0:
256,192,11134,1,0,0:0:0:0:
256,192,12168,1,0,0:0:0:0:
256,192,12513,1,8,0:0:0:0:
256,192,13031,1,8,0:0:0:0:
256,192,13720,1,0,0:0:0:0:
256,192,16651,1,8,0:0:0:0:
256,192,17686,1,0,0:0:0:0:
256,192,18031,1,8,0:0:0:0:
256,192,18548,1,8,0:0:0:0:
256,192,19237,1,0,0:0:0:0:
256,192,22168,1,0,0:0:0:0:
256,192,22513,1,0,0:0:0:0:
256,192,22858,1,8,0:0:0:0:
256,192,23203,1,8,0:0:0:0:
256,192,23548,1,0,0:0:0:0:
256,192,24237,1,8,0:0:0:0:
256,192,24582,1,8,0:0:0:0:
256,192,24927,1,0,0:0:0:0:
256,192,25272,1,8,0:0:0:0:
256,192,25617,1,0,0:0:0:0:
256,192,27513,1,8,0:0:0:0:
256,192,27686,1,0,0:0:0:0:
256,192,28031,1,0,0:0:0:0:
256,192,28375,1,8,0:0:0:0:
256,192,28720,1,8,0:0:0:0:
256,192,29065,1,0,0:0:0:0:
256,192,29582,1,8,0:0:0:0:
256,192,29755,1,8,0:0:0:0:
256,192,30100,1,0,0:0:0:0:
256,192,30444,1,8,0:0:0:0:
256,192,30789,1,8,0:0:0:0:
256,192,31134,1,0,0:0:0:0:
256,192,32168,1,8,0:0:0:0:
256,192,32341,1,0,0:0:0:0:
256,192,32513,1,8,0:0:0:0:
256,192,33203,1,4,0:0:0:0:
256,192,33893,1,8,0:0:0:0:
256,192,34237,1,0,0:0:0:0:
256,192,34582,1,8,0:0:0:0:
256,192,35272,1,8,0:0:0:0:
256,192,35962,1,0,0:0:0:0:
256,192,36652,1,8,0:0:0:0:
256,192,36996,1,0,0:0:0:0:
256,192,37341,1,8,0:0:0:0:
256,192,37858,1,8,0:0:0:0:
256,192,38375,1,8,0:0:0:0:
256,192,38720,1,0,0:0:0:0:
256,192,39410,1,8,0:0:0:0:
256,192,39754,1,0,0:0:0:0:
256,192,40099,1,8,0:0:0:0:
256,192,40789,1,0,0:0:0:0:
256,192,41479,1,0,0:0:0:0:
256,192,42169,1,8,0:0:0:0:
256,192,42513,1,0,0:0:0:0:
256,192,42858,1,8,0:0:0:0:
256,192,43375,1,8,0:0:0:0:
256,192,43892,1,8,0:0:0:0:
256,192,44237,1,4,0:0:0:0:
256,192,44927,1,8,0:0:0:0:
256,192,46306,1,8,0:0:0:0:
256,192,46996,1,0,0:0:0:0:
256,192,47686,1,8,0:0:0:0:
256,192,48375,1,8,0:0:0:0:
256,192,48720,1,0,0:0:0:0:
256,192,49065,1,8,0:0:0:0:
256,192,49755,1,0,0:0:0:0:
256,192,50444,1,0,0:0:0:0:
256,192,51134,1,8,0:0:0:0:
256,192,51824,1,8,0:0:0:0:
256,192,52513,1,0,0:0:0:0:
256,192,52686,1,0,0:0:0:0:
256,192,52858,1,0,0:0:0:0:
256,192,53203,1,8,0:0:0:0:
256,192,53548,1,8,0:0:0:0:
256,192,53720,1,8,0:0:0:0:
256,192,54755,1,0,0:0:0:0:
256,192,54927,1,8,0:0:0:0:
256,192,55272,1,4,0:0:0:0:
256,192,55617,1,8,0:0:0:0:
256,192,56134,1,0,0:0:0:0:
256,192,56306,1,8,0:0:0:0:
256,192,56651,1,0,0:0:0:0:
256,192,56996,1,8,0:0:0:0:
256,192,57686,1,8,0:0:0:0:
256,192,58031,1,0,0:0:0:0:
256,192,58376,1,8,0:0:0:0:
256,192,58893,1,0,0:0:0:0:
256,192,59065,1,8,0:0:0:0:
256,192,59410,1,0,0:0:0:0:
256,192,59755,1,8,0:0:0:0:
256,192,59927,1,0,0:0:0:0:
256,192,60272,1,0,0:0:0:0:
256,192,60445,1,8,0:0:0:0:
256,192,60789,1,4,0:0:0:0:
256,192,61134,1,8,0:0:0:0:
256,192,61651,1,0,0:0:0:0:
256,192,61823,1,8,0:0:0:0:
256,192,62168,1,0,0:0:0:0:
256,192,62513,1,8,0:0:0:0:
256,192,63203,1,8,0:0:0:0:
256,192,63548,1,0,0:0:0:0:
256,192,63893,1,8,0:0:0:0:
256,192,64410,1,0,0:0:0:0:
256,192,64582,1,8,0:0:0:0:
256,192,64927,1,0,0:0:0:0:
256,192,65272,1,8,0:0:0:0:
256,192,65444,1,8,0:0:0:0:
256,192,65789,1,8,0:0:0:0:
256,192,66134,1,8,0:0:0:0:
256,192,66306,1,4,0:0:0:0:
256,192,66651,1,8,0:0:0:0:
256,192,67168,1,0,0:0:0:0:
256,192,67340,1,8,0:0:0:0:
256,192,67685,1,0,0:0:0:0:
256,192,68031,1,8,0:0:0:0:
256,192,68720,1,8,0:0:0:0:
256,192,69065,1,0,0:0:0:0:
256,192,69410,1,8,0:0:0:0:
256,192,69927,1,0,0:0:0:0:
256,192,70099,1,8,0:0:0:0:
256,192,70444,1,0,0:0:0:0:
256,192,70789,1,8,0:0:0:0:
256,192,70962,1,0,0:0:0:0:
256,192,71306,1,0,0:0:0:0:
256,192,71479,1,8,0:0:0:0:
256,192,71824,1,4,0:0:0:0:
256,192,72513,1,8,0:0:0:0:
256,192,72858,1,0,0:0:0:0:
256,192,73031,1,0,0:0:0:0:
256,192,73203,1,8,0:0:0:0:
256,192,73893,1,0,0:0:0:0:
256,192,74582,1,0,0:0:0:0:
256,192,74755,1,0,0:0:0:0:
256,192,74927,1,8,0:0:0:0:
256,192,75272,1,0,0:0:0:0:
256,192,75444,1,0,0:0:0:0:
256,192,75617,1,8,0:0:0:0:
256,192,75962,1,0,0:0:0:0:
256,192,76996,1,8,0:0:0:0:
256,192,77340,1,4,0:0:0:0:
256,192,77685,1,8,0:0:0:0:
256,192,78030,1,0,0:0:0:0:
256,192,78375,1,8,0:0:0:0:
256,192,78547,1,8,0:0:0:0:
256,192,78720,1,8,0:0:0:0:
256,192,79065,1,8,0:0:0:0:
256,192,79409,1,0,0:0:0:0:
256,192,79754,1,8,0:0:0:0:
256,192,80099,1,0,0:0:0:0:
256,192,80444,1,8,0:0:0:0:
256,192,81134,1,8,0:0:0:0:
256,192,81478,1,0,0:0:0:0:
256,192,81823,1,8,0:0:0:0:
256,192,81996,1,8,0:0:0:0:
256,192,82340,1,8,0:0:0:0:
256,192,82685,1,0,0:0:0:0:
256,192,82858,1,12,0:0:0:0:
256,192,83202,1,8,0:0:0:0:
256,192,83547,1,0,0:0:0:0:
256,192,83892,1,8,0:0:0:0:
256,192,84065,1,8,0:0:0:0:
256,192,84237,1,8,0:0:0:0:
256,192,84582,1,8,0:0:0:0:
256,192,84927,1,0,0:0:0:0:
256,192,85271,1,8,0:0:0:0:
256,192,85616,1,0,0:0:0:0:
256,192,85961,1,8,0:0:0:0:
256,192,86651,1,8,0:0:0:0:
256,192,86996,1,0,0:0:0:0:
256,192,87340,1,0,0:0:0:0:
256,192,87685,1,8,0:0:0:0:
256,192,88030,1,8,0:0:0:0:
256,192,88375,1,0,0:0:0:0:
256,192,88720,1,8,0:0:0:0:
256,192,89409,1,8,0:0:0:0:
256,192,89754,1,0,0:0:0:0:
256,192,90099,1,8,0:0:0:0:
256,192,90616,1,0,0:0:0:0:
256,192,90789,1,8,0:0:0:0:
256,192,91134,1,0,0:0:0:0:
256,192,91478,1,8,0:0:0:0:
256,192,92168,1,8,0:0:0:0:
256,192,92513,1,0,0:0:0:0:
256,192,92858,1,8,0:0:0:0:
256,192,93375,1,8,0:0:0:0:
256,192,93547,1,8,0:0:0:0:
256,192,93892,1,0,0:0:0:0:
256,192,94237,1,8,0:0:0:0:
256,192,94927,1,8,0:0:0:0:
256,192,95271,1,0,0:0:0:0:
256,192,95616,1,8,0:0:0:0:
256,192,96134,1,0,0:0:0:0:
256,192,96306,1,8,0:0:0:0:
256,192,96651,1,0,0:0:0:0:
256,192,96996,1,8,0:0:0:0:
256,192,97685,1,8,0:0:0:0:
256,192,98030,1,0,0:0:0:0:
256,192,98375,1,8,0:0:0:0:
256,192,98720,1,0,0:0:0:0:
256,192,98892,1,8,0:0:0:0:
256,192,99065,1,8,0:0:0:0:
256,192,99409,1,4,0:0:0:0:
256,192,99754,1,8,0:0:0:0:
256,192,100099,1,0,0:0:0:0:
256,192,100444,1,8,0:0:0:0:
256,192,100789,1,0,0:0:0:0:
256,192,101478,1,0,0:0:0:0:
256,192,101823,1,8,0:0:0:0:
256,192,102168,1,0,0:0:0:0:
256,192,102513,1,8,0:0:0:0:
256,192,102858,1,8,0:0:0:0:
256,192,103547,1,0,0:0:0:0:
256,192,103892,1,8,0:0:0:0:
256,192,104409,1,0,0:0:0:0:
256,192,104582,1,8,0:0:0:0:
256,192,104927,1,0,0:0:0:0:
256,192,105271,1,8,0:0:0:0:
256,192,105616,1,0,0:0:0:0:
256,192,105961,1,8,0:0:0:0:
256,192,106306,1,8,0:0:0:0:
256,192,106996,1,0,0:0:0:0:
256,192,107340,1,8,0:0:0:0:
256,192,107685,1,8,0:0:0:0:
256,192,107858,1,8,0:0:0:0:
256,192,108030,1,8,0:0:0:0:
256,192,108375,1,0,0:0:0:0:
256,192,108547,1,0,0:0:0:0:
256,192,108720,1,0,0:0:0:0:
256,192,110099,1,8,0:0:0:0:
256,192,110444,1,4,0:0:0:0:
256,192,110789,1,8,0:0:0:0:
256,192,111306,1,0,0:0:0:0:
256,192,111478,1,8,0:0:0:0:
256,192,111823,1,0,0:0:0:0:
256,192,112168,1,8,0:0:0:0:
256,192,112858,1,8,0:0:0:0:
256,192,113202,1,0,0:0:0:0:
256,192,113547,1,8,0:0:0:0:
256,192,114065,1,0,0:0:0:0:
256,192,114237,1,8,0:0:0:0:
256,192,114582,1,0,0:0:0:0:
256,192,114927,1,8,0:0:0:0:
256,192,115099,1,8,0:0:0:0:
256,192,115444,1,0,0:0:0:0:
256,192,115616,1,8,0:0:0:0:
256,192,115961,1,4,0:0:0:0:
256,192,116306,1,8,0:0:0:0:
256,192,116823,1,0,0:0:0:0:
256,192,116996,1,8,0:0:0:0:
256,192,117340,1,0,0:0:0:0:
256,192,117685,1,8,0:0:0:0:
256,192,118375,1,8,0:0:0:0:
256,192,118720,1,0,0:0:0:0:
256,192,119065,1,8,0:0:0:0:
256,192,119582,1,0,0:0:0:0:
256,192,119754,1,8,0:0:0:0:
256,192,120099,1,0,0:0:0:0:
256,192,120444,1,8,0:0:0:0:
256,192,120616,1,0,0:0:0:0:
256,192,120961,1,8,0:0:0:0:
256,192,121306,1,8,0:0:0:0:
256,192,121478,1,4,0:0:0:0:
256,192,121823,1,8,0:0:0:0:
256,192,122340,1,0,0:0:0:0:
256,192,122513,1,8,0:0:0:0:
256,192,122858,1,0,0:0:0:0:
256,192,123202,1,8,0:0:0:0:
256,192,123547,1,0,0:0:0:0:
256,192,123720,1,0,0:0:0:0:
256,192,123892,1,8,0:0:0:0:
256,192,124237,1,0,0:0:0:0:
256,192,124582,1,8,0:0:0:0:
256,192,125099,1,0,0:0:0:0:
256,192,125271,1,8,0:0:0:0:
256,192,125616,1,0,0:0:0:0:
256,192,125961,1,8,0:0:0:0:
256,192,126134,1,8,0:0:0:0:
256,192,126478,1,0,0:0:0:0:
256,192,126651,1,8,0:0:0:0:
256,192,126996,1,4,0:0:0:0:
256,192,127685,1,0,0:0:0:0:
256,192,128375,1,8,0:0:0:0:
256,192,129065,1,8,0:0:0:0:
256,192,129754,1,0,0:0:0:0:
256,192,130099,1,0,0:0:0:0:
256,192,130444,1,8,0:0:0:0:
256,192,130789,1,8,0:0:0:0:
256,192,130961,1,8,0:0:0:0:
256,192,131134,1,0,0:0:0:0:
256,192,132168,1,8,0:0:0:0:
256,192,132513,1,0,0:0:0:0:
256,192,133203,1,8,0:0:0:0:
256,192,134582,1,8,0:0:0:0:
256,192,134927,1,0,0:0:0:0:
256,192,135271,1,0,0:0:0:0:
256,192,135962,1,8,0:0:0:0:
256,192,137341,1,8,0:0:0:0:
256,192,137685,1,0,0:0:0:0:
256,192,138030,1,0,0:0:0:0:
256,192,138720,1,8,0:0:0:0:
256,192,140100,1,8,0:0:0:0:
256,192,140444,1,0,0:0:0:0:
256,192,140789,1,0,0:0:0:0:
256,192,141478,1,0,0:0:0:0:
256,192,142168,1,0,0:0:0:0:
256,192,142858,1,8,0:0:0:0:
256,192,143547,1,4,0:0:0:0:
256,192,143892,1,8,0:0:0:0:
256,192,144409,1,8,0:0:0:0:
256,192,144927,1,0,0:0:0:0:
256,192,145271,1,8,0:0:0:0:
256,192,145616,1,0,0:0:0:0:
256,192,145961,1,8,0:0:0:0:
256,192,146651,1,8,0:0:0:0:
256,192,147168,1,8,0:0:0:0:
256,192,147685,1,0,0:0:0:0:
256,192,148030,1,0,0:0:0:0:
256,192,148375,1,8,0:0:0:0:
256,192,148720,1,8,0:0:0:0:
256,192,149409,1,8,0:0:0:0:
256,192,149927,1,8,0:0:0:0:
256,192,150444,1,8,0:0:0:0:
256,192,150789,1,0,0:0:0:0:
256,192,151134,1,8,0:0:0:0:
256,192,151478,1,8,0:0:0:0:
256,192,151823,1,0,0:0:0:0:
256,192,151996,1,0,0:0:0:0:
256,192,152168,1,0,0:0:0:0:
256,192,152513,1,8,0:0:0:0:
256,192,152685,1,8,0:0:0:0:
256,192,152858,1,8,0:0:0:0:
256,192,154237,1,8,0:0:0:0:
256,192,154582,1,4,0:0:0:0:
256,192,154927,1,8,0:0:0:0:
256,192,155616,1,8,0:0:0:0:
256,192,155961,1,0,0:0:0:0:
256,192,156306,1,8,0:0:0:0:
256,192,156651,1,0,0:0:0:0:
256,192,156823,1,0,0:0:0:0:
256,192,156996,1,8,0:0:0:0:
256,192,157340,1,0,0:0:0:0:
256,192,157685,1,8,0:0:0:0:
256,192,158202,1,0,0:0:0:0:
256,192,158375,1,8,0:0:0:0:
256,192,158720,1,0,0:0:0:0:
256,192,159065,1,8,0:0:0:0:
256,192,159237,1,8,0:0:0:0:
256,192,159582,1,0,0:0:0:0:
256,192,159754,1,8,0:0:0:0:
256,192,160099,1,4,0:0:0:0:
256,192,160444,1,8,0:0:0:0:
256,192,161134,1,8,0:0:0:0:
256,192,161478,1,0,0:0:0:0:
256,192,161823,1,8,0:0:0:0:
256,192,162168,1,0,0:0:0:0:
256,192,162340,1,0,0:0:0:0:
256,192,162513,1,8,0:0:0:0:
256,192,162858,1,0,0:0:0:0:
256,192,163202,1,8,0:0:0:0:
256,192,163720,1,0,0:0:0:0:
256,192,163892,1,8,0:0:0:0:
256,192,164237,1,0,0:0:0:0:
256,192,164582,1,8,0:0:0:0:
256,192,164754,1,0,0:0:0:0:
256,192,165099,1,8,0:0:0:0:
256,192,165444,1,8,0:0:0:0:
256,192,165616,1,4,0:0:0:0:
256,192,165961,1,8,0:0:0:0:
256,192,166651,1,8,0:0:0:0:
256,192,166996,1,0,0:0:0:0:
256,192,167340,1,8,0:0:0:0:
256,192,167685,1,0,0:0:0:0:
256,192,167858,1,0,0:0:0:0:
256,192,168030,1,8,0:0:0:0:
256,192,168375,1,0,0:0:0:0:
256,192,168720,1,8,0:0:0:0:
256,192,168892,1,0,0:0:0:0:
256,192,169237,1,0,0:0:0:0:
256,192,169409,1,8,0:0:0:0:
256,192,169754,1,0,0:0:0:0:
256,192,170099,1,8,0:0:0:0:
256,192,170271,1,8,0:0:0:0:
256,192,170616,1,0,0:0:0:0:
256,192,170789,1,8,0:0:0:0:
256,192,171134,1,4,0:0:0:0:
256,192,171823,1,0,0:0:0:0:
256,192,172513,1,8,0:0:0:0:
256,192,173202,1,8,0:0:0:0:
256,192,173892,1,0,0:0:0:0:
256,192,174237,1,0,0:0:0:0:
256,192,174582,1,8,0:0:0:0:
256,192,174927,1,8,0:0:0:0:
256,192,175099,1,8,0:0:0:0:
256,192,175271,1,0,0:0:0:0:
256,192,175616,1,8,0:0:0:0:
256,192,176306,1,8,0:0:0:0:
256,192,176651,1,4,0:0:0:0:
256,192,176996,1,8,0:0:0:0:
256,192,177685,1,8,0:0:0:0:
256,192,178030,1,0,0:0:0:0:
256,192,178375,1,8,0:0:0:0:
256,192,178720,1,0,0:0:0:0:
256,192,178892,1,0,0:0:0:0:
256,192,179065,1,8,0:0:0:0:
256,192,179409,1,0,0:0:0:0:
256,192,179754,1,8,0:0:0:0:
256,192,179927,1,0,0:0:0:0:
256,192,180271,1,0,0:0:0:0:
256,192,180444,1,8,0:0:0:0:
256,192,180789,1,0,0:0:0:0:
256,192,181134,1,8,0:0:0:0:
256,192,181306,1,8,0:0:0:0:
256,192,181651,1,0,0:0:0:0:
256,192,181823,1,8,0:0:0:0:
256,192,182168,1,4,0:0:0:0:
256,192,182513,1,8,0:0:0:0:
256,192,183202,1,8,0:0:0:0:
256,192,183547,1,0,0:0:0:0:
256,192,183892,1,8,0:0:0:0:
256,192,184237,1,0,0:0:0:0:
256,192,184409,1,0,0:0:0:0:
256,192,184582,1,8,0:0:0:0:
256,192,184927,1,0,0:0:0:0:
256,192,185271,1,8,0:0:0:0:
256,192,185444,1,0,0:0:0:0:
256,192,185789,1,0,0:0:0:0:
256,192,185961,1,8,0:0:0:0:
256,192,186306,1,0,0:0:0:0:
256,192,186651,1,8,0:0:0:0:
256,192,186823,1,0,0:0:0:0:
256,192,187168,1,8,0:0:0:0:
256,192,187513,1,8,0:0:0:0:
256,192,187685,1,4,0:0:0:0:
256,192,188030,1,8,0:0:0:0:
256,192,188720,1,8,0:0:0:0:
256,192,189065,1,0,0:0:0:0:
256,192,189409,1,8,0:0:0:0:
256,192,189754,1,0,0:0:0:0:
256,192,189927,1,0,0:0:0:0:
256,192,190099,1,8,0:0:0:0:
256,192,190444,1,0,0:0:0:0:
256,192,190789,1,8,0:0:0:0:
256,192,190961,1,0,0:0:0:0:
256,192,191306,1,0,0:0:0:0:
256,192,191478,1,8,0:0:0:0:
256,192,191823,1,0,0:0:0:0:
256,192,192168,1,8,0:0:0:0:
256,192,192340,1,8,0:0:0:0:
256,192,192685,1,0,0:0:0:0:
256,192,192858,1,8,0:0:0:0:
256,192,193202,1,4,0:0:0:0:
256,192,193892,1,0,0:0:0:0:
256,192,194582,1,8,0:0:0:0:
256,192,195271,1,8,0:0:0:0:
256,192,195961,1,0,0:0:0:0:
256,192,196306,1,0,0:0:0:0:
256,192,196651,1,8,0:0:0:0:
256,192,196996,1,8,0:0:0:0:
256,192,197168,1,8,0:0:0:0:
256,192,197340,1,0,0:0:0:0:
256,192,198720,12,0,199409,0:0:0:0:
