osu file format v14

[General]
AudioFilename: audio.mp3
AudioLeadIn: 0
PreviewTime: -1
Countdown: 1
SampleSet: Normal
StackLeniency: 0.7
Mode: 1
LetterboxInBreaks: 0
WidescreenStoryboard: 0

[Editor]
DistanceSpacing: 0.8
BeatDivisor: 4
GridSize: 32
TimelineZoom: 4.699998

[Metadata]
Title:Apollo 21
TitleUnicode:Apollo 21
Artist:Sidney600
ArtistUnicode:Sidney600
Creator:Vulkin
Version:Space Odyssey
Source:
Tags:
BeatmapID:912561
BeatmapSetID:422007

[Difficulty]
HPDrainRate:5
CircleSize:5
OverallDifficulty:5
ApproachRate:5
SliderMultiplier:1.6
SliderTickRate:1

[Events]
//Background and Video events
0,0,"outer-space-wallpaper-pictures.jpg",0,0
//Break Periods
//Storyboard Layer 0 (Background)
//Storyboard Layer 1 (Fail)
//Storyboard Layer 2 (Pass)
//Storyboard Layer 3 (Foreground)
//Storyboard Sound Samples

[TimingPoints]
1825,454.545454545455,4,1,0,40,1,0
39097,434.782608695652,4,1,0,40,1,0
39966,419.58041958042,4,1,0,40,1,0
40805,405.405405405405,4,1,0,40,1,0
41615,389.61038961039,4,1,0,40,1,0
42394,375,4,1,0,40,1,0
43144,363.636363636364,4,1,0,40,1,0
43871,350.877192982456,4,1,0,40,1,0
44572,350.877192982456,4,1,0,40,1,0
229833,359.281437125748,4,1,0,40,1,0
230551,370.37037037037,4,1,0,40,1,0
231291,382.165605095541,4,1,0,40,1,0
232055,389.61038961039,4,1,0,40,1,0
232834,402.684563758389,4,1,0,40,1,0
233639,413.793103448276,4,1,0,40,1,0
234466,428.571428571429,4,1,0,40,1,0
235323,437.956204379562,4,1,0,40,1,0
236198,454.545454545455,4,1,0,40,1,0

[HitObjects]
256,192,1825,5,8,0:0:0:0:
256,192,1938,1,8,0:0:0:0:
256,192,2165,1,8,0:0:0:0:
256,192,2279,1,8,0:0:0:0:
256,192,2506,1,8,0:0:0:0:
256,192,2619,1,8,0:0:0:0:
256,192,2846,1,8,0:0:0:0:
256,192,2961,1,8,0:0:0:0:
256,192,3188,1,0,0:0:0:0:
256,192,3643,1,0,0:0:0:0:
256,192,3756,1,0,0:0:0:0:
256,192,3983,1,0,0:0:0:0:
256,192,4097,1,0,0:0:0:0:
256,192,4324,1,0,0:0:0:0:
256,192,4437,1,0,0:0:0:0:
256,192,4664,1,0,0:0:0:0:
256,192,4778,1,0,0:0:0:0:
256,192,5006,1,8,0:0:0:0:
256,192,5461,1,0,0:0:0:0:
256,192,5574,1,0,0:0:0:0:
256,192,5801,1,0,0:0:0:0:
256,192,5915,1,0,0:0:0:0:
256,192,6142,1,0,0:0:0:0:
256,192,6255,1,0,0:0:0:0:
256,192,6482,1,0,0:0:0:0:
256,192,6596,1,0,0:0:0:0:
256,192,6824,1,8,0:0:0:0:
256,192,7279,1,0,0:0:0:0:
256,192,7392,1,0,0:0:0:0:
256,192,7619,1,0,0:0:0:0:
256,192,7733,1,0,0:0:0:0:
256,192,7961,1,8,0:0:0:0:
256,192,8073,1,8,0:0:0:0:
256,192,8188,1,0,0:0:0:0:
256,192,8300,1,8,0:0:0:0:
256,192,8414,1,8,0:0:0:0:
256,192,8529,1,0,0:0:0:0:
256,192,8642,1,8,0:0:0:0:
256,192,8756,1,0,0:0:0:0:
256,192,8870,1,8,0:0:0:0:
256,192,8984,1,0,0:0:0:0:
256,192,9097,1,0,0:0:0:0:
256,192,9211,1,8,0:0:0:0:
256,192,9325,1,0,0:0:0:0:
256,192,9552,1,8,0:0:0:0:
256,192,9665,1,8,0:0:0:0:
256,192,9779,1,0,0:0:0:0:
256,192,9893,1,0,0:0:0:0:
256,192,10006,1,8,0:0:0:0:
256,192,10234,1,0,0:0:0:0:
256,192,10347,1,0,0:0:0:0:
256,192,10461,1,8,0:0:0:0:
256,192,10575,1,0,0:0:0:0:
256,192,10688,1,8,0:0:0:0:
256,192,10802,1,0,0:0:0:0:
256,192,10915,1,0,0:0:0:0:
256,192,11029,1,0,0:0:0:0:
256,192,11143,1,8,0:0:0:0:
256,192,11370,1,0,0:0:0:0:
256,192,11484,1,0,0:0:0:0:
256,192,11597,1,8,0:0:0:0:
256,192,11711,1,0,0:0:0:0:
256,192,11825,1,8,0:0:0:0:
256,192,11938,1,0,0:0:0:0:
256,192,12052,1,8,0:0:0:0:
256,192,12279,1,0,0:0:0:0:
256,192,12393,1,0,0:0:0:0:
256,192,12506,1,8,0:0:0:0:
256,192,12620,1,0,0:0:0:0:
256,192,12734,1,0,0:0:0:0:
256,192,12847,1,8,0:0:0:0:
256,192,12961,1,0,0:0:0:0:
256,192,13188,1,8,0:0:0:0:
256,192,13302,1,8,0:0:0:0:
256,192,13415,1,8,0:0:0:0:
256,192,13529,1,8,0:0:0:0:
256,192,13643,1,8,0:0:0:0:
256,192,13756,1,8,0:0:0:0:
256,192,13870,1,0,0:0:0:0:
256,192,14097,1,0,0:0:0:0:
256,192,14211,1,8,0:0:0:0:
256,192,14325,1,8,0:0:0:0:
256,192,14438,1,8,0:0:0:0:
256,192,14552,1,8,0:0:0:0:
256,192,14665,1,0,0:0:0:0:
256,192,14779,1,0,0:0:0:0:
256,192,15006,1,0,0:0:0:0:
256,192,15120,1,0,0:0:0:0:
256,192,15234,1,0,0:0:0:0:
256,192,15347,1,8,0:0:0:0:
256,192,15461,1,0,0:0:0:0:
256,192,15575,1,8,0:0:0:0:
256,192,15688,1,0,0:0:0:0:
256,192,15915,1,0,0:0:0:0:
256,192,16029,1,0,0:0:0:0:
256,192,16143,1,0,0:0:0:0:
256,192,16370,1,8,0:0:0:0:
256,192,16484,1,8,0:0:0:0:
256,192,16597,1,0,0:0:0:0:
256,192,16825,1,0,0:0:0:0:
256,192,16938,1,8,0:0:0:0:
256,192,17052,1,8,0:0:0:0:
256,192,17165,1,8,0:0:0:0:
256,192,17279,1,8,0:0:0:0:
256,192,17506,1,0,0:0:0:0:
256,192,17620,1,0,0:0:0:0:
256,192,17734,1,0,0:0:0:0:
256,192,17847,1,8,0:0:0:0:
256,192,17961,1,0,0:0:0:0:
256,192,18075,1,0,0:0:0:0:
256,192,18188,1,8,0:0:0:0:
256,192,18302,1,0,0:0:0:0:
256,192,18415,1,8,0:0:0:0:
256,192,18643,1,0,0:0:0:0:
256,192,18756,1,0,0:0:0:0:
256,192,18870,1,8,0:0:0:0:
256,192,18984,1,0,0:0:0:0:
256,192,19097,1,8,0:0:0:0:
256,192,19211,1,8,0:0:0:0:
256,192,19325,1,0,0:0:0:0:
256,192,19552,1,0,0:0:0:0:
256,192,19665,1,8,0:0:0:0:
256,192,19779,1,0,0:0:0:0:
256,192,19893,1,8,0:0:0:0:
256,192,20006,1,0,0:0:0:0:
256,192,20120,1,8,0:0:0:0:
256,192,20234,1,0,0:0:0:0:
256,192,20461,1,0,0:0:0:0:
256,192,20575,1,8,0:0:0:0:
256,192,20688,1,0,0:0:0:0:
256,192,20802,1,8,0:0:0:0:
256,192,20915,1,0,0:0:0:0:
256,192,21029,1,8,0:0:0:0:
256,192,21143,1,0,0:0:0:0:
256,192,21370,1,0,0:0:0:0:
256,192,21484,1,8,0:0:0:0:
256,192,21597,1,0,0:0:0:0:
256,192,21711,1,8,0:0:0:0:
256,192,21825,1,8,0:0:0:0:
256,192,21938,1,0,0:0:0:0:
256,192,22052,1,0,0:0:0:0:
256,192,22279,1,0,0:0:0:0:
256,192,22393,1,8,0:0:0:0:
256,192,22506,1,0,0:0:0:0:
256,192,22620,1,8,0:0:0:0:
256,192,22734,1,0,0:0:0:0:
256,192,22847,1,8,0:0:0:0:
256,192,22961,1,0,0:0:0:0:
256,192,23188,1,0,0:0:0:0:
256,192,23302,1,8,0:0:0:0:
256,192,23415,1,0,0:0:0:0:
256,192,23643,1,8,0:0:0:0:
256,192,23756,1,0,0:0:0:0:
256,192,23870,1,0,0:0:0:0:
256,192,24097,1,8,0:0:0:0:
256,192,24211,1,8,0:0:0:0:
256,192,24325,1,8,0:0:0:0:
256,192,24438,1,8,0:0:0:0:
256,192,24552,1,8,0:0:0:0:
256,192,24779,1,0,0:0:0:0:
256,192,24893,1,0,0:0:0:0:
256,192,25006,1,0,0:0:0:0:
256,192,25120,1,0,0:0:0:0:
256,192,25234,1,0,0:0:0:0:
256,192,25347,1,0,0:0:0:0:
256,192,25461,1,0,0:0:0:0:
256,192,25575,1,0,0:0:0:0:
256,192,25688,1,0,0:0:0:0:
256,192,25915,1,8,0:0:0:0:
256,192,26029,1,0,0:0:0:0:
256,192,26143,1,8,0:0:0:0:
256,192,26256,1,0,0:0:0:0:
256,192,26370,1,8,0:0:0:0:
256,192,26484,1,0,0:0:0:0:
256,192,26597,1,0,0:0:0:0:
256,192,26825,1,0,0:0:0:0:
256,192,26938,1,8,0:0:0:0:
256,192,27052,1,0,0:0:0:0:
256,192,27165,1,0,0:0:0:0:
256,192,27279,1,8,0:0:0:0:
256,192,27393,1,0,0:0:0:0:
256,192,27506,1,8,0:0:0:0:
256,192,27734,1,0,0:0:0:0:
256,192,27847,1,0,0:0:0:0:
256,192,27961,1,8,0:0:0:0:
256,192,28075,1,0,0:0:0:0:
256,192,28188,1,8,0:0:0:0:
256,192,28302,1,0,0:0:0:0:
256,192,28415,1,8,0:0:0:0:
256,192,28643,1,0,0:0:0:0:
256,192,28756,1,0,0:0:0:0:
256,192,28870,1,8,0:0:0:0:
256,192,28984,1,0,0:0:0:0:
256,192,29097,1,8,0:0:0:0:
256,192,29211,1,0,0:0:0:0:
256,192,29325,1,8,0:0:0:0:
256,192,29552,1,0,0:0:0:0:
256,192,29665,1,0,0:0:0:0:
256,192,29779,1,8,0:0:0:0:
256,192,29893,1,0,0:0:0:0:
256,192,30006,1,8,0:0:0:0:
256,192,30120,1,0,0:0:0:0:
256,192,30234,1,8,0:0:0:0:
256,192,30461,1,8,0:0:0:0:
256,192,30575,1,0,0:0:0:0:
256,192,30688,1,8,0:0:0:0:
256,192,30915,1,0,0:0:0:0:
256,192,31143,1,0,0:0:0:0:
256,192,31370,1,8,0:0:0:0:
256,192,31597,1,8,0:0:0:0:
256,192,31825,1,0,0:0:0:0:
256,192,32052,1,8,0:0:0:0:
256,192,32279,1,8,0:0:0:0:
256,192,32506,1,0,0:0:0:0:
256,192,32734,1,0,0:0:0:0:
256,192,32961,1,8,0:0:0:0:
256,192,33188,1,8,0:0:0:0:
256,192,33415,1,0,0:0:0:0:
256,192,33643,1,0,0:0:0:0:
256,192,33870,1,0,0:0:0:0:
256,192,34097,1,8,0:0:0:0:
256,192,34325,1,8,0:0:0:0:
256,192,34552,1,0,0:0:0:0:
256,192,34779,1,8,0:0:0:0:
256,192,35007,1,8,0:0:0:0:
256,192,35234,1,0,0:0:0:0:
256,192,35461,1,8,0:0:0:0:
256,192,35688,1,8,0:0:0:0:
256,192,35915,1,0,0:0:0:0:
256,192,36143,1,0,0:0:0:0:
256,192,36370,1,8,0:0:0:0:
256,192,36597,1,8,0:0:0:0:
256,192,36825,1,0,0:0:0:0:
256,192,37052,1,0,0:0:0:0:
256,192,37279,1,8,0:0:0:0:
256,192,37506,1,8,0:0:0:0:
256,192,37734,1,0,0:0:0:0:
256,192,37961,1,0,0:0:0:0:
256,192,38188,1,0,0:0:0:0:
256,192,38415,1,0,0:0:0:0:
256,192,38643,1,8,0:0:0:0:
256,192,38870,1,0,0:0:0:0:
256,192,39097,1,8,0:0:0:0:
256,192,39314,1,0,0:0:0:0:
256,192,39531,1,0,0:0:0:0:
256,192,39749,1,0,0:0:0:0:
256,192,39966,1,8,0:0:0:0:
256,192,40175,1,0,0:0:0:0:
256,192,40385,1,0,0:0:0:0:
256,192,40595,1,0,0:0:0:0:
256,192,40805,1,8,0:0:0:0:
256,192,41007,1,0,0:0:0:0:
256,192,41210,1,0,0:0:0:0:
256,192,41413,1,0,0:0:0:0:
256,192,41615,1,8,0:0:0:0:
256,192,41809,1,0,0:0:0:0:
256,192,42004,1,8,0:0:0:0:
256,192,42199,1,8,0:0:0:0:
256,192,42394,1,0,0:0:0:0:
256,192,42581,1,0,0:0:0:0:
256,192,42769,1,8,0:0:0:0:
256,192,42956,1,0,0:0:0:0:
256,192,43144,1,8,0:0:0:0:
256,192,43325,1,0,0:0:0:0:
256,192,43507,1,0,0:0:0:0:
256,192,43689,1,0,0:0:0:0:
256,192,43871,1,8,0:0:0:0:
256,192,44046,1,0,0:0:0:0:
256,192,44221,1,0,0:0:0:0:
256,192,44397,1,0,0:0:0:0:
256,192,44572,1,0,0:0:0:0:
256,192,44747,1,0,0:0:0:0:
256,192,44922,1,8,0:0:0:0:
256,192,45098,1,8,0:0:0:0:
256,192,45273,1,0,0:0:0:0:
256,192,45449,1,8,0:0:0:0:
256,192,45624,1,8,0:0:0:0:
256,192,45800,1,8,0:0:0:0:
256,192,45975,1,0,0:0:0:0:
256,192,46150,1,0,0:0:0:0:
256,192,46326,1,8,0:0:0:0:
256,192,46501,1,0,0:0:0:0:
256,192,46677,1,8,0:0:0:0:
256,192,46852,1,0,0:0:0:0:
256,192,47028,1,8,0:0:0:0:
256,192,47203,1,0,0:0:0:0:
256,192,47379,1,8,0:0:0:0:
256,192,47554,1,8,0:0:0:0:
256,192,47729,1,0,0:0:0:0:
256,192,47905,1,8,0:0:0:0:
256,192,48080,1,0,0:0:0:0:
256,192,48256,1,0,0:0:0:0:
256,192,48431,1,8,0:0:0:0:
256,192,48607,1,8,0:0:0:0:
256,192,48782,1,8,0:0:0:0:
256,192,48957,1,8,0:0:0:0:
256,192,49133,1,0,0:0:0:0:
256,192,49308,1,8,0:0:0:0:
256,192,49484,1,8,0:0:0:0:
256,192,49659,1,8,0:0:0:0:
256,192,49835,1,8,0:0:0:0:
256,192,50010,1,0,0:0:0:0:
256,192,50186,1,0,0:0:0:0:
256,192,50361,1,0,0:0:0:0:
256,192,50536,1,8,0:0:0:0:
256,192,50712,1,8,0:0:0:0:
256,192,50887,1,0,0:0:0:0:
256,192,51063,1,8,0:0:0:0:
256,192,51238,1,8,0:0:0:0:
256,192,51414,1,8,0:0:0:0:
256,192,51589,1,0,0:0:0:0:
256,192,51764,1,0,0:0:0:0:
256,192,51940,1,8,0:0:0:0:
256,192,52115,1,8,0:0:0:0:
256,192,52291,1,8,0:0:0:0:
256,192,52466,1,0,0:0:0:0:
256,192,52642,1,8,0:0:0:0:
256,192,52817,1,8,0:0:0:0:
256,192,52993,1,8,0:0:0:0:
256,192,53168,1,0,0:0:0:0:
256,192,53343,1,8,0:0:0:0:
256,192,53519,1,8,0:0:0:0:
256,192,53694,1,0,0:0:0:0:
256,192,53870,1,0,0:0:0:0:
256,192,54045,1,8,0:0:0:0:
256,192,54221,1,8,0:0:0:0:
256,192,54396,1,8,0:0:0:0:
256,192,54484,1,8,0:0:0:0:
256,192,54572,1,8,0:0:0:0:
256,192,54747,1,8,0:0:0:0:
256,192,54922,1,8,0:0:0:0:
256,192,55010,1,8,0:0:0:0:
256,192,55098,1,8,0:0:0:0:
256,192,55273,1,8,0:0:0:0:
256,192,55449,1,8,0:0:0:0:
256,192,55624,1,8,0:0:0:0:
256,192,55800,1,0,0:0:0:0:
256,192,55887,1,0,0:0:0:0:
256,192,55975,1,0,0:0:0:0:
256,192,56062,1,0,0:0:0:0:
256,192,56150,1,8,0:0:0:0:
256,192,56237,1,8,0:0:0:0:
256,192,56326,1,8,0:0:0:0:
256,192,56413,1,8,0:0:0:0:
256,192,56501,1,0,0:0:0:0:
256,192,56588,1,0,0:0:0:0:
256,192,56677,1,8,0:0:0:0:
256,192,56764,1,8,0:0:0:0:
256,192,56852,1,8,0:0:0:0:
256,192,56939,1,8,0:0:0:0:
256,192,57028,1,0,0:0:0:0:
256,192,57115,1,0,0:0:0:0:
256,192,57203,1,0,0:0:0:0:
256,192,57290,1,0,0:0:0:0:
256,192,57379,1,8,0:0:0:0:
256,192,57466,1,8,0:0:0:0:
256,192,57554,1,0,0:0:0:0:
256,192,57641,1,0,0:0:0:0:
256,192,57729,1,8,0:0:0:0:
256,192,57816,1,8,0:0:0:0:
256,192,57905,1,0,0:0:0:0:
256,192,57992,1,0,0:0:0:0:
256,192,58080,1,0,0:0:0:0:
256,192,58167,1,0,0:0:0:0:
256,192,58256,1,8,0:0:0:0:
256,192,58343,1,8,0:0:0:0:
256,192,58431,1,8,0:0:0:0:
256,192,58518,1,8,0:0:0:0:
256,192,58607,1,0,0:0:0:0:
256,192,58694,1,0,0:0:0:0:
256,192,58782,1,8,0:0:0:0:
256,192,58869,1,8,0:0:0:0:
256,192,58957,1,8,0:0:0:0:
256,192,59044,1,8,0:0:0:0:
256,192,59133,1,8,0:0:0:0:
256,192,59220,1,8,0:0:0:0:
256,192,59308,1,0,0:0:0:0:
256,192,59395,1,0,0:0:0:0:
256,192,59484,1,8,0:0:0:0:
256,192,59571,1,8,0:0:0:0:
256,192,59659,1,8,0:0:0:0:
256,192,59746,1,8,0:0:0:0:
256,192,59835,1,8,0:0:0:0:
256,192,59922,1,8,0:0:0:0:
256,192,60010,1,0,0:0:0:0:
256,192,60097,1,0,0:0:0:0:
256,192,60186,1,8,0:0:0:0:
256,192,60273,1,8,0:0:0:0:
256,192,60361,1,8,0:0:0:0:
256,192,60448,1,8,0:0:0:0:
256,192,60536,1,8,0:0:0:0:
256,192,60623,1,8,0:0:0:0:
256,192,60712,1,0,0:0:0:0:
256,192,60799,1,0,0:0:0:0:
256,192,60887,1,8,0:0:0:0:
256,192,60974,1,8,0:0:0:0:
256,192,61063,1,8,0:0:0:0:
256,192,61150,1,8,0:0:0:0:
256,192,61238,1,8,0:0:0:0:
256,192,61325,1,8,0:0:0:0:
256,192,61414,1,0,0:0:0:0:
256,192,61501,1,0,0:0:0:0:
256,192,61589,1,0,0:0:0:0:
256,192,61677,1,0,0:0:0:0:
256,192,61764,1,0,0:0:0:0:
256,192,61852,1,0,0:0:0:0:
256,192,61940,1,0,0:0:0:0:
256,192,62028,1,0,0:0:0:0:
256,192,62115,1,0,0:0:0:0:
256,192,62203,1,0,0:0:0:0:
256,192,62291,1,0,0:0:0:0:
256,192,62379,1,0,0:0:0:0:
256,192,62466,1,0,0:0:0:0:
256,192,62554,1,0,0:0:0:0:
256,192,62642,1,0,0:0:0:0:
256,192,62729,1,0,0:0:0:0:
256,192,62817,1,8,0:0:0:0:
256,192,62905,1,0,0:0:0:0:
256,192,62993,1,0,0:0:0:0:
256,192,63080,1,0,0:0:0:0:
256,192,63168,1,0,0:0:0:0:
256,192,63256,1,0,0:0:0:0:
256,192,63343,1,0,0:0:0:0:
256,192,63431,1,0,0:0:0:0:
256,192,63519,1,0,0:0:0:0:
256,192,63607,1,0,0:0:0:0:
256,192,63694,1,0,0:0:0:0:
256,192,63782,1,0,0:0:0:0:
256,192,63870,1,8,0:0:0:0:
256,192,63957,1,0,0:0:0:0:
256,192,64045,1,0,0:0:0:0:
256,192,64133,1,0,0:0:0:0:
256,192,64221,1,8,0:0:0:0:
256,192,64308,1,0,0:0:0:0:
256,192,64396,1,0,0:0:0:0:
256,192,64484,1,0,0:0:0:0:
256,192,64571,1,0,0:0:0:0:
256,192,64659,1,0,0:0:0:0:
256,192,64747,1,0,0:0:0:0:
256,192,64835,1,0,0:0:0:0:
256,192,64922,1,0,0:0:0:0:
256,192,65010,1,0,0:0:0:0:
256,192,65098,1,0,0:0:0:0:
256,192,65186,1,0,0:0:0:0:
256,192,65273,1,0,0:0:0:0:
256,192,65361,1,0,0:0:0:0:
256,192,65449,1,0,0:0:0:0:
256,192,65536,1,0,0:0:0:0:
256,192,65624,1,8,0:0:0:0:
256,192,65712,1,0,0:0:0:0:
256,192,65800,1,0,0:0:0:0:
256,192,65887,1,0,0:0:0:0:
256,192,65975,1,0,0:0:0:0:
256,192,66063,1,0,0:0:0:0:
256,192,66150,1,0,0:0:0:0:
256,192,66238,1,0,0:0:0:0:
256,192,66326,1,8,0:0:0:0:
256,192,66414,1,0,0:0:0:0:
256,192,66501,1,8,0:0:0:0:
256,192,66589,1,0,0:0:0:0:
256,192,66677,1,8,0:0:0:0:
256,192,66764,1,0,0:0:0:0:
256,192,66852,1,8,0:0:0:0:
256,192,66940,1,0,0:0:0:0:
256,192,67028,1,8,0:0:0:0:
256,192,67115,1,0,0:0:0:0:
256,192,67203,1,0,0:0:0:0:
256,192,67291,1,0,0:0:0:0:
256,192,67379,1,0,0:0:0:0:
256,192,67466,1,0,0:0:0:0:
256,192,67554,1,0,0:0:0:0:
256,192,67642,1,0,0:0:0:0:
256,192,67729,1,0,0:0:0:0:
256,192,67817,1,0,0:0:0:0:
256,192,67905,1,0,0:0:0:0:
256,192,67993,1,0,0:0:0:0:
256,192,68080,1,8,0:0:0:0:
256,192,68168,1,0,0:0:0:0:
256,192,68256,1,0,0:0:0:0:
256,192,68343,1,0,0:0:0:0:
256,192,68431,1,8,0:0:0:0:
256,192,68519,1,0,0:0:0:0:
256,192,68607,1,0,0:0:0:0:
256,192,68694,1,0,0:0:0:0:
256,192,68782,1,0,0:0:0:0:
256,192,68870,1,0,0:0:0:0:
256,192,68957,1,0,0:0:0:0:
256,192,69045,1,0,0:0:0:0:
256,192,69133,1,0,0:0:0:0:
256,192,69221,1,0,0:0:0:0:
256,192,69308,1,0,0:0:0:0:
256,192,69396,1,0,0:0:0:0:
256,192,69484,1,8,0:0:0:0:
256,192,69571,1,0,0:0:0:0:
256,192,69659,1,0,0:0:0:0:
256,192,69747,1,0,0:0:0:0:
256,192,69835,1,8,0:0:0:0:
256,192,69922,1,0,0:0:0:0:
256,192,70010,1,0,0:0:0:0:
256,192,70098,1,0,0:0:0:0:
256,192,70186,1,0,0:0:0:0:
256,192,70273,1,0,0:0:0:0:
256,192,70361,1,0,0:0:0:0:
256,192,70449,1,0,0:0:0:0:
256,192,70536,1,0,0:0:0:0:
256,192,70624,1,0,0:0:0:0:
256,192,70712,1,0,0:0:0:0:
256,192,70800,1,0,0:0:0:0:
256,192,70887,1,0,0:0:0:0:
256,192,70975,1,0,0:0:0:0:
256,192,71063,1,0,0:0:0:0:
256,192,71150,1,0,0:0:0:0:
256,192,71238,1,8,0:0:0:0:
256,192,71326,1,0,0:0:0:0:
256,192,71414,1,0,0:0:0:0:
256,192,71501,1,0,0:0:0:0:
256,192,71589,1,8,0:0:0:0:
256,192,71677,1,0,0:0:0:0:
256,192,71764,1,0,0:0:0:0:
256,192,71852,1,0,0:0:0:0:
256,192,71940,1,8,0:0:0:0:
256,192,72028,1,0,0:0:0:0:
256,192,72115,1,8,0:0:0:0:
256,192,72203,1,0,0:0:0:0:
256,192,72291,1,8,0:0:0:0:
256,192,72379,1,8,0:0:0:0:
256,192,72466,1,8,0:0:0:0:
256,192,72554,1,8,0:0:0:0:
256,192,72642,1,8,0:0:0:0:
256,192,75800,1,0,0:0:0:0:
256,192,76150,1,8,0:0:0:0:
256,192,76501,1,0,0:0:0:0:
271,218,76589,1,0,0:0:0:0:
271,218,76677,1,0,0:0:0:0:
271,218,76764,1,8,0:0:0:0:
271,218,76852,1,0,0:0:0:0:
271,218,76940,1,0,0:0:0:0:
271,218,77028,1,8,0:0:0:0:
271,218,77115,1,8,0:0:0:0:
271,218,77203,1,8,0:0:0:0:
271,218,77291,1,0,0:0:0:0:
271,218,77379,1,0,0:0:0:0:
271,218,77466,1,8,0:0:0:0:
271,218,77554,1,8,0:0:0:0:
271,218,77642,1,0,0:0:0:0:
271,218,77729,1,0,0:0:0:0:
271,218,77817,1,8,0:0:0:0:
271,218,77905,1,0,0:0:0:0:
271,218,77993,1,0,0:0:0:0:
271,218,78080,1,8,0:0:0:0:
271,218,78168,1,0,0:0:0:0:
256,192,78256,1,0,0:0:0:0:
256,192,78607,1,8,0:0:0:0:
256,192,79308,1,8,0:0:0:0:
256,192,79659,1,0,0:0:0:0:
256,192,80010,1,8,0:0:0:0:
256,192,80712,1,8,0:0:0:0:
256,192,81063,1,0,0:0:0:0:
256,192,81414,1,8,0:0:0:0:
256,192,82115,1,8,0:0:0:0:
256,192,82466,1,0,0:0:0:0:
256,192,83519,1,8,0:0:0:0:
256,192,83870,1,0,0:0:0:0:
256,192,84922,1,0,0:0:0:0:
256,192,85273,1,0,0:0:0:0:
256,192,86326,1,8,0:0:0:0:
256,192,86677,1,0,0:0:0:0:
256,192,88080,1,8,0:0:0:0:
256,192,88431,1,0,0:0:0:0:
256,192,88782,1,8,0:0:0:0:
256,192,89133,1,8,0:0:0:0:
256,192,89484,1,8,0:0:0:0:
256,192,89659,1,0,0:0:0:0:
256,192,89835,1,0,0:0:0:0:
256,192,90010,1,8,0:0:0:0:
256,192,90186,1,8,0:0:0:0:
256,192,90361,1,8,0:0:0:0:
256,192,90536,1,0,0:0:0:0:
256,192,90712,1,8,0:0:0:0:
256,192,90887,1,8,0:0:0:0:
256,192,91063,1,0,0:0:0:0:
256,192,91238,1,8,0:0:0:0:
256,192,91414,1,8,0:0:0:0:
256,192,91764,1,8,0:0:0:0:
256,192,91940,1,8,0:0:0:0:
256,192,92115,1,8,0:0:0:0:
256,192,92291,1,0,0:0:0:0:
256,192,92466,1,8,0:0:0:0:
256,192,92642,1,8,0:0:0:0:
256,192,92817,1,0,0:0:0:0:
256,192,93168,1,8,0:0:0:0:
256,192,93343,1,8,0:0:0:0:
256,192,93519,1,8,0:0:0:0:
256,192,93694,1,0,0:0:0:0:
256,192,93870,1,0,0:0:0:0:
256,192,94045,1,8,0:0:0:0:
256,192,94221,1,8,0:0:0:0:
256,192,94571,1,8,0:0:0:0:
256,192,94747,1,8,0:0:0:0:
256,192,94922,1,0,0:0:0:0:
256,192,95098,1,8,0:0:0:0:
256,192,95273,1,0,0:0:0:0:
256,192,95449,1,8,0:0:0:0:
256,192,95624,1,8,0:0:0:0:
256,192,95975,1,8,0:0:0:0:
256,192,96150,1,8,0:0:0:0:
256,192,96326,1,8,0:0:0:0:
256,192,96501,1,0,0:0:0:0:
256,192,96677,1,8,0:0:0:0:
256,192,96852,1,8,0:0:0:0:
256,192,97028,1,0,0:0:0:0:
256,192,97379,1,8,0:0:0:0:
256,192,97554,1,8,0:0:0:0:
256,192,97729,1,0,0:0:0:0:
256,192,97905,1,8,0:0:0:0:
256,192,98080,1,8,0:0:0:0:
256,192,98256,1,0,0:0:0:0:
256,192,98431,1,8,0:0:0:0:
256,192,98782,1,8,0:0:0:0:
256,192,98957,1,8,0:0:0:0:
256,192,99133,1,8,0:0:0:0:
256,192,99308,1,0,0:0:0:0:
256,192,99484,1,0,0:0:0:0:
256,192,99659,1,8,0:0:0:0:
256,192,99835,1,0,0:0:0:0:
256,192,100186,1,8,0:0:0:0:
256,192,100361,1,8,0:0:0:0:
256,192,100536,1,0,0:0:0:0:
256,192,100712,1,8,0:0:0:0:
256,192,101063,1,8,0:0:0:0:
256,192,101238,1,8,0:0:0:0:
256,192,101589,1,8,0:0:0:0:
256,192,101764,1,8,0:0:0:0:
256,192,101940,1,0,0:0:0:0:
256,192,102115,1,8,0:0:0:0:
256,192,102291,1,0,0:0:0:0:
256,192,102466,1,0,0:0:0:0:
256,192,102642,1,8,0:0:0:0:
256,192,102993,1,8,0:0:0:0:
256,192,103168,1,8,0:0:0:0:
256,192,103343,1,8,0:0:0:0:
256,192,103519,1,0,0:0:0:0:
256,192,103694,1,8,0:0:0:0:
256,192,103870,1,0,0:0:0:0:
256,192,104045,1,8,0:0:0:0:
256,192,104396,1,8,0:0:0:0:
256,192,104571,1,8,0:0:0:0:
256,192,104747,1,8,0:0:0:0:
256,192,104922,1,0,0:0:0:0:
256,192,105098,1,8,0:0:0:0:
256,192,105273,1,8,0:0:0:0:
256,192,105449,1,8,0:0:0:0:
256,192,105800,1,8,0:0:0:0:
256,192,105975,1,8,0:0:0:0:
256,192,106150,1,0,0:0:0:0:
256,192,106326,1,8,0:0:0:0:
256,192,106501,1,8,0:0:0:0:
256,192,106677,1,8,0:0:0:0:
256,192,106852,1,8,0:0:0:0:
256,192,107203,1,8,0:0:0:0:
256,192,107379,1,8,0:0:0:0:
256,192,107554,1,8,0:0:0:0:
256,192,107729,1,0,0:0:0:0:
256,192,107905,1,0,0:0:0:0:
256,192,108080,1,8,0:0:0:0:
256,192,108256,1,8,0:0:0:0:
256,192,108607,1,8,0:0:0:0:
256,192,108782,1,8,0:0:0:0:
256,192,108957,1,0,0:0:0:0:
256,192,109133,1,8,0:0:0:0:
256,192,109308,1,0,0:0:0:0:
256,192,109484,1,8,0:0:0:0:
256,192,109659,1,8,0:0:0:0:
256,192,110010,1,8,0:0:0:0:
256,192,110186,1,8,0:0:0:0:
256,192,110361,1,8,0:0:0:0:
256,192,110536,1,0,0:0:0:0:
256,192,110712,1,8,0:0:0:0:
256,192,110887,1,0,0:0:0:0:
256,192,111063,1,0,0:0:0:0:
256,192,111414,1,8,0:0:0:0:
256,192,111589,1,8,0:0:0:0:
256,192,111940,1,8,0:0:0:0:
256,192,112028,1,0,0:0:0:0:
256,192,112115,1,0,0:0:0:0:
256,192,112174,1,0,0:0:0:0:
256,192,112232,1,0,0:0:0:0:
256,192,112291,1,8,0:0:0:0:
256,192,112379,1,0,0:0:0:0:
256,192,112466,1,0,0:0:0:0:
256,192,112525,1,0,0:0:0:0:
256,192,112583,1,0,0:0:0:0:
256,192,112642,1,8,0:0:0:0:
256,192,112730,1,0,0:0:0:0:
256,192,112817,1,0,0:0:0:0:
256,192,112876,1,0,0:0:0:0:
256,192,112934,1,0,0:0:0:0:
256,192,112993,1,8,0:0:0:0:
256,192,113081,1,0,0:0:0:0:
256,192,113168,1,0,0:0:0:0:
256,192,113227,1,0,0:0:0:0:
256,192,113285,1,0,0:0:0:0:
256,192,113343,1,8,0:0:0:0:
256,192,113431,1,0,0:0:0:0:
256,192,113518,1,0,0:0:0:0:
256,192,113577,1,0,0:0:0:0:
256,192,113635,1,0,0:0:0:0:
256,192,113694,1,8,0:0:0:0:
256,192,113782,1,0,0:0:0:0:
256,192,113869,1,0,0:0:0:0:
256,192,113928,1,0,0:0:0:0:
256,192,113986,1,0,0:0:0:0:
256,192,114045,1,8,0:0:0:0:
256,192,114133,1,0,0:0:0:0:
256,192,114220,1,0,0:0:0:0:
256,192,114279,1,0,0:0:0:0:
256,192,114337,1,0,0:0:0:0:
256,192,114396,1,8,0:0:0:0:
256,192,114484,1,0,0:0:0:0:
256,192,114571,1,0,0:0:0:0:
256,192,114630,1,0,0:0:0:0:
256,192,114688,1,0,0:0:0:0:
256,192,114747,1,8,0:0:0:0:
256,192,114835,1,0,0:0:0:0:
256,192,114922,1,0,0:0:0:0:
256,192,114981,1,0,0:0:0:0:
256,192,115039,1,0,0:0:0:0:
256,192,115098,1,8,0:0:0:0:
256,192,115186,1,0,0:0:0:0:
256,192,115273,1,0,0:0:0:0:
256,192,115332,1,0,0:0:0:0:
256,192,115390,1,0,0:0:0:0:
256,192,115449,1,8,0:0:0:0:
256,192,115537,1,0,0:0:0:0:
256,192,115624,1,0,0:0:0:0:
256,192,115683,1,0,0:0:0:0:
256,192,115741,1,0,0:0:0:0:
256,192,115800,1,8,0:0:0:0:
256,192,115888,1,0,0:0:0:0:
256,192,115975,1,0,0:0:0:0:
256,192,116034,1,0,0:0:0:0:
256,192,116092,1,0,0:0:0:0:
256,192,116150,1,8,0:0:0:0:
256,192,116238,1,0,0:0:0:0:
256,192,116325,1,0,0:0:0:0:
256,192,116384,1,0,0:0:0:0:
256,192,116442,1,0,0:0:0:0:
256,192,116501,1,8,0:0:0:0:
256,192,116589,1,0,0:0:0:0:
256,192,116676,1,0,0:0:0:0:
256,192,116735,1,0,0:0:0:0:
256,192,116793,1,0,0:0:0:0:
256,192,116852,1,8,0:0:0:0:
256,192,116940,1,0,0:0:0:0:
256,192,117027,1,0,0:0:0:0:
256,192,117086,1,0,0:0:0:0:
256,192,117144,1,0,0:0:0:0:
256,192,117203,1,8,0:0:0:0:
256,192,117291,1,0,0:0:0:0:
256,192,117378,1,0,0:0:0:0:
256,192,117437,1,0,0:0:0:0:
256,192,117495,1,0,0:0:0:0:
278,258,117553,1,8,0:0:0:0:
274,247,117613,1,0,0:0:0:0:
268,230,117671,1,0,0:0:0:0:
268,230,117729,1,8,0:0:0:0:
268,230,117788,1,0,0:0:0:0:
268,230,117847,1,0,0:0:0:0:
268,230,117905,1,8,0:0:0:0:
268,230,117964,1,0,0:0:0:0:
268,230,118022,1,0,0:0:0:0:
268,230,118081,1,8,0:0:0:0:
268,230,118139,1,0,0:0:0:0:
268,230,118198,1,0,0:0:0:0:
268,230,118256,1,8,0:0:0:0:
268,230,118315,1,0,0:0:0:0:
268,230,118373,1,0,0:0:0:0:
268,230,118432,1,8,0:0:0:0:
268,230,118490,1,0,0:0:0:0:
268,230,118549,1,0,0:0:0:0:
268,230,118607,1,8,0:0:0:0:
268,230,118666,1,0,0:0:0:0:
268,230,118724,1,0,0:0:0:0:
268,230,118783,1,8,0:0:0:0:
268,230,118841,1,0,0:0:0:0:
268,230,118899,1,0,0:0:0:0:
268,230,118957,1,8,0:0:0:0:
268,230,119016,1,0,0:0:0:0:
268,230,119074,1,0,0:0:0:0:
268,230,119133,1,8,0:0:0:0:
268,230,119192,1,0,0:0:0:0:
268,230,119250,1,0,0:0:0:0:
268,230,119308,1,8,0:0:0:0:
268,230,119367,1,0,0:0:0:0:
268,230,119425,1,0,0:0:0:0:
268,230,119483,1,8,0:0:0:0:
268,230,119542,1,0,0:0:0:0:
268,230,119600,1,0,0:0:0:0:
268,230,119659,1,8,0:0:0:0:
268,230,119717,1,0,0:0:0:0:
268,230,119776,1,0,0:0:0:0:
268,230,119834,1,8,0:0:0:0:
268,230,119893,1,0,0:0:0:0:
268,230,119951,1,0,0:0:0:0:
268,230,120010,1,8,0:0:0:0:
268,230,120068,1,0,0:0:0:0:
268,230,120127,1,0,0:0:0:0:
268,230,120185,1,8,0:0:0:0:
268,230,120244,1,8,0:0:0:0:
268,230,120302,1,0,0:0:0:0:
268,230,120361,1,8,0:0:0:0:
268,230,120419,1,8,0:0:0:0:
268,230,120478,1,0,0:0:0:0:
268,230,120537,1,8,0:0:0:0:
268,230,120595,1,8,0:0:0:0:
268,230,120653,1,0,0:0:0:0:
268,230,120712,1,8,0:0:0:0:
268,230,120770,1,8,0:0:0:0:
268,230,120829,1,0,0:0:0:0:
268,230,120888,1,8,0:0:0:0:
268,230,120946,1,8,0:0:0:0:
268,230,121004,1,0,0:0:0:0:
268,230,121063,1,8,0:0:0:0:
268,230,121121,1,8,0:0:0:0:
268,230,121180,1,0,0:0:0:0:
268,230,121239,1,8,0:0:0:0:
268,230,121297,1,8,0:0:0:0:
268,230,121355,1,0,0:0:0:0:
268,230,121414,1,8,0:0:0:0:
268,230,121472,1,8,0:0:0:0:
268,230,121531,1,0,0:0:0:0:
268,230,121590,1,8,0:0:0:0:
268,230,121648,1,8,0:0:0:0:
268,230,121706,1,0,0:0:0:0:
0,32,121764,2,0,L|32:32,23,26.6666666666667
9,38,123168,1,0,0:0:0:0:
256,192,123343,1,0,0:0:0:0:
96,96,123518,1,0,0:0:0:0:
160,128,123694,1,8,0:0:0:0:
288,224,124045,1,8,0:0:0:0:
256,192,124221,1,8,0:0:0:0:
256,192,124396,1,0,0:0:0:0:
256,192,124571,1,8,0:0:0:0:
256,192,124746,1,0,0:0:0:0:
256,192,124922,1,8,0:0:0:0:
256,192,125097,1,8,0:0:0:0:
256,192,125449,1,8,0:0:0:0:
256,192,125624,1,8,0:0:0:0:
256,192,125800,1,8,0:0:0:0:
256,192,125975,1,0,0:0:0:0:
256,192,126150,1,8,0:0:0:0:
256,192,126326,1,8,0:0:0:0:
256,192,126501,1,8,0:0:0:0:
256,192,126852,1,8,0:0:0:0:
256,192,127028,1,8,0:0:0:0:
256,192,127203,1,8,0:0:0:0:
256,192,127379,1,0,0:0:0:0:
256,192,127554,1,8,0:0:0:0:
256,192,127730,1,8,0:0:0:0:
256,192,127905,1,8,0:0:0:0:
256,192,128256,1,8,0:0:0:0:
256,192,128431,1,8,0:0:0:0:
256,192,128607,1,0,0:0:0:0:
256,192,128782,1,8,0:0:0:0:
256,192,128957,1,0,0:0:0:0:
256,192,129133,1,8,0:0:0:0:
256,192,129308,1,8,0:0:0:0:
256,192,129659,1,8,0:0:0:0:
256,192,129835,1,8,0:0:0:0:
256,192,130010,1,8,0:0:0:0:
256,192,130186,1,0,0:0:0:0:
256,192,130361,1,8,0:0:0:0:
256,192,130536,1,8,0:0:0:0:
256,192,130712,1,8,0:0:0:0:
256,192,131063,1,8,0:0:0:0:
256,192,131238,1,8,0:0:0:0:
256,192,131414,1,0,0:0:0:0:
256,192,131589,1,8,0:0:0:0:
256,192,131764,1,0,0:0:0:0:
256,192,131940,1,8,0:0:0:0:
256,192,132115,1,8,0:0:0:0:
256,192,132466,1,8,0:0:0:0:
256,192,132642,1,8,0:0:0:0:
256,192,132817,1,8,0:0:0:0:
256,192,132993,1,0,0:0:0:0:
256,192,133168,1,8,0:0:0:0:
256,192,133343,1,0,0:0:0:0:
256,192,133519,1,0,0:0:0:0:
256,192,133870,1,0,0:0:0:0:
256,192,134045,1,0,0:0:0:0:
256,192,134396,1,8,0:0:0:0:
256,192,134571,1,0,0:0:0:0:
256,192,134659,1,0,0:0:0:0:
256,192,134747,1,0,0:0:0:0:
256,192,134922,1,0,0:0:0:0:
256,192,135010,1,0,0:0:0:0:
256,192,135098,1,0,0:0:0:0:
256,192,135273,1,0,0:0:0:0:
256,192,135361,1,0,0:0:0:0:
256,192,135449,1,0,0:0:0:0:
256,192,135624,1,0,0:0:0:0:
256,192,135712,1,0,0:0:0:0:
256,192,135800,1,8,0:0:0:0:
256,192,135975,1,0,0:0:0:0:
256,192,136063,1,0,0:0:0:0:
256,192,136150,1,0,0:0:0:0:
256,192,136326,1,0,0:0:0:0:
256,192,136414,1,0,0:0:0:0:
256,192,136501,1,0,0:0:0:0:
256,192,136677,1,0,0:0:0:0:
256,192,136764,1,0,0:0:0:0:
256,192,136852,1,8,0:0:0:0:
256,192,137028,1,0,0:0:0:0:
256,192,137115,1,0,0:0:0:0:
256,192,137203,1,8,0:0:0:0:
256,192,137379,1,0,0:0:0:0:
256,192,137466,1,0,0:0:0:0:
256,192,137554,1,0,0:0:0:0:
256,192,137729,1,0,0:0:0:0:
256,192,137817,1,0,0:0:0:0:
256,192,137905,1,0,0:0:0:0:
256,192,138080,1,0,0:0:0:0:
256,192,138168,1,0,0:0:0:0:
256,192,138256,1,0,0:0:0:0:
256,192,138431,1,0,0:0:0:0:
256,192,138519,1,0,0:0:0:0:
256,192,138607,1,8,0:0:0:0:
256,192,138782,1,8,0:0:0:0:
256,192,138870,1,8,0:0:0:0:
256,192,138957,1,0,0:0:0:0:
256,192,139133,1,8,0:0:0:0:
256,192,139221,1,8,0:0:0:0:
256,192,139308,1,0,0:0:0:0:
256,192,139484,1,0,0:0:0:0:
256,192,139571,1,0,0:0:0:0:
256,192,139659,1,8,0:0:0:0:
256,192,139835,1,8,0:0:0:0:
256,192,139922,1,8,0:0:0:0:
256,192,140010,1,0,0:0:0:0:
256,192,140186,1,8,0:0:0:0:
256,192,140273,1,0,0:0:0:0:
256,192,140361,1,0,0:0:0:0:
256,192,140536,1,8,0:0:0:0:
256,192,140624,1,0,0:0:0:0:
256,192,140712,1,0,0:0:0:0:
256,192,140887,1,0,0:0:0:0:
256,192,140975,1,0,0:0:0:0:
256,192,141063,1,8,0:0:0:0:
256,192,141238,1,8,0:0:0:0:
256,192,141326,1,8,0:0:0:0:
256,192,141414,1,0,0:0:0:0:
256,192,141589,1,8,0:0:0:0:
256,192,141677,1,0,0:0:0:0:
256,192,141764,1,0,0:0:0:0:
256,192,141940,1,8,0:0:0:0:
256,192,142028,1,0,0:0:0:0:
256,192,142115,1,0,0:0:0:0:
256,192,142291,1,8,0:0:0:0:
256,192,142379,1,0,0:0:0:0:
256,192,142466,1,0,0:0:0:0:
256,192,142642,1,0,0:0:0:0:
256,192,142729,1,8,0:0:0:0:
256,192,142817,1,0,0:0:0:0:
256,192,142993,1,0,0:0:0:0:
256,192,143080,1,0,0:0:0:0:
256,192,143168,1,0,0:0:0:0:
256,192,143343,1,0,0:0:0:0:
256,192,143431,1,0,0:0:0:0:
256,192,143519,1,0,0:0:0:0:
256,192,143694,1,8,0:0:0:0:
256,192,143782,1,0,0:0:0:0:
256,192,143870,1,0,0:0:0:0:
256,192,144045,1,0,0:0:0:0:
256,192,144133,1,8,0:0:0:0:
256,192,144221,1,0,0:0:0:0:
256,192,144396,1,0,0:0:0:0:
256,192,144484,1,0,0:0:0:0:
256,192,144571,1,8,0:0:0:0:
256,192,144747,1,0,0:0:0:0:
256,192,144835,1,0,0:0:0:0:
256,192,144922,1,8,0:0:0:0:
256,192,145098,1,0,0:0:0:0:
256,192,145186,1,0,0:0:0:0:
256,192,145273,1,8,0:0:0:0:
256,192,145361,1,0,0:0:0:0:
256,192,145449,1,0,0:0:0:0:
256,192,145624,1,4,0:0:0:0:
256,192,145800,1,4,0:0:0:0:
256,192,145975,1,4,0:0:0:0:
256,192,146326,1,8,0:0:0:0:
256,192,146414,1,8,0:0:0:0:
256,192,146501,1,0,0:0:0:0:
256,192,146589,1,0,0:0:0:0:
256,192,146677,1,8,0:0:0:0:
256,192,146764,1,0,0:0:0:0:
256,192,146852,1,0,0:0:0:0:
256,192,147028,1,4,0:0:0:0:
256,192,147203,1,4,0:0:0:0:
256,192,147379,1,4,0:0:0:0:
256,192,147729,1,8,0:0:0:0:
256,192,147817,1,8,0:0:0:0:
256,192,147905,1,8,0:0:0:0:
256,192,147993,1,0,0:0:0:0:
256,192,148080,1,8,0:0:0:0:
256,192,148168,1,0,0:0:0:0:
256,192,148256,1,0,0:0:0:0:
256,192,148343,1,0,0:0:0:0:
256,192,148431,1,4,0:0:0:0:
256,192,148607,1,4,0:0:0:0:
256,192,148782,1,4,0:0:0:0:
256,192,149133,1,8,0:0:0:0:
256,192,149221,1,8,0:0:0:0:
256,192,149308,1,8,0:0:0:0:
256,192,149396,1,8,0:0:0:0:
256,192,149484,1,8,0:0:0:0:
256,192,149571,1,0,0:0:0:0:
256,192,149659,1,0,0:0:0:0:
256,192,149747,1,0,0:0:0:0:
256,192,149835,1,4,0:0:0:0:
256,192,150010,1,4,0:0:0:0:
256,192,150186,1,4,0:0:0:0:
256,192,150536,1,8,0:0:0:0:
256,192,150624,1,0,0:0:0:0:
256,192,150712,1,0,0:0:0:0:
256,192,150800,1,0,0:0:0:0:
256,192,150887,1,8,0:0:0:0:
256,192,150975,1,0,0:0:0:0:
256,192,151063,1,0,0:0:0:0:
256,192,151238,1,0,0:0:0:0:
256,192,151326,1,0,0:0:0:0:
256,192,151414,1,0,0:0:0:0:
256,192,151501,1,0,0:0:0:0:
256,192,151589,1,8,0:0:0:0:
256,192,151677,1,8,0:0:0:0:
256,192,151764,1,8,0:0:0:0:
256,192,151852,1,8,0:0:0:0:
256,192,151940,1,0,0:0:0:0:
256,192,152028,1,0,0:0:0:0:
256,192,152115,1,0,0:0:0:0:
256,192,152203,1,0,0:0:0:0:
256,192,152291,1,8,0:0:0:0:
256,192,152379,1,8,0:0:0:0:
256,192,152466,1,8,0:0:0:0:
256,192,152642,1,0,0:0:0:0:
256,192,152700,1,0,0:0:0:0:
256,192,152759,1,0,0:0:0:0:
256,192,152817,1,8,0:0:0:0:
256,192,152905,1,8,0:0:0:0:
256,192,152993,1,0,0:0:0:0:
256,192,153051,1,0,0:0:0:0:
256,192,153110,1,0,0:0:0:0:
256,192,153168,1,8,0:0:0:0:
256,192,153256,1,8,0:0:0:0:
256,192,153343,1,12,0:0:0:0:
256,192,153431,1,12,0:0:0:0:
256,192,153519,1,12,0:0:0:0:
256,192,153607,1,12,0:0:0:0:
256,192,153694,1,12,0:0:0:0:
256,192,153782,1,12,0:0:0:0:
256,192,153870,1,12,0:0:0:0:
256,192,154045,1,0,0:0:0:0:
256,192,154133,1,0,0:0:0:0:
256,192,154221,1,0,0:0:0:0:
256,192,154308,1,0,0:0:0:0:
256,192,154396,1,8,0:0:0:0:
256,192,154484,1,8,0:0:0:0:
256,192,154571,1,8,0:0:0:0:
256,192,154659,1,8,0:0:0:0:
256,192,154747,1,0,0:0:0:0:
256,192,154835,1,0,0:0:0:0:
256,192,154922,1,8,0:0:0:0:
256,192,155010,1,8,0:0:0:0:
256,192,155098,1,0,0:0:0:0:
256,192,155186,1,0,0:0:0:0:
256,192,155273,1,8,0:0:0:0:
256,192,155449,1,0,0:0:0:0:
256,192,155800,1,8,0:0:0:0:
256,192,156150,1,0,0:0:0:0:
256,192,156501,1,8,0:0:0:0:
256,192,156852,1,0,0:0:0:0:
256,192,156940,1,0,0:0:0:0:
256,192,157028,1,0,0:0:0:0:
256,192,157115,1,0,0:0:0:0:
256,192,157203,1,8,0:0:0:0:
256,192,157291,1,8,0:0:0:0:
256,192,157379,1,8,0:0:0:0:
256,192,157466,1,8,0:0:0:0:
256,192,157554,1,0,0:0:0:0:
256,192,157642,1,0,0:0:0:0:
256,192,157729,1,0,0:0:0:0:
256,192,157817,1,0,0:0:0:0:
256,192,157905,1,8,0:0:0:0:
256,192,157993,1,8,0:0:0:0:
256,192,158080,1,8,0:0:0:0:
256,192,158256,1,0,0:0:0:0:
256,192,158343,1,0,0:0:0:0:
256,192,158431,1,8,0:0:0:0:
256,192,158519,1,8,0:0:0:0:
256,192,158607,1,0,0:0:0:0:
256,192,158694,1,0,0:0:0:0:
256,192,158782,1,8,0:0:0:0:
256,192,158870,1,8,0:0:0:0:
256,192,158957,1,0,0:0:0:0:
256,192,159045,1,0,0:0:0:0:
256,192,159133,1,0,0:0:0:0:
256,192,159221,1,0,0:0:0:0:
256,192,159308,1,8,0:0:0:0:
256,192,159484,1,8,0:0:0:0:
256,192,159659,1,0,0:0:0:0:
256,192,159747,1,0,0:0:0:0:
256,192,159835,1,0,0:0:0:0:
256,192,159922,1,0,0:0:0:0:
256,192,160010,1,8,0:0:0:0:
256,192,160186,1,8,0:0:0:0:
256,192,160361,1,0,0:0:0:0:
256,192,160536,1,0,0:0:0:0:
256,192,160624,1,0,0:0:0:0:
256,192,160712,1,8,0:0:0:0:
256,192,160887,1,8,0:0:0:0:
256,192,161063,1,0,0:0:0:0:
256,192,161238,1,8,0:0:0:0:
256,192,161414,1,0,0:0:0:0:
256,192,161589,1,8,0:0:0:0:
256,192,161764,1,0,0:0:0:0:
256,192,161852,1,0,0:0:0:0:
256,192,161940,1,0,0:0:0:0:
256,192,162028,1,0,0:0:0:0:
256,192,162115,1,8,0:0:0:0:
256,192,162203,1,8,0:0:0:0:
256,192,162291,1,8,0:0:0:0:
256,192,162466,1,8,0:0:0:0:
256,192,162554,1,8,0:0:0:0:
256,192,162642,1,8,0:0:0:0:
256,192,162729,1,8,0:0:0:0:
256,192,162817,1,8,0:0:0:0:
256,192,162905,1,8,0:0:0:0:
256,192,162993,1,8,0:0:0:0:
256,192,163080,1,8,0:0:0:0:
256,192,163168,1,8,0:0:0:0:
256,192,163255,1,8,0:0:0:0:
256,192,163343,1,0,0:0:0:0:
256,192,163431,1,0,0:0:0:0:
256,192,163519,1,8,0:0:0:0:
256,192,163606,1,0,0:0:0:0:
256,192,163694,1,0,0:0:0:0:
256,192,163782,1,0,0:0:0:0:
256,192,163870,1,0,0:0:0:0:
256,192,163957,1,0,0:0:0:0:
256,192,164045,1,0,0:0:0:0:
256,192,164133,1,0,0:0:0:0:
256,192,164221,1,0,0:0:0:0:
256,192,164308,1,0,0:0:0:0:
256,192,164571,1,0,0:0:0:0:
256,192,164630,1,0,0:0:0:0:
256,192,164688,1,0,0:0:0:0:
256,192,164747,1,8,0:0:0:0:
256,192,164835,1,0,0:0:0:0:
256,192,164922,1,0,0:0:0:0:
256,192,164981,1,0,0:0:0:0:
256,192,165039,1,0,0:0:0:0:
256,192,165098,1,8,0:0:0:0:
256,192,165273,1,8,0:0:0:0:
256,192,165361,1,8,0:0:0:0:
256,192,165449,1,0,0:0:0:0:
256,192,165536,1,0,0:0:0:0:
256,192,165624,1,8,0:0:0:0:
256,192,165712,1,8,0:0:0:0:
256,192,165800,1,0,0:0:0:0:
256,192,165887,1,0,0:0:0:0:
256,192,165975,1,8,0:0:0:0:
256,192,166063,1,0,0:0:0:0:
288,192,166150,1,0,0:0:0:0:
256,192,166238,1,8,0:0:0:0:
256,192,166326,1,8,0:0:0:0:
256,192,166414,1,0,0:0:0:0:
256,192,166501,1,0,0:0:0:0:
256,192,166677,1,8,0:0:0:0:
256,192,166852,1,8,0:0:0:0:
256,192,167028,1,0,0:0:0:0:
256,192,167203,1,0,0:0:0:0:
256,192,167379,1,8,0:0:0:0:
256,192,167554,1,0,0:0:0:0:
256,192,167729,1,8,0:0:0:0:
256,192,167817,1,0,0:0:0:0:
256,192,167905,1,8,0:0:0:0:
256,192,167993,1,0,0:0:0:0:
256,192,168080,1,0,0:0:0:0:
256,192,168256,1,0,0:0:0:0:
256,192,168431,1,0,0:0:0:0:
256,192,168607,1,0,0:0:0:0:
256,192,168782,1,0,0:0:0:0:
256,192,168957,1,0,0:0:0:0:
256,192,169133,1,0,0:0:0:0:
256,192,169308,1,0,0:0:0:0:
256,192,169484,1,0,0:0:0:0:
256,192,169659,1,0,0:0:0:0:
256,192,169835,1,0,0:0:0:0:
256,192,170010,1,0,0:0:0:0:
256,192,170186,1,0,0:0:0:0:
256,192,170361,1,0,0:0:0:0:
256,192,170536,1,0,0:0:0:0:
256,192,170712,1,0,0:0:0:0:
256,192,170887,1,0,0:0:0:0:
256,192,171238,1,0,0:0:0:0:
256,192,171589,1,0,0:0:0:0:
256,192,171940,1,0,0:0:0:0:
256,192,172291,1,8,0:0:0:0:
256,192,172466,1,8,0:0:0:0:
256,192,172642,1,0,0:0:0:0:
256,192,172817,1,8,0:0:0:0:
256,192,172993,1,8,0:0:0:0:
256,192,173168,1,0,0:0:0:0:
256,192,173343,1,8,0:0:0:0:
256,192,173519,1,8,0:0:0:0:
256,192,173694,1,8,0:0:0:0:
256,192,173870,1,0,0:0:0:0:
256,192,174221,1,0,0:0:0:0:
256,192,174571,1,0,0:0:0:0:
256,192,174747,1,8,0:0:0:0:
256,192,174922,1,8,0:0:0:0:
256,192,175098,1,0,0:0:0:0:
256,192,175273,1,8,0:0:0:0:
256,192,175624,1,8,0:0:0:0:
256,192,175975,1,8,0:0:0:0:
256,192,176326,1,0,0:0:0:0:
256,192,176501,1,8,0:0:0:0:
256,192,176677,1,8,0:0:0:0:
256,192,177028,1,8,0:0:0:0:
256,192,177379,1,8,0:0:0:0:
256,192,177554,1,0,0:0:0:0:
256,192,177729,1,0,0:0:0:0:
256,192,177905,1,8,0:0:0:0:
256,192,178080,1,8,0:0:0:0:
256,192,178256,1,0,0:0:0:0:
256,192,178431,1,8,0:0:0:0:
256,192,178607,1,0,0:0:0:0:
256,192,178782,1,8,0:0:0:0:
256,192,178957,1,8,0:0:0:0:
256,192,179133,1,8,0:0:0:0:
256,192,179308,1,8,0:0:0:0:
256,192,179352,1,0,0:0:0:0:
256,192,179484,1,8,0:0:0:0:
256,192,179528,1,0,0:0:0:0:
256,192,179659,1,0,0:0:0:0:
256,192,179747,1,0,0:0:0:0:
256,192,179835,1,0,0:0:0:0:
256,192,179922,1,0,0:0:0:0:
256,192,180010,1,8,0:0:0:0:
256,192,180054,1,0,0:0:0:0:
256,192,180186,1,8,0:0:0:0:
256,192,180229,1,0,0:0:0:0:
256,192,180361,1,0,0:0:0:0:
256,192,180449,1,0,0:0:0:0:
256,192,180536,1,0,0:0:0:0:
256,192,180624,1,0,0:0:0:0:
256,192,180712,1,8,0:0:0:0:
256,192,180756,1,0,0:0:0:0:
256,192,180887,1,8,0:0:0:0:
256,192,180931,1,0,0:0:0:0:
256,192,181063,1,0,0:0:0:0:
256,192,181150,1,0,0:0:0:0:
256,192,181238,1,0,0:0:0:0:
256,192,181326,1,0,0:0:0:0:
256,192,181414,1,8,0:0:0:0:
256,192,181457,1,0,0:0:0:0:
256,192,181545,1,0,0:0:0:0:
256,192,181589,1,8,0:0:0:0:
256,192,181764,1,0,0:0:0:0:
256,192,181852,1,0,0:0:0:0:
256,192,181940,1,0,0:0:0:0:
256,192,182028,1,0,0:0:0:0:
256,192,182115,1,8,0:0:0:0:
256,192,182159,1,8,0:0:0:0:
256,192,182291,1,8,0:0:0:0:
256,192,182335,1,8,0:0:0:0:
256,192,182466,1,0,0:0:0:0:
256,192,182554,1,0,0:0:0:0:
256,192,182642,1,0,0:0:0:0:
256,192,182729,1,0,0:0:0:0:
256,192,182817,1,8,0:0:0:0:
256,192,182861,1,8,0:0:0:0:
256,192,182949,1,0,0:0:0:0:
256,192,182993,1,0,0:0:0:0:
256,192,183168,1,0,0:0:0:0:
256,192,183256,1,0,0:0:0:0:
256,192,183343,1,0,0:0:0:0:
256,192,183431,1,0,0:0:0:0:
256,192,183519,1,8,0:0:0:0:
256,192,183563,1,0,0:0:0:0:
256,192,183650,1,0,0:0:0:0:
256,192,183694,1,8,0:0:0:0:
256,192,183870,1,0,0:0:0:0:
256,192,183957,1,8,0:0:0:0:
256,192,184045,1,0,0:0:0:0:
256,192,184133,1,0,0:0:0:0:
256,192,184221,1,8,0:0:0:0:
256,192,184396,1,8,0:0:0:0:
256,192,184484,1,8,0:0:0:0:
256,192,184571,1,0,0:0:0:0:
256,192,184659,1,0,0:0:0:0:
256,192,184703,1,0,0:0:0:0:
256,192,184747,1,8,0:0:0:0:
256,192,184835,1,0,0:0:0:0:
256,192,184922,1,8,0:0:0:0:
256,192,184966,1,0,0:0:0:0:
256,192,185054,1,0,0:0:0:0:
256,192,185098,1,8,0:0:0:0:
256,192,185273,1,8,0:0:0:0:
256,192,185361,1,0,0:0:0:0:
256,192,185449,1,0,0:0:0:0:
256,192,185536,1,0,0:0:0:0:
256,192,185624,1,8,0:0:0:0:
256,192,185800,1,8,0:0:0:0:
256,192,185975,1,0,0:0:0:0:
256,192,186063,1,8,0:0:0:0:
256,192,186150,1,0,0:0:0:0:
256,192,186238,1,0,0:0:0:0:
256,192,186326,1,8,0:0:0:0:
256,192,186501,1,8,0:0:0:0:
256,192,186677,1,0,0:0:0:0:
256,192,186764,1,0,0:0:0:0:
256,192,186852,1,8,0:0:0:0:
256,192,186940,1,0,0:0:0:0:
256,192,187028,1,8,0:0:0:0:
256,192,187203,1,8,0:0:0:0:
256,192,187379,1,0,0:0:0:0:
256,192,187466,1,0,0:0:0:0:
256,192,187554,1,0,0:0:0:0:
256,192,187642,1,8,0:0:0:0:
256,192,187729,1,8,0:0:0:0:
256,192,187905,1,8,0:0:0:0:
256,192,188080,1,0,0:0:0:0:
256,192,188168,1,0,0:0:0:0:
256,192,188256,1,8,0:0:0:0:
256,192,188343,1,0,0:0:0:0:
256,192,188431,1,8,0:0:0:0:
256,192,188607,1,8,0:0:0:0:
256,192,188782,1,0,0:0:0:0:
256,192,188870,1,8,0:0:0:0:
256,192,188957,1,0,0:0:0:0:
256,192,189045,1,0,0:0:0:0:
256,192,189133,1,8,0:0:0:0:
256,192,189308,1,8,0:0:0:0:
256,192,189484,1,8,0:0:0:0:
256,192,189571,1,8,0:0:0:0:
256,192,189659,1,8,0:0:0:0:
256,192,189747,1,8,0:0:0:0:
256,192,189835,1,0,0:0:0:0:
256,192,190010,1,0,0:0:0:0:
256,192,190186,1,8,0:0:0:0:
256,192,190273,1,8,0:0:0:0:
256,192,190361,1,8,0:0:0:0:
256,192,190449,1,8,0:0:0:0:
256,192,190536,1,0,0:0:0:0:
256,192,190712,1,0,0:0:0:0:
256,192,190887,1,8,0:0:0:0:
256,192,191063,1,0,0:0:0:0:
256,192,191238,1,8,0:0:0:0:
256,192,191414,1,8,0:0:0:0:
256,192,191589,1,0,0:0:0:0:
256,192,191764,1,8,0:0:0:0:
256,192,191940,1,0,0:0:0:0:
256,192,192115,1,0,0:0:0:0:
256,192,192291,1,0,0:0:0:0:
256,192,192466,1,0,0:0:0:0:
256,192,192642,1,8,0:0:0:0:
256,192,192729,1,8,0:0:0:0:
256,192,192817,1,0,0:0:0:0:
256,192,192905,1,0,0:0:0:0:
256,192,192993,1,8,0:0:0:0:
256,192,193080,1,8,0:0:0:0:
256,192,193168,1,0,0:0:0:0:
256,192,193256,1,0,0:0:0:0:
256,192,193343,1,8,0:0:0:0:
256,192,193519,1,8,0:0:0:0:
256,192,193694,1,0,0:0:0:0:
256,192,193870,1,8,0:0:0:0:
256,192,194045,1,8,0:0:0:0:
256,192,194133,1,0,0:0:0:0:
256,192,194221,1,0,0:0:0:0:
256,192,194308,1,0,0:0:0:0:
256,192,194396,1,0,0:0:0:0:
256,192,194571,1,0,0:0:0:0:
256,192,194747,1,0,0:0:0:0:
256,192,194835,1,0,0:0:0:0:
256,192,194922,1,0,0:0:0:0:
256,192,195010,1,0,0:0:0:0:
256,192,195098,1,8,0:0:0:0:
256,192,195186,1,8,0:0:0:0:
256,192,195273,1,8,0:0:0:0:
256,192,195361,1,8,0:0:0:0:
256,192,195449,1,0,0:0:0:0:
256,192,195536,1,0,0:0:0:0:
256,192,195624,1,0,0:0:0:0:
256,192,195712,1,0,0:0:0:0:
256,192,195800,1,8,0:0:0:0:
256,192,195887,1,8,0:0:0:0:
256,192,195975,1,8,0:0:0:0:
256,192,196150,1,0,0:0:0:0:
256,192,196238,1,0,0:0:0:0:
256,192,196326,1,0,0:0:0:0:
256,192,196414,1,0,0:0:0:0:
256,192,196501,1,0,0:0:0:0:
256,192,196589,1,0,0:0:0:0:
256,192,196677,1,0,0:0:0:0:
256,192,196764,1,0,0:0:0:0:
256,192,196852,1,8,0:0:0:0:
256,192,196911,1,8,0:0:0:0:
256,192,196969,1,8,0:0:0:0:
256,192,197028,1,8,0:0:0:0:
256,192,197086,1,8,0:0:0:0:
256,192,197145,1,8,0:0:0:0:
256,192,197203,1,0,0:0:0:0:
256,192,197291,1,0,0:0:0:0:
256,192,197379,1,0,0:0:0:0:
256,192,197466,1,0,0:0:0:0:
256,192,197554,1,0,0:0:0:0:
256,192,197642,1,0,0:0:0:0:
256,192,197729,1,0,0:0:0:0:
256,192,197817,1,0,0:0:0:0:
256,192,197905,1,0,0:0:0:0:
256,192,197993,1,0,0:0:0:0:
256,192,198080,1,0,0:0:0:0:
256,192,198168,1,0,0:0:0:0:
256,192,198256,1,8,0:0:0:0:
256,192,198315,1,8,0:0:0:0:
256,192,198373,1,8,0:0:0:0:
256,192,198432,1,8,0:0:0:0:
256,192,198490,1,8,0:0:0:0:
256,192,198549,1,8,0:0:0:0:
256,192,198607,1,0,0:0:0:0:
256,192,198694,1,0,0:0:0:0:
256,192,198782,1,0,0:0:0:0:
256,192,198870,1,0,0:0:0:0:
256,192,198957,1,0,0:0:0:0:
256,192,199045,1,0,0:0:0:0:
256,192,199133,1,0,0:0:0:0:
256,192,199221,1,0,0:0:0:0:
256,192,199308,1,0,0:0:0:0:
256,192,199396,1,0,0:0:0:0:
256,192,199484,1,0,0:0:0:0:
256,192,199571,1,0,0:0:0:0:
256,192,199659,1,8,0:0:0:0:
256,192,199718,1,8,0:0:0:0:
256,192,199776,1,8,0:0:0:0:
256,192,199835,1,8,0:0:0:0:
256,192,199893,1,8,0:0:0:0:
256,192,199952,1,8,0:0:0:0:
256,192,200010,1,0,0:0:0:0:
256,192,200186,1,0,0:0:0:0:
256,192,200361,1,8,0:0:0:0:
256,192,200405,1,8,0:0:0:0:
256,192,200536,1,0,0:0:0:0:
256,192,200580,1,0,0:0:0:0:
256,192,200712,1,8,0:0:0:0:
256,192,200756,1,8,0:0:0:0:
256,192,200887,1,0,0:0:0:0:
256,192,200931,1,0,0:0:0:0:
256,192,201063,1,12,0:0:0:0:
256,192,201150,1,12,0:0:0:0:
256,192,201238,1,12,0:0:0:0:
256,192,201326,1,12,0:0:0:0:
256,192,201414,1,12,0:0:0:0:
256,192,201501,1,12,0:0:0:0:
256,192,201589,1,12,0:0:0:0:
256,192,201764,1,0,0:0:0:0:
256,192,201852,1,0,0:0:0:0:
256,192,201940,1,0,0:0:0:0:
256,192,202028,1,0,0:0:0:0:
256,192,202115,1,8,0:0:0:0:
256,192,202203,1,8,0:0:0:0:
256,192,202291,1,8,0:0:0:0:
256,192,202379,1,8,0:0:0:0:
256,192,202466,1,0,0:0:0:0:
256,192,202554,1,0,0:0:0:0:
256,192,202642,1,0,0:0:0:0:
256,192,202729,1,0,0:0:0:0:
256,192,202817,1,8,0:0:0:0:
256,192,202876,1,8,0:0:0:0:
256,192,202934,1,8,0:0:0:0:
256,192,202993,1,8,0:0:0:0:
256,192,203168,1,0,0:0:0:0:
256,192,203343,1,8,0:0:0:0:
256,192,203518,1,0,0:0:0:0:
256,192,203694,1,8,0:0:0:0:
256,192,203870,1,8,0:0:0:0:
256,192,203957,1,8,0:0:0:0:
256,192,204045,1,8,0:0:0:0:
256,192,204104,1,0,0:0:0:0:
256,192,204162,1,0,0:0:0:0:
256,192,204221,1,8,0:0:0:0:
256,192,204308,1,8,0:0:0:0:
256,192,204396,1,8,0:0:0:0:
256,192,204571,1,0,0:0:0:0:
256,192,204630,1,0,0:0:0:0:
256,192,204688,1,0,0:0:0:0:
256,192,204747,1,0,0:0:0:0:
256,192,204805,1,0,0:0:0:0:
256,192,204864,1,0,0:0:0:0:
256,192,204922,1,8,0:0:0:0:
256,192,204981,1,8,0:0:0:0:
256,192,205039,1,8,0:0:0:0:
256,192,205098,1,8,0:0:0:0:
256,192,205156,1,8,0:0:0:0:
256,192,205215,1,8,0:0:0:0:
256,192,205273,1,0,0:0:0:0:
256,192,205332,1,0,0:0:0:0:
256,192,205390,1,8,0:0:0:0:
256,192,205449,1,8,0:0:0:0:
256,192,205507,1,8,0:0:0:0:
256,192,205566,1,8,0:0:0:0:
256,192,205624,1,0,0:0:0:0:
256,192,205683,1,0,0:0:0:0:
256,192,205741,1,0,0:0:0:0:
256,192,205799,1,8,0:0:0:0:
256,192,205858,1,0,0:0:0:0:
256,192,205916,1,0,0:0:0:0:
256,192,205974,1,8,0:0:0:0:
256,192,206033,1,0,0:0:0:0:
256,192,206091,1,0,0:0:0:0:
256,192,206150,1,8,0:0:0:0:
256,192,206208,1,0,0:0:0:0:
256,192,206267,1,0,0:0:0:0:
256,192,206325,1,8,0:0:0:0:
256,192,206384,1,0,0:0:0:0:
256,192,206442,1,0,0:0:0:0:
256,192,206501,1,8,0:0:0:0:
256,192,206559,1,0,0:0:0:0:
256,192,206618,1,0,0:0:0:0:
256,192,206676,1,8,0:0:0:0:
256,192,206735,1,0,0:0:0:0:
256,192,206793,1,0,0:0:0:0:
256,192,206852,1,8,0:0:0:0:
256,192,206910,1,0,0:0:0:0:
256,192,206969,1,0,0:0:0:0:
256,192,207027,1,8,0:0:0:0:
256,192,207086,1,0,0:0:0:0:
256,192,207144,1,0,0:0:0:0:
256,192,207203,1,8,0:0:0:0:
256,192,207262,1,0,0:0:0:0:
256,192,207320,1,0,0:0:0:0:
256,192,207379,1,0,0:0:0:0:
256,192,208080,1,0,0:0:0:0:
256,192,208782,1,0,0:0:0:0:
256,192,209484,1,8,0:0:0:0:
256,192,210186,1,0,0:0:0:0:
256,192,210229,1,8,0:0:0:0:
256,192,210273,1,0,0:0:0:0:
256,192,210317,1,8,0:0:0:0:
256,192,210361,1,0,0:0:0:0:
256,192,210405,1,8,0:0:0:0:
256,192,210449,1,0,0:0:0:0:
256,192,210493,1,8,0:0:0:0:
256,192,210536,1,0,0:0:0:0:
256,192,210712,1,8,0:0:0:0:
256,192,210887,1,8,0:0:0:0:
256,192,211063,1,8,0:0:0:0:
256,192,211238,1,0,0:0:0:0:
256,192,211414,1,8,0:0:0:0:
256,192,211589,1,8,0:0:0:0:
256,192,211764,1,8,0:0:0:0:
256,192,211940,1,0,0:0:0:0:
256,192,212115,1,8,0:0:0:0:
256,192,212291,1,8,0:0:0:0:
256,192,212466,1,8,0:0:0:0:
256,192,212642,1,8,0:0:0:0:
256,192,212817,1,0,0:0:0:0:
256,192,212993,1,8,0:0:0:0:
256,192,213168,1,0,0:0:0:0:
256,192,213343,1,8,0:0:0:0:
256,192,213519,1,8,0:0:0:0:
256,192,213870,1,8,0:0:0:0:
256,192,214045,1,8,0:0:0:0:
256,192,214221,1,0,0:0:0:0:
256,192,214396,1,8,0:0:0:0:
256,192,214571,1,0,0:0:0:0:
256,192,214747,1,8,0:0:0:0:
256,192,214922,1,8,0:0:0:0:
256,192,215273,1,8,0:0:0:0:
256,192,215449,1,8,0:0:0:0:
256,192,215624,1,8,0:0:0:0:
256,192,215800,1,0,0:0:0:0:
256,192,215975,1,8,0:0:0:0:
256,192,216150,1,0,0:0:0:0:
256,192,216326,1,8,0:0:0:0:
256,192,216677,1,8,0:0:0:0:
256,192,216852,1,8,0:0:0:0:
256,192,217028,1,0,0:0:0:0:
256,192,217203,1,8,0:0:0:0:
256,192,217379,1,8,0:0:0:0:
256,192,217554,1,8,0:0:0:0:
256,192,217729,1,8,0:0:0:0:
256,192,218080,1,8,0:0:0:0:
256,192,218256,1,8,0:0:0:0:
256,192,218431,1,0,0:0:0:0:
256,192,218607,1,8,0:0:0:0:
256,192,218782,1,0,0:0:0:0:
256,192,218957,1,8,0:0:0:0:
256,192,219133,1,8,0:0:0:0:
256,192,219484,1,8,0:0:0:0:
256,192,219659,1,8,0:0:0:0:
256,192,219835,1,8,0:0:0:0:
256,192,220010,1,0,0:0:0:0:
256,192,220186,1,8,0:0:0:0:
256,192,220361,1,8,0:0:0:0:
256,192,220536,1,8,0:0:0:0:
256,192,220887,1,8,0:0:0:0:
256,192,221063,1,8,0:0:0:0:
256,192,221238,1,0,0:0:0:0:
256,192,221414,1,8,0:0:0:0:
256,192,221589,1,0,0:0:0:0:
256,192,221765,1,8,0:0:0:0:
256,192,221940,1,8,0:0:0:0:
256,192,222291,1,8,0:0:0:0:
256,192,222466,1,8,0:0:0:0:
256,192,222642,1,8,0:0:0:0:
256,192,222817,1,0,0:0:0:0:
256,192,222993,1,8,0:0:0:0:
256,192,223168,1,0,0:0:0:0:
256,192,223343,1,0,0:0:0:0:
256,192,223694,1,0,0:0:0:0:
256,192,223869,1,0,0:0:0:0:
256,192,224221,1,8,0:0:0:0:
256,192,224396,1,0,0:0:0:0:
256,192,224571,1,8,0:0:0:0:
256,192,224747,1,8,0:0:0:0:
256,192,225098,1,8,0:0:0:0:
256,192,225274,1,8,0:0:0:0:
256,192,225449,1,0,0:0:0:0:
256,192,225624,1,8,0:0:0:0:
256,192,225800,1,0,0:0:0:0:
256,192,225975,1,8,0:0:0:0:
256,192,226150,1,8,0:0:0:0:
256,192,226501,1,8,0:0:0:0:
256,192,226677,1,8,0:0:0:0:
256,192,226852,1,8,0:0:0:0:
256,192,227028,1,0,0:0:0:0:
256,192,227203,1,8,0:0:0:0:
256,192,227379,1,0,0:0:0:0:
256,192,227554,1,0,0:0:0:0:
256,192,227905,1,8,0:0:0:0:
256,192,228081,1,8,0:0:0:0:
256,192,228256,1,8,0:0:0:0:
256,192,228431,1,0,0:0:0:0:
256,192,228607,1,8,0:0:0:0:
256,192,228782,1,8,0:0:0:0:
256,192,228957,1,8,0:0:0:0:
256,192,229308,1,8,0:0:0:0:
256,192,229484,1,8,0:0:0:0:
256,192,229659,1,0,0:0:0:0:
256,192,229835,1,8,0:0:0:0:
256,192,230012,1,0,0:0:0:0:
256,192,230192,1,8,0:0:0:0:
256,192,230371,1,8,0:0:0:0:
256,192,230736,1,8,0:0:0:0:
256,192,230921,1,8,0:0:0:0:
256,192,231106,1,8,0:0:0:0:
256,192,231291,1,0,0:0:0:0:
256,192,231482,1,8,0:0:0:0:
256,192,231673,1,8,0:0:0:0:
256,192,231864,1,8,0:0:0:0:
256,192,232249,1,8,0:0:0:0:
256,192,232444,1,8,0:0:0:0:
256,192,232639,1,0,0:0:0:0:
256,192,232834,1,8,0:0:0:0:
256,192,233035,1,0,0:0:0:0:
256,192,233236,1,8,0:0:0:0:
256,192,233438,1,8,0:0:0:0:
256,192,233845,1,8,0:0:0:0:
256,192,234052,1,8,0:0:0:0:
256,192,234259,1,8,0:0:0:0:
256,192,234466,1,0,0:0:0:0:
256,192,234680,1,8,0:0:0:0:
256,192,234894,1,0,0:0:0:0:
256,192,235108,1,0,0:0:0:0:
256,192,235541,1,0,0:0:0:0:
256,192,235760,1,0,0:0:0:0:
256,192,236198,1,8,0:0:0:0:
256,192,236311,1,8,0:0:0:0:
256,192,236538,1,8,0:0:0:0:
256,192,236652,1,8,0:0:0:0:
256,192,236879,1,8,0:0:0:0:
256,192,236993,1,8,0:0:0:0:
256,192,237220,1,8,0:0:0:0:
256,192,237334,1,8,0:0:0:0:
256,192,237561,1,0,0:0:0:0:
256,192,238016,1,0,0:0:0:0:
256,192,238129,1,0,0:0:0:0:
256,192,238357,1,0,0:0:0:0:
256,192,238470,1,0,0:0:0:0:
256,192,238698,1,0,0:0:0:0:
256,192,238811,1,0,0:0:0:0:
256,192,239038,1,0,0:0:0:0:
256,192,239152,1,0,0:0:0:0:
256,192,239379,1,8,0:0:0:0:
256,192,239607,1,0,0:0:0:0:
256,192,239834,1,0,0:0:0:0:
256,192,239948,1,0,0:0:0:0:
256,192,240175,1,0,0:0:0:0:
256,192,240288,1,0,0:0:0:0:
256,192,240516,1,0,0:0:0:0:
256,192,240629,1,0,0:0:0:0:
256,192,240857,1,0,0:0:0:0:
256,192,240970,1,0,0:0:0:0:
256,192,241198,1,8,0:0:0:0:
256,192,241425,1,0,0:0:0:0:
256,192,241652,1,0,0:0:0:0:
256,192,241766,1,0,0:0:0:0:
256,192,241993,1,0,0:0:0:0:
256,192,242107,1,0,0:0:0:0:
256,192,242334,1,8,0:0:0:0:
256,192,242448,1,0,0:0:0:0:
256,192,242561,1,0,0:0:0:0:
256,192,242675,1,8,0:0:0:0:
256,192,242788,1,0,0:0:0:0:
256,192,242902,1,0,0:0:0:0:
256,192,243016,1,8,0:0:0:0:
256,192,243129,1,0,0:0:0:0:
256,192,243243,1,8,0:0:0:0:
256,192,243357,1,0,0:0:0:0:
256,192,243470,1,8,0:0:0:0:
256,192,243584,1,0,0:0:0:0:
256,192,243811,1,0,0:0:0:0:
256,192,243925,1,0,0:0:0:0:
256,192,244152,1,0,0:0:0:0:
256,192,244266,1,0,0:0:0:0:
256,192,244493,1,0,0:0:0:0:
256,192,244607,1,0,0:0:0:0:
256,192,244834,1,8,0:0:0:0:
256,192,245061,1,0,0:0:0:0:
256,192,245288,1,8,0:0:0:0:
256,192,245402,1,8,0:0:0:0:
256,192,245629,1,8,0:0:0:0:
256,192,245743,1,8,0:0:0:0:
256,192,245970,1,8,0:0:0:0:
256,192,246084,1,8,0:0:0:0:
256,192,246311,1,8,0:0:0:0:
256,192,246425,1,8,0:0:0:0:
256,192,246652,1,0,0:0:0:0:
256,192,246879,1,0,0:0:0:0:
256,192,247107,1,8,0:0:0:0:
256,192,247220,1,8,0:0:0:0:
256,192,247448,1,0,0:0:0:0:
256,192,247561,1,0,0:0:0:0:
256,192,247788,1,8,0:0:0:0:
256,192,247902,1,8,0:0:0:0:
256,192,248129,1,0,0:0:0:0:
256,192,248243,1,0,0:0:0:0:
256,192,248470,1,8,0:0:0:0:
256,192,248698,1,0,0:0:0:0:
256,192,248925,1,8,0:0:0:0:
256,192,249038,1,8,0:0:0:0:
256,192,249266,1,8,0:0:0:0:
256,192,249379,1,8,0:0:0:0:
256,192,249607,1,8,0:0:0:0:
256,192,249720,1,8,0:0:0:0:
256,192,249834,1,0,0:0:0:0:
256,192,249948,1,8,0:0:0:0:
256,192,250061,1,0,0:0:0:0:
256,192,250175,1,8,0:0:0:0:
256,192,250288,1,0,0:0:0:0:
256,192,250402,1,0,0:0:0:0:
256,192,250516,1,0,0:0:0:0:
256,192,250743,1,8,0:0:0:0:
256,192,250857,1,0,0:0:0:0:
256,192,250970,1,8,0:0:0:0:
256,192,251198,1,8,0:0:0:0:
256,224,251311,1,0,0:0:0:0:
256,192,251425,1,0,0:0:0:0:
256,192,251538,1,8,0:0:0:0:
256,192,251652,1,0,0:0:0:0:
256,192,251879,1,0,0:0:0:0:
256,192,251993,1,0,0:0:0:0:
256,192,252107,1,8,0:0:0:0:
256,192,252220,1,0,0:0:0:0:
256,192,252334,1,0,0:0:0:0:
256,224,252448,1,8,0:0:0:0:
256,224,252561,1,0,0:0:0:0:
256,192,252675,1,8,0:0:0:0:
256,192,252788,1,0,0:0:0:0:
256,192,253016,1,8,0:0:0:0:
256,192,253129,1,0,0:0:0:0:
256,192,253243,1,8,0:0:0:0:
256,192,253357,1,0,0:0:0:0:
256,192,253470,1,0,0:0:0:0:
256,192,253584,1,0,0:0:0:0:
256,192,253698,1,8,0:0:0:0:
256,192,253925,1,0,0:0:0:0:
256,192,254038,1,8,0:0:0:0:
256,192,254152,1,0,0:0:0:0:
256,192,254266,1,8,0:0:0:0:
256,192,254379,1,0,0:0:0:0:
256,192,254493,1,0,0:0:0:0:
256,192,254607,1,0,0:0:0:0:
256,192,254834,1,8,0:0:0:0:
256,192,254948,1,0,0:0:0:0:
256,192,255061,1,0,0:0:0:0:
256,192,255175,1,0,0:0:0:0:
256,192,255288,1,8,0:0:0:0:
256,192,255402,1,0,0:0:0:0:
256,192,255516,1,8,0:0:0:0:
256,192,255743,1,0,0:0:0:0:
256,192,255857,1,8,0:0:0:0:
256,192,255970,1,0,0:0:0:0:
256,192,256084,1,8,0:0:0:0:
256,192,256198,1,8,0:0:0:0:
256,192,256311,1,0,0:0:0:0:
256,192,256425,1,0,0:0:0:0:
256,192,256652,1,8,0:0:0:0:
256,192,256766,1,0,0:0:0:0:
256,192,256879,1,8,0:0:0:0:
256,192,256993,1,0,0:0:0:0:
256,192,257107,1,0,0:0:0:0:
256,192,257220,1,8,0:0:0:0:
256,192,257561,1,8,0:0:0:0:
256,192,257675,1,0,0:0:0:0:
256,192,257788,1,0,0:0:0:0:
256,192,258016,1,8,0:0:0:0:
256,192,258243,1,8,0:0:0:0:
256,192,258357,1,8,0:0:0:0:
256,192,258470,1,0,0:0:0:0:
256,192,258584,1,8,0:0:0:0:
256,192,258698,1,0,0:0:0:0:
256,192,258811,1,8,0:0:0:0:
256,192,258925,1,0,0:0:0:0:
256,192,259038,1,0,0:0:0:0:
256,192,259152,1,8,0:0:0:0:
256,192,259266,1,0,0:0:0:0:
256,192,259379,1,0,0:0:0:0:
256,192,259493,1,0,0:0:0:0:
256,192,259607,1,8,0:0:0:0:
256,192,259720,1,0,0:0:0:0:
256,192,259834,1,8,0:0:0:0:
256,192,260288,1,8,0:0:0:0:
256,192,260402,1,8,0:0:0:0:
256,192,260516,1,0,0:0:0:0:
256,192,260629,1,8,0:0:0:0:
256,192,260743,1,0,0:0:0:0:
256,192,260857,1,0,0:0:0:0:
256,192,260970,1,8,0:0:0:0:
256,192,261084,1,0,0:0:0:0:
256,192,261198,1,8,0:0:0:0:
256,192,261311,1,0,0:0:0:0:
256,192,261425,1,0,0:0:0:0:
256,192,261538,1,8,0:0:0:0:
256,192,261652,1,0,0:0:0:0:
256,192,261879,1,0,0:0:0:0:
256,192,261993,1,0,0:0:0:0:
256,192,262107,1,0,0:0:0:0:
256,192,262220,1,8,0:0:0:0:
256,192,262334,1,8,0:0:0:0:
256,192,262448,1,0,0:0:0:0:
256,192,262561,1,0,0:0:0:0:
256,192,262675,1,0,0:0:0:0:
256,192,262788,1,8,0:0:0:0:
256,192,262902,1,8,0:0:0:0:
256,192,263016,1,0,0:0:0:0:
256,192,263129,1,8,0:0:0:0:
256,192,263243,1,8,0:0:0:0:
256,192,263357,1,0,0:0:0:0:
256,192,263470,1,8,0:0:0:0:
256,192,263925,1,8,0:0:0:0:
256,192,264038,1,8,0:0:0:0:
256,192,264152,1,0,0:0:0:0:
256,192,264266,1,8,0:0:0:0:
256,192,264379,1,0,0:0:0:0:
256,192,264493,1,8,0:0:0:0:
256,192,264607,1,0,0:0:0:0:
256,192,264720,1,0,0:0:0:0:
256,192,264834,1,8,0:0:0:0:
256,192,264948,1,0,0:0:0:0:
256,192,265061,1,0,0:0:0:0:
256,192,265175,1,0,0:0:0:0:
256,192,265288,1,8,0:0:0:0:
256,192,265402,1,8,0:0:0:0:
256,192,265516,1,0,0:0:0:0:
256,192,265629,1,8,0:0:0:0:
256,192,265743,1,0,0:0:0:0:
256,192,265857,1,0,0:0:0:0:
256,192,265970,1,8,0:0:0:0:
256,192,266084,1,8,0:0:0:0:
256,192,266198,1,0,0:0:0:0:
256,192,266311,1,0,0:0:0:0:
256,192,266425,1,0,0:0:0:0:
256,192,266538,1,0,0:0:0:0:
256,192,266652,1,8,0:0:0:0:
256,192,266766,1,0,0:0:0:0:
256,192,266879,1,0,0:0:0:0:
256,192,266993,1,0,0:0:0:0:
256,192,267107,1,8,0:0:0:0:
256,192,267561,1,8,0:0:0:0:
256,192,267675,1,8,0:0:0:0:
256,192,267788,1,0,0:0:0:0:
256,192,267902,1,8,0:0:0:0:
256,192,268016,1,0,0:0:0:0:
256,192,268129,1,8,0:0:0:0:
256,192,268243,1,0,0:0:0:0:
256,192,268357,1,0,0:0:0:0:
256,192,268470,1,8,0:0:0:0:
256,192,268584,1,0,0:0:0:0:
256,192,268698,1,0,0:0:0:0:
256,192,268925,1,8,0:0:0:0:
256,192,269152,1,8,0:0:0:0:
256,192,269266,1,8,0:0:0:0:
256,192,269379,1,0,0:0:0:0:
256,192,269493,1,8,0:0:0:0:
256,192,269607,1,0,0:0:0:0:
256,192,269720,1,8,0:0:0:0:
256,192,269834,1,0,0:0:0:0:
256,192,269948,1,0,0:0:0:0:
256,192,270061,1,8,0:0:0:0:
256,192,270175,1,0,0:0:0:0:
256,192,270288,1,8,0:0:0:0:
256,192,270402,1,0,0:0:0:0:
256,192,270516,1,0,0:0:0:0:
256,192,270629,1,8,0:0:0:0:
256,192,270743,1,0,0:0:0:0:
256,192,271198,1,8,0:0:0:0:
256,192,271311,1,0,0:0:0:0:
256,192,271425,1,0,0:0:0:0:
256,192,271538,1,0,0:0:0:0:
256,192,271652,1,8,0:0:0:0:
256,192,271766,1,0,0:0:0:0:
256,192,271879,1,0,0:0:0:0:
256,192,271993,1,8,0:0:0:0:
256,192,272107,1,0,0:0:0:0:
256,192,272220,1,8,0:0:0:0:
256,192,272334,1,0,0:0:0:0:
256,192,272561,1,8,0:0:0:0:
256,192,272675,1,8,0:0:0:0:
256,192,272902,1,8,0:0:0:0:
256,192,273016,1,8,0:0:0:0:
256,192,273243,1,8,0:0:0:0:
256,192,273357,1,8,0:0:0:0:
256,192,273584,1,8,0:0:0:0:
256,192,273698,1,8,0:0:0:0:
256,192,273925,1,0,0:0:0:0:
256,192,274379,1,8,0:0:0:0:
256,192,274834,1,8,0:0:0:0:
256,192,275061,1,8,0:0:0:0:
256,192,275516,1,8,0:0:0:0:
256,192,275743,1,8,0:0:0:0:
256,192,275970,1,0,0:0:0:0:
256,192,276198,1,8,0:0:0:0:
256,192,276652,1,8,0:0:0:0:
256,192,276879,1,8,0:0:0:0:
256,192,277334,1,8,0:0:0:0:
256,192,277561,1,8,0:0:0:0:
256,192,277788,1,0,0:0:0:0:
256,192,278016,1,8,0:0:0:0:
256,192,278470,1,8,0:0:0:0:
256,192,278698,1,8,0:0:0:0:
256,192,279152,1,8,0:0:0:0:
256,192,279379,1,8,0:0:0:0:
256,192,279607,1,0,0:0:0:0:
256,192,279834,1,8,0:0:0:0:
256,192,280288,1,8,0:0:0:0:
256,192,280516,1,8,0:0:0:0:
256,192,280970,1,8,0:0:0:0:
256,192,281198,1,8,0:0:0:0:
256,192,281425,1,0,0:0:0:0:
256,192,281652,1,8,0:0:0:0:
256,192,282107,1,8,0:0:0:0:
256,192,282334,1,8,0:0:0:0:
256,192,282788,1,8,0:0:0:0:
256,192,283016,1,8,0:0:0:0:
256,192,283243,1,0,0:0:0:0:
256,192,283470,1,8,0:0:0:0:
256,192,283925,1,8,0:0:0:0:
256,192,284152,1,8,0:0:0:0:
256,192,284607,1,8,0:0:0:0:
256,192,284834,1,8,0:0:0:0:
256,192,285061,1,0,0:0:0:0:
256,192,285288,1,8,0:0:0:0:
256,192,285743,1,8,0:0:0:0:
256,192,285970,1,8,0:0:0:0:
256,192,286425,1,8,0:0:0:0:
256,192,286652,1,8,0:0:0:0:
256,192,286879,1,0,0:0:0:0:
256,192,287107,1,8,0:0:0:0:
256,192,287448,1,8,0:0:0:0:
256,192,287561,1,8,0:0:0:0:
256,192,287788,1,8,0:0:0:0:
256,192,287902,1,8,0:0:0:0:
256,192,288129,1,8,0:0:0:0:
256,192,288243,1,8,0:0:0:0:
256,192,288470,1,0,0:0:0:0:
256,192,288698,1,0,0:0:0:0:
256,192,288925,1,0,0:0:0:0:
256,192,289038,1,0,0:0:0:0:
256,192,289266,1,0,0:0:0:0:
256,192,289379,1,0,0:0:0:0:
256,192,289607,1,0,0:0:0:0:
256,192,289720,1,0,0:0:0:0:
256,192,289948,1,0,0:0:0:0:
256,192,290061,1,0,0:0:0:0:
256,192,290288,1,8,0:0:0:0:
256,192,290516,1,0,0:0:0:0:
256,192,290743,1,0,0:0:0:0:
256,192,290857,1,0,0:0:0:0:
256,192,291084,1,0,0:0:0:0:
256,192,291198,1,0,0:0:0:0:
256,192,291425,1,0,0:0:0:0:
256,192,291538,1,0,0:0:0:0:
256,192,291766,1,0,0:0:0:0:
256,192,291879,1,0,0:0:0:0:
256,192,292107,1,8,0:0:0:0:
256,192,292334,1,0,0:0:0:0:
256,192,292561,1,0,0:0:0:0:
256,192,292675,1,0,0:0:0:0:
256,192,292902,1,0,0:0:0:0:
256,192,293016,1,0,0:0:0:0:
256,192,293243,1,0,0:0:0:0:
256,192,293357,1,0,0:0:0:0:
256,192,293470,1,0,0:0:0:0:
256,192,293584,1,0,0:0:0:0:
256,192,293698,1,0,0:0:0:0:
256,192,293811,1,0,0:0:0:0:
256,192,293925,1,0,0:0:0:0:
256,192,294038,1,0,0:0:0:0:
256,192,294152,1,0,0:0:0:0:
256,192,294379,1,0,0:0:0:0:
256,192,294493,1,0,0:0:0:0:
256,192,294720,1,0,0:0:0:0:
256,192,294834,1,0,0:0:0:0:
256,192,295061,1,0,0:0:0:0:
256,192,295175,1,0,0:0:0:0:
256,192,295402,1,0,0:0:0:0:
256,192,295516,1,0,0:0:0:0:
256,192,295743,1,0,0:0:0:0:
256,192,295857,1,0,0:0:0:0:
256,192,296084,1,0,0:0:0:0:
256,192,296198,1,0,0:0:0:0:
256,192,296425,1,0,0:0:0:0:
256,192,296538,1,0,0:0:0:0:
256,192,296766,1,0,0:0:0:0:
256,192,296879,1,0,0:0:0:0:
256,192,297107,1,0,0:0:0:0:
256,192,297220,1,0,0:0:0:0:
256,192,297448,1,0,0:0:0:0:
256,192,297561,1,0,0:0:0:0:
256,192,297788,1,0,0:0:0:0:
256,192,297902,1,0,0:0:0:0:
256,192,298129,1,0,0:0:0:0:
256,192,298243,1,0,0:0:0:0:
256,192,298470,1,0,0:0:0:0:
256,192,298584,1,0,0:0:0:0:
256,192,298811,1,0,0:0:0:0:
256,192,298925,1,0,0:0:0:0:
256,192,299152,1,0,0:0:0:0:
256,192,299266,1,0,0:0:0:0:
256,192,299493,1,0,0:0:0:0:
256,192,299607,1,0,0:0:0:0:
256,192,299834,1,0,0:0:0:0:
256,192,299948,1,0,0:0:0:0:
256,192,300175,1,0,0:0:0:0:
256,192,300288,1,0,0:0:0:0:
256,192,300516,1,0,0:0:0:0:
256,192,300629,1,0,0:0:0:0:
256,192,300857,1,0,0:0:0:0:
256,192,300970,1,0,0:0:0:0:
256,192,301198,1,0,0:0:0:0:
256,192,301311,1,0,0:0:0:0:
256,192,301538,1,0,0:0:0:0:
256,192,301652,1,0,0:0:0:0:
