osu file format v14

[General]
AudioFilename: audio.mp3
AudioLeadIn: 0
PreviewTime: 45750
Countdown: 1
SampleSet: None
StackLeniency: 0.7
Mode: 1
LetterboxInBreaks: 0
WidescreenStoryboard: 0

[Editor]
Bookmarks: 3750,26550,45750,67350,107325
DistanceSpacing: 1
BeatDivisor: 8
GridSize: 4
TimelineZoom: 2.2

[Metadata]
Title:!(Z)X(Z)!
TitleUnicode:!(Z)X(Z)!
Artist:Sidewinder
ArtistUnicode:Sidewinder
Creator:Geminous
Version:Dokuso
Source:
Tags:hardcore z x z ! breakcore stepmania
BeatmapID:1448153
BeatmapSetID:684293

[Difficulty]
HPDrainRate:6
CircleSize:4
OverallDifficulty:8
ApproachRate:7
SliderMultiplier:1.4
SliderTickRate:1

[Events]
//Background and Video events
0,0,"38f79c02e2baaf24bc06466b7393081e.jpg",0,0
//Break Periods
//Storyboard Layer 0 (Background)
//Storyboard Layer 1 (Fail)
//Storyboard Layer 2 (Pass)
//Storyboard Layer 3 (Foreground)
//Storyboard Sound Samples

[TimingPoints]
150,600,4,1,0,100,1,0
3750,300,4,1,0,100,1,0
19350,-111.111111111111,4,1,0,100,0,0
19650,-125,4,1,0,100,0,0
19950,-142.857142857143,4,1,0,100,0,0
20250,-166.666666666667,4,1,0,100,0,0
20550,600,4,1,0,100,1,0
20550,-100,4,1,0,100,0,0
26550,300,4,1,0,100,1,0
55350,600,4,1,0,100,1,0
67350,300,4,1,0,100,1,0
67350,-100,4,1,0,100,0,0
89250,-95.2380952380952,4,1,0,100,0,0
89850,-90.9090909090909,4,1,0,100,0,0
90450,-86.9565217391304,4,1,0,100,0,0
91050,-83.3333333333333,4,1,0,100,0,0
91650,-80,4,1,0,100,0,0
92250,-76.9230769230769,4,1,0,100,0,0
92850,-71.4285714285714,4,1,0,100,0,0
93150,-68.9655172413793,4,1,0,100,0,0
93450,-66.6666666666667,4,1,0,100,0,0
93750,-64.5161290322581,4,1,0,100,0,0
94050,-62.5,4,1,0,100,0,0
94350,-60.6060606060606,4,1,0,100,0,0
94650,-58.8235294117647,4,1,0,100,0,0
94950,-57.1428571428571,4,1,0,100,0,0
95250,-55.5555555555556,4,1,0,100,0,0
96750,-133.333333333333,4,1,0,100,0,0
97725,300,4,1,0,100,1,0
97725,-100,4,1,0,100,0,0
107325,-100,4,1,0,100,0,1
126525,-100,4,1,0,100,0,0

[HitObjects]
256,192,150,5,4,0:0:0:0:
256,192,2550,1,0,0:0:0:0:
256,192,2700,1,0,0:0:0:0:
256,192,2850,1,0,0:0:0:0:
256,192,3000,1,0,0:0:0:0:
256,192,3150,1,0,0:0:0:0:
256,192,3225,1,0,0:0:0:0:
256,192,3300,1,0,0:0:0:0:
256,192,3375,1,0,0:0:0:0:
256,192,3450,1,8,0:0:0:0:
256,192,3525,1,8,0:0:0:0:
256,192,3600,1,8,0:0:0:0:
256,192,3675,1,8,0:0:0:0:
256,192,3750,1,8,0:0:0:0:
256,192,3825,1,8,0:0:0:0:
256,192,3900,1,0,0:0:0:0:
256,192,3975,1,0,0:0:0:0:
256,192,4050,1,8,0:0:0:0:
256,192,4200,1,0,0:0:0:0:
256,192,4275,1,0,0:0:0:0:
256,192,4350,1,8,0:0:0:0:
256,192,4425,1,8,0:0:0:0:
256,192,4500,1,8,0:0:0:0:
256,192,4575,1,8,0:0:0:0:
256,192,4650,1,0,0:0:0:0:
256,192,4725,1,8,0:0:0:0:
256,192,4800,1,8,0:0:0:0:
256,192,4875,1,8,0:0:0:0:
256,192,4950,1,12,0:0:0:0:
256,192,5100,1,0,0:0:0:0:
256,192,5250,1,12,0:0:0:0:
256,192,5400,1,0,0:0:0:0:
256,192,5550,1,12,0:0:0:0:
256,192,5700,1,0,0:0:0:0:
256,192,5850,1,12,0:0:0:0:
256,192,6000,1,0,0:0:0:0:
256,192,6150,1,8,0:0:0:0:
256,192,6187,1,0,0:0:0:0:
256,192,6300,1,8,0:0:0:0:
256,192,6337,1,0,0:0:0:0:
256,192,6450,1,8,0:0:0:0:
256,192,6525,1,8,0:0:0:0:
256,192,6600,1,8,0:0:0:0:
256,192,6750,1,0,0:0:0:0:
256,192,6900,1,0,0:0:0:0:
256,192,7050,1,8,0:0:0:0:
256,192,7125,1,8,0:0:0:0:
256,192,7200,1,0,0:0:0:0:
256,192,7275,1,0,0:0:0:0:
256,192,7350,1,8,0:0:0:0:
256,192,7387,1,0,0:0:0:0:
256,192,7500,1,8,0:0:0:0:
256,192,7537,1,0,0:0:0:0:
256,192,7650,1,8,0:0:0:0:
256,192,7725,1,0,0:0:0:0:
256,192,7800,1,8,0:0:0:0:
256,192,7875,1,0,0:0:0:0:
256,192,7950,1,8,0:0:0:0:
256,192,8025,1,8,0:0:0:0:
256,192,8100,1,8,0:0:0:0:
256,192,8175,1,0,0:0:0:0:
256,192,8250,1,8,0:0:0:0:
256,192,8325,1,0,0:0:0:0:
256,192,8400,1,8,0:0:0:0:
256,192,8475,1,0,0:0:0:0:
256,192,8550,1,8,0:0:0:0:
256,192,8587,1,0,0:0:0:0:
256,192,8700,1,8,0:0:0:0:
256,192,8737,1,0,0:0:0:0:
256,192,8850,1,8,0:0:0:0:
256,192,8925,1,0,0:0:0:0:
256,192,9000,1,0,0:0:0:0:
256,192,9150,1,8,0:0:0:0:
256,192,9225,1,0,0:0:0:0:
256,192,9300,1,8,0:0:0:0:
256,192,9375,1,0,0:0:0:0:
256,192,9450,1,8,0:0:0:0:
256,192,9525,1,8,0:0:0:0:
256,192,9600,1,8,0:0:0:0:
256,192,9675,1,0,0:0:0:0:
256,192,9750,1,8,0:0:0:0:
256,192,9825,1,0,0:0:0:0:
256,192,9900,1,0,0:0:0:0:
256,192,10050,1,8,0:0:0:0:
256,192,10125,1,0,0:0:0:0:
256,192,10200,1,0,0:0:0:0:
256,192,10275,1,0,0:0:0:0:
256,192,10350,1,8,0:0:0:0:
256,192,10425,1,0,0:0:0:0:
256,192,10500,1,0,0:0:0:0:
256,192,10575,1,0,0:0:0:0:
256,192,10650,1,8,0:0:0:0:
256,192,10725,1,0,0:0:0:0:
256,192,10800,1,8,0:0:0:0:
256,192,10875,1,0,0:0:0:0:
256,192,10950,1,8,0:0:0:0:
256,192,11025,1,8,0:0:0:0:
256,192,11100,1,0,0:0:0:0:
256,192,11175,1,0,0:0:0:0:
256,192,11250,1,0,0:0:0:0:
256,192,11400,1,0,0:0:0:0:
256,192,11550,1,8,0:0:0:0:
256,192,11625,1,0,0:0:0:0:
256,192,11700,1,8,0:0:0:0:
256,192,11775,1,0,0:0:0:0:
256,192,11850,1,8,0:0:0:0:
256,192,11925,1,8,0:0:0:0:
256,192,12000,1,8,0:0:0:0:
256,192,12075,1,0,0:0:0:0:
256,192,12150,1,8,0:0:0:0:
256,192,12225,1,0,0:0:0:0:
256,192,12300,1,0,0:0:0:0:
256,192,12450,1,8,0:0:0:0:
256,192,12600,1,8,0:0:0:0:
256,192,12750,1,8,0:0:0:0:
256,192,12825,1,0,0:0:0:0:
256,192,12900,1,8,0:0:0:0:
256,192,12975,1,0,0:0:0:0:
256,192,13050,1,8,0:0:0:0:
256,192,13125,1,0,0:0:0:0:
256,192,13200,1,0,0:0:0:0:
256,192,13275,1,0,0:0:0:0:
256,192,13350,1,8,0:0:0:0:
256,192,13425,1,8,0:0:0:0:
256,192,13500,1,8,0:0:0:0:
256,192,13650,1,8,0:0:0:0:
256,192,13725,1,0,0:0:0:0:
256,192,13800,1,8,0:0:0:0:
256,192,13875,1,0,0:0:0:0:
256,192,13950,1,8,0:0:0:0:
256,192,14025,1,0,0:0:0:0:
256,192,14100,1,0,0:0:0:0:
256,192,14175,1,0,0:0:0:0:
256,192,14250,1,8,0:0:0:0:
256,192,14325,1,8,0:0:0:0:
256,192,14400,1,8,0:0:0:0:
256,192,14475,1,8,0:0:0:0:
256,192,14550,1,8,0:0:0:0:
256,192,14625,1,0,0:0:0:0:
256,192,14700,1,0,0:0:0:0:
256,192,14850,1,8,0:0:0:0:
256,192,14925,1,0,0:0:0:0:
256,192,15000,1,0,0:0:0:0:
256,192,15075,1,0,0:0:0:0:
256,192,15150,1,8,0:0:0:0:
256,192,15225,1,0,0:0:0:0:
256,192,15300,1,8,0:0:0:0:
256,192,15375,1,0,0:0:0:0:
256,192,15450,1,8,0:0:0:0:
256,192,15525,1,8,0:0:0:0:
256,192,15600,1,8,0:0:0:0:
256,192,15675,1,0,0:0:0:0:
256,192,15750,1,4,0:0:0:0:
256,192,15900,1,4,0:0:0:0:
256,192,16050,1,4,0:0:0:0:
256,192,16125,1,0,0:0:0:0:
256,192,16200,1,0,0:0:0:0:
256,192,16350,1,8,0:0:0:0:
256,192,16425,1,0,0:0:0:0:
256,192,16500,1,8,0:0:0:0:
256,192,16575,1,0,0:0:0:0:
256,192,16650,1,8,0:0:0:0:
256,192,16725,1,0,0:0:0:0:
256,192,16800,1,8,0:0:0:0:
256,192,16875,1,8,0:0:0:0:
256,192,16950,1,0,0:0:0:0:
256,192,16987,1,0,0:0:0:0:
256,192,17100,1,0,0:0:0:0:
256,192,17137,1,0,0:0:0:0:
256,192,17250,1,0,0:0:0:0:
256,192,17287,1,0,0:0:0:0:
256,192,17400,1,0,0:0:0:0:
256,192,17437,1,0,0:0:0:0:
256,192,17550,1,4,0:0:0:0:
256,192,17700,1,4,0:0:0:0:
256,192,17850,1,8,0:0:0:0:
256,192,17925,1,8,0:0:0:0:
256,192,18000,1,8,0:0:0:0:
256,192,18075,1,8,0:0:0:0:
256,192,18150,1,8,0:0:0:0:
256,192,18225,1,0,0:0:0:0:
256,192,18300,1,8,0:0:0:0:
256,192,18375,1,0,0:0:0:0:
256,192,18450,1,8,0:0:0:0:
256,192,18525,1,8,0:0:0:0:
256,192,18600,1,8,0:0:0:0:
256,192,18675,1,0,0:0:0:0:
256,192,18750,1,8,0:0:0:0:
256,192,18825,1,0,0:0:0:0:
256,192,18900,1,8,0:0:0:0:
256,192,18975,1,0,0:0:0:0:
256,192,19050,1,8,0:0:0:0:
256,192,19125,1,8,0:0:0:0:
256,192,19200,1,8,0:0:0:0:
256,192,19350,1,4,0:0:0:0:
256,192,19425,1,0,0:0:0:0:
256,192,19500,1,0,0:0:0:0:
256,192,19575,1,0,0:0:0:0:
256,192,19650,1,0,0:0:0:0:
256,192,19725,1,0,0:0:0:0:
256,192,19800,1,0,0:0:0:0:
256,192,19875,1,0,0:0:0:0:
256,192,19950,1,0,0:0:0:0:
256,192,20025,1,0,0:0:0:0:
256,192,20100,1,0,0:0:0:0:
256,192,20175,1,0,0:0:0:0:
256,192,20250,1,4,0:0:0:0:
256,192,20550,1,0,0:0:0:0:
256,192,20700,1,0,0:0:0:0:
256,192,20850,1,0,0:0:0:0:
256,192,21150,1,12,0:0:0:0:
256,192,21300,1,8,0:0:0:0:
256,192,21450,1,0,0:0:0:0:
256,192,21600,1,0,0:0:0:0:
256,192,21750,1,4,0:0:0:0:
256,192,22050,1,4,0:0:0:0:
256,192,22350,1,4,0:0:0:0:
256,192,22650,1,4,0:0:0:0:
256,192,22950,1,12,0:0:0:0:
256,192,23250,1,8,0:0:0:0:
256,192,23325,1,0,0:0:0:0:
256,192,23400,1,0,0:0:0:0:
256,192,23475,1,0,0:0:0:0:
256,192,23550,1,8,0:0:0:0:
256,192,23625,1,0,0:0:0:0:
256,192,23700,1,0,0:0:0:0:
256,192,23775,1,0,0:0:0:0:
256,192,23850,1,8,0:0:0:0:
256,192,23925,1,0,0:0:0:0:
256,192,24000,1,0,0:0:0:0:
256,192,24075,1,0,0:0:0:0:
256,192,24150,1,8,0:0:0:0:
256,192,24300,1,8,0:0:0:0:
256,192,24450,1,8,0:0:0:0:
256,192,24750,1,8,0:0:0:0:
256,192,24900,1,8,0:0:0:0:
256,192,25050,1,8,0:0:0:0:
256,192,25125,1,0,0:0:0:0:
256,192,25200,1,0,0:0:0:0:
256,192,25275,1,0,0:0:0:0:
256,192,25350,1,8,0:0:0:0:
256,192,25500,1,0,0:0:0:0:
256,192,25575,1,0,0:0:0:0:
256,192,25650,1,8,0:0:0:0:
256,192,25800,1,0,0:0:0:0:
256,192,25950,1,8,0:0:0:0:
256,192,26100,1,8,0:0:0:0:
256,192,26250,1,8,0:0:0:0:
256,192,26287,1,8,0:0:0:0:
256,192,26325,1,8,0:0:0:0:
256,192,26362,1,8,0:0:0:0:
256,192,26400,1,8,0:0:0:0:
256,192,26437,1,8,0:0:0:0:
256,192,26475,1,8,0:0:0:0:
256,192,26512,1,8,0:0:0:0:
256,192,26550,1,8,0:0:0:0:
256,192,26700,1,8,0:0:0:0:
256,192,26850,1,8,0:0:0:0:
256,192,26925,1,0,0:0:0:0:
256,192,27000,1,8,0:0:0:0:
256,192,27075,1,0,0:0:0:0:
256,192,27150,1,8,0:0:0:0:
256,192,27225,1,0,0:0:0:0:
256,192,27300,1,0,0:0:0:0:
256,192,27375,1,0,0:0:0:0:
256,192,27450,1,8,0:0:0:0:
256,192,27525,1,8,0:0:0:0:
256,192,27600,1,8,0:0:0:0:
256,192,27675,1,0,0:0:0:0:
256,192,27750,1,8,0:0:0:0:
256,192,27825,1,0,0:0:0:0:
256,192,27900,1,8,0:0:0:0:
256,192,27975,1,0,0:0:0:0:
256,192,28050,1,8,0:0:0:0:
256,192,28125,1,0,0:0:0:0:
256,192,28200,1,8,0:0:0:0:
256,192,28275,1,0,0:0:0:0:
256,192,28350,1,8,0:0:0:0:
256,192,28425,1,0,0:0:0:0:
256,192,28500,1,0,0:0:0:0:
256,192,28575,1,0,0:0:0:0:
256,192,28650,1,0,0:0:0:0:
256,192,28800,1,0,0:0:0:0:
256,192,28950,1,8,0:0:0:0:
256,192,29100,1,8,0:0:0:0:
256,192,29250,1,8,0:0:0:0:
256,192,29325,1,0,0:0:0:0:
256,192,29400,1,8,0:0:0:0:
256,192,29475,1,0,0:0:0:0:
256,192,29550,1,8,0:0:0:0:
256,192,29625,1,0,0:0:0:0:
256,192,29700,1,0,0:0:0:0:
256,192,29775,1,0,0:0:0:0:
256,192,29850,1,8,0:0:0:0:
256,192,29925,1,8,0:0:0:0:
256,192,30000,1,8,0:0:0:0:
256,192,30075,1,0,0:0:0:0:
256,192,30150,1,8,0:0:0:0:
256,192,30225,1,0,0:0:0:0:
256,192,30300,1,8,0:0:0:0:
256,192,30375,1,0,0:0:0:0:
256,192,30450,1,8,0:0:0:0:
256,192,30525,1,0,0:0:0:0:
256,192,30600,1,8,0:0:0:0:
256,192,30675,1,0,0:0:0:0:
256,192,30750,1,8,0:0:0:0:
256,192,30825,1,0,0:0:0:0:
256,192,30900,1,0,0:0:0:0:
256,192,30975,1,0,0:0:0:0:
256,192,31050,1,0,0:0:0:0:
256,192,31125,1,0,0:0:0:0:
256,192,31200,1,0,0:0:0:0:
256,192,31350,1,8,0:0:0:0:
256,192,31425,1,0,0:0:0:0:
256,192,31500,1,0,0:0:0:0:
256,192,31650,1,8,0:0:0:0:
256,192,31725,1,0,0:0:0:0:
256,192,31800,1,8,0:0:0:0:
256,192,31875,1,0,0:0:0:0:
256,192,31950,1,8,0:0:0:0:
256,192,32025,1,0,0:0:0:0:
256,192,32100,1,0,0:0:0:0:
256,192,32175,1,0,0:0:0:0:
256,192,32250,1,8,0:0:0:0:
256,192,32325,1,8,0:0:0:0:
256,192,32400,1,8,0:0:0:0:
256,192,32475,1,0,0:0:0:0:
256,192,32550,1,8,0:0:0:0:
256,192,32625,1,0,0:0:0:0:
256,192,32700,1,8,0:0:0:0:
256,192,32775,1,0,0:0:0:0:
256,192,32850,1,8,0:0:0:0:
256,192,32925,1,0,0:0:0:0:
256,192,33000,1,8,0:0:0:0:
256,192,33075,1,0,0:0:0:0:
256,192,33150,1,8,0:0:0:0:
256,192,33225,1,0,0:0:0:0:
256,192,33300,1,0,0:0:0:0:
256,192,33375,1,0,0:0:0:0:
256,192,33450,1,8,0:0:0:0:
256,192,33525,1,8,0:0:0:0:
256,192,33600,1,8,0:0:0:0:
256,192,33675,1,8,0:0:0:0:
256,192,33750,1,8,0:0:0:0:
256,192,33900,1,0,0:0:0:0:
256,192,34050,1,8,0:0:0:0:
256,192,34125,1,0,0:0:0:0:
256,192,34200,1,8,0:0:0:0:
256,192,34275,1,0,0:0:0:0:
256,192,34350,1,8,0:0:0:0:
256,192,34425,1,0,0:0:0:0:
256,192,34500,1,0,0:0:0:0:
256,192,34575,1,0,0:0:0:0:
256,192,34650,1,8,0:0:0:0:
256,192,34725,1,8,0:0:0:0:
256,192,34800,1,8,0:0:0:0:
256,192,34875,1,0,0:0:0:0:
256,192,34950,1,8,0:0:0:0:
256,192,35025,1,8,0:0:0:0:
256,192,35100,1,8,0:0:0:0:
256,192,35175,1,8,0:0:0:0:
256,192,35250,1,8,0:0:0:0:
256,192,35325,1,8,0:0:0:0:
256,192,35400,1,8,0:0:0:0:
256,192,35475,1,8,0:0:0:0:
256,192,35550,1,8,0:0:0:0:
256,192,35625,1,8,0:0:0:0:
256,192,35700,1,8,0:0:0:0:
256,192,35775,1,8,0:0:0:0:
256,192,35850,1,8,0:0:0:0:
256,192,35887,1,8,0:0:0:0:
256,192,35925,1,8,0:0:0:0:
256,192,35962,1,8,0:0:0:0:
256,192,36000,1,8,0:0:0:0:
256,192,36037,1,8,0:0:0:0:
256,192,36075,1,8,0:0:0:0:
256,192,36112,1,8,0:0:0:0:
256,192,36150,1,8,0:0:0:0:
256,192,36225,1,8,0:0:0:0:
256,192,36300,1,8,0:0:0:0:
256,192,36375,1,0,0:0:0:0:
256,192,36450,1,8,0:0:0:0:
256,192,36525,1,0,0:0:0:0:
256,192,36600,1,8,0:0:0:0:
256,192,36675,1,0,0:0:0:0:
256,192,36750,1,8,0:0:0:0:
256,192,36825,1,8,0:0:0:0:
256,192,36900,1,8,0:0:0:0:
256,192,36975,1,0,0:0:0:0:
256,192,37050,1,8,0:0:0:0:
256,192,37125,1,0,0:0:0:0:
256,192,37200,1,8,0:0:0:0:
256,192,37275,1,0,0:0:0:0:
256,192,37350,1,0,0:0:0:0:
256,192,37425,1,0,0:0:0:0:
256,192,37500,1,0,0:0:0:0:
256,192,37575,1,0,0:0:0:0:
256,192,37650,1,8,0:0:0:0:
256,192,37800,1,4,0:0:0:0:
256,192,37950,1,0,0:0:0:0:
256,192,38100,1,8,0:0:0:0:
256,192,38250,1,0,0:0:0:0:
256,192,38325,1,0,0:0:0:0:
256,192,38400,1,0,0:0:0:0:
256,192,38475,1,0,0:0:0:0:
256,192,38550,1,8,0:0:0:0:
256,192,38625,1,8,0:0:0:0:
256,192,38700,1,8,0:0:0:0:
256,192,38775,1,0,0:0:0:0:
256,192,38850,1,8,0:0:0:0:
256,192,38925,1,0,0:0:0:0:
256,192,39000,1,8,0:0:0:0:
256,192,39075,1,0,0:0:0:0:
256,192,39150,1,8,0:0:0:0:
256,192,39225,1,8,0:0:0:0:
256,192,39300,1,8,0:0:0:0:
256,192,39375,1,0,0:0:0:0:
256,192,39450,1,8,0:0:0:0:
256,192,39525,1,0,0:0:0:0:
256,192,39600,1,8,0:0:0:0:
256,192,39675,1,0,0:0:0:0:
256,192,39750,1,0,0:0:0:0:
256,192,39825,1,0,0:0:0:0:
256,192,39900,1,0,0:0:0:0:
256,192,39975,1,0,0:0:0:0:
256,192,40050,1,8,0:0:0:0:
256,192,40200,1,4,0:0:0:0:
256,192,40350,1,0,0:0:0:0:
256,192,40500,1,8,0:0:0:0:
256,192,40650,1,0,0:0:0:0:
256,192,40725,1,0,0:0:0:0:
256,192,40800,1,0,0:0:0:0:
256,192,40875,1,0,0:0:0:0:
256,192,40950,1,8,0:0:0:0:
256,192,41025,1,8,0:0:0:0:
256,192,41100,1,8,0:0:0:0:
256,192,41175,1,0,0:0:0:0:
256,192,41250,1,8,0:0:0:0:
256,192,41325,1,0,0:0:0:0:
256,192,41400,1,8,0:0:0:0:
256,192,41475,1,0,0:0:0:0:
256,192,41550,1,8,0:0:0:0:
256,192,41625,1,8,0:0:0:0:
256,192,41700,1,8,0:0:0:0:
256,192,41775,1,0,0:0:0:0:
256,192,41850,1,8,0:0:0:0:
256,192,41925,1,0,0:0:0:0:
256,192,42000,1,8,0:0:0:0:
256,192,42075,1,0,0:0:0:0:
256,192,42150,1,0,0:0:0:0:
256,192,42225,1,0,0:0:0:0:
256,192,42300,1,0,0:0:0:0:
256,192,42375,1,0,0:0:0:0:
256,192,42450,1,8,0:0:0:0:
256,192,42600,1,4,0:0:0:0:
256,192,42750,1,0,0:0:0:0:
256,192,42900,1,8,0:0:0:0:
256,192,43050,1,0,0:0:0:0:
256,192,43125,1,0,0:0:0:0:
256,192,43200,1,0,0:0:0:0:
256,192,43275,1,0,0:0:0:0:
256,192,43350,1,8,0:0:0:0:
256,192,43425,1,8,0:0:0:0:
256,192,43500,1,8,0:0:0:0:
256,192,43575,1,0,0:0:0:0:
256,192,43650,1,8,0:0:0:0:
256,192,43725,1,0,0:0:0:0:
256,192,43800,1,8,0:0:0:0:
256,192,43875,1,0,0:0:0:0:
256,192,43950,1,8,0:0:0:0:
256,192,44025,1,8,0:0:0:0:
256,192,44100,1,8,0:0:0:0:
256,192,44175,1,0,0:0:0:0:
256,192,44250,1,8,0:0:0:0:
256,192,44325,1,0,0:0:0:0:
256,192,44400,1,8,0:0:0:0:
256,192,44475,1,0,0:0:0:0:
256,192,44550,1,0,0:0:0:0:
256,192,44625,1,0,0:0:0:0:
256,192,44700,1,0,0:0:0:0:
256,192,44775,1,0,0:0:0:0:
256,192,44850,1,8,0:0:0:0:
256,192,45000,1,4,0:0:0:0:
256,192,45150,1,0,0:0:0:0:
256,192,45300,1,8,0:0:0:0:
256,192,45450,1,0,0:0:0:0:
256,192,45525,1,0,0:0:0:0:
256,192,45600,1,0,0:0:0:0:
256,192,45675,1,0,0:0:0:0:
256,192,45750,1,4,0:0:0:0:
256,192,45900,1,4,0:0:0:0:
256,192,46050,1,4,0:0:0:0:
256,192,46200,1,4,0:0:0:0:
256,192,46350,1,4,0:0:0:0:
256,192,46500,1,4,0:0:0:0:
256,192,46650,1,4,0:0:0:0:
256,192,46800,1,0,0:0:0:0:
256,192,46875,1,0,0:0:0:0:
256,192,46950,1,12,0:0:0:0:
256,192,47250,1,0,0:0:0:0:
256,192,47400,1,12,0:0:0:0:
256,192,47550,1,8,0:0:0:0:
256,192,47587,1,8,0:0:0:0:
256,192,47625,1,8,0:0:0:0:
256,192,47662,1,8,0:0:0:0:
256,192,47700,1,8,0:0:0:0:
256,192,47850,1,8,0:0:0:0:
256,192,47887,1,8,0:0:0:0:
256,192,47925,1,8,0:0:0:0:
256,192,47962,1,8,0:0:0:0:
256,192,48000,1,8,0:0:0:0:
256,192,48037,1,8,0:0:0:0:
256,192,48075,1,8,0:0:0:0:
256,192,48112,1,8,0:0:0:0:
256,192,48150,1,8,0:0:0:0:
256,192,48187,1,0,0:0:0:0:
256,192,48300,1,8,0:0:0:0:
256,192,48337,1,0,0:0:0:0:
256,192,48450,1,8,0:0:0:0:
256,192,48487,1,0,0:0:0:0:
256,192,48600,1,8,0:0:0:0:
256,192,48637,1,0,0:0:0:0:
256,192,48750,1,8,0:0:0:0:
256,192,48787,1,0,0:0:0:0:
256,192,48900,1,8,0:0:0:0:
256,192,48937,1,0,0:0:0:0:
256,192,49050,1,8,0:0:0:0:
256,192,49087,1,0,0:0:0:0:
256,192,49200,1,8,0:0:0:0:
256,192,49237,1,0,0:0:0:0:
256,192,49350,1,0,0:0:0:0:
256,192,49650,1,8,0:0:0:0:
256,192,49800,1,0,0:0:0:0:
256,192,49950,1,8,0:0:0:0:
256,192,49987,1,8,0:0:0:0:
256,192,50025,1,8,0:0:0:0:
256,192,50062,1,8,0:0:0:0:
256,192,50100,1,8,0:0:0:0:
256,192,50250,1,8,0:0:0:0:
256,192,50287,1,8,0:0:0:0:
256,192,50325,1,8,0:0:0:0:
256,192,50362,1,8,0:0:0:0:
256,192,50400,1,8,0:0:0:0:
256,192,50437,1,8,0:0:0:0:
256,192,50475,1,8,0:0:0:0:
256,192,50512,1,8,0:0:0:0:
256,192,50550,1,8,0:0:0:0:
256,192,50700,1,8,0:0:0:0:
256,192,50850,1,8,0:0:0:0:
256,192,51000,1,8,0:0:0:0:
256,192,51150,1,8,0:0:0:0:
256,192,51300,1,8,0:0:0:0:
256,192,51450,1,8,0:0:0:0:
256,192,51600,1,8,0:0:0:0:
256,192,51750,1,12,0:0:0:0:
256,192,52050,1,0,0:0:0:0:
256,192,52200,1,12,0:0:0:0:
256,192,52350,1,0,0:0:0:0:
256,192,52387,1,0,0:0:0:0:
256,192,52425,1,0,0:0:0:0:
256,192,52462,1,0,0:0:0:0:
256,192,52500,1,0,0:0:0:0:
256,192,52650,1,0,0:0:0:0:
256,192,52687,1,0,0:0:0:0:
256,192,52725,1,0,0:0:0:0:
256,192,52762,1,0,0:0:0:0:
256,192,52800,1,0,0:0:0:0:
256,192,52837,1,0,0:0:0:0:
256,192,52875,1,0,0:0:0:0:
256,192,52912,1,0,0:0:0:0:
256,192,52950,1,0,0:0:0:0:
256,192,53100,1,4,0:0:0:0:
256,192,53250,1,4,0:0:0:0:
256,192,53400,1,4,0:0:0:0:
256,192,53550,1,4,0:0:0:0:
256,192,53700,1,4,0:0:0:0:
256,192,53850,1,4,0:0:0:0:
256,192,54000,1,4,0:0:0:0:
256,192,54150,1,12,0:0:0:0:
256,192,54375,1,0,0:0:0:0:
256,192,54450,1,0,0:0:0:0:
256,192,54600,1,12,0:0:0:0:
256,192,54750,1,0,0:0:0:0:
256,192,55200,1,0,0:0:0:0:
256,192,55350,1,0,0:0:0:0:
256,192,55650,1,0,0:0:0:0:
256,192,55950,1,0,0:0:0:0:
256,192,56250,1,0,0:0:0:0:
256,192,56550,1,0,0:0:0:0:
256,192,56700,1,0,0:0:0:0:
256,192,56850,1,0,0:0:0:0:
256,192,57000,1,0,0:0:0:0:
256,192,57150,1,0,0:0:0:0:
256,192,57225,1,0,0:0:0:0:
256,192,57300,1,0,0:0:0:0:
256,192,57375,1,0,0:0:0:0:
256,192,57450,1,8,0:0:0:0:
256,192,57525,1,8,0:0:0:0:
256,192,57600,1,8,0:0:0:0:
256,192,57675,1,8,0:0:0:0:
256,192,57750,1,8,0:0:0:0:
256,192,57975,1,0,0:0:0:0:
256,192,58050,1,8,0:0:0:0:
256,192,58200,1,8,0:0:0:0:
256,192,58350,1,8,0:0:0:0:
256,192,58650,1,8,0:0:0:0:
256,192,58800,1,8,0:0:0:0:
256,192,58875,1,8,0:0:0:0:
256,192,58950,1,0,0:0:0:0:
256,192,59100,1,0,0:0:0:0:
256,192,59250,1,0,0:0:0:0:
256,192,59550,1,0,0:0:0:0:
256,192,59625,1,0,0:0:0:0:
256,192,59700,1,0,0:0:0:0:
256,192,59850,1,8,0:0:0:0:
256,192,60000,1,0,0:0:0:0:
256,192,60150,1,0,0:0:0:0:
256,192,60187,1,0,0:0:0:0:
256,192,60225,1,0,0:0:0:0:
256,192,60262,1,0,0:0:0:0:
256,192,60300,1,0,0:0:0:0:
256,192,60450,1,8,0:0:0:0:
256,192,60600,1,0,0:0:0:0:
256,192,60750,1,0,0:0:0:0:
256,192,60900,1,0,0:0:0:0:
256,192,61050,1,0,0:0:0:0:
256,192,61200,1,8,0:0:0:0:
256,192,61275,1,0,0:0:0:0:
256,192,61350,1,0,0:0:0:0:
256,192,61650,1,8,0:0:0:0:
256,192,61800,1,8,0:0:0:0:
256,192,61950,1,0,0:0:0:0:
256,192,62250,1,0,0:0:0:0:
256,192,62400,1,0,0:0:0:0:
256,192,62550,1,0,0:0:0:0:
256,192,62850,1,12,0:0:0:0:
256,192,63000,1,0,0:0:0:0:
256,192,63300,1,12,0:0:0:0:
256,192,63600,1,0,0:0:0:0:
256,192,63675,1,0,0:0:0:0:
256,192,63750,1,0,0:0:0:0:
256,192,64050,1,12,0:0:0:0:
256,192,64350,1,12,0:0:0:0:
256,192,64500,1,12,0:0:0:0:
256,192,64650,1,12,0:0:0:0:
256,192,64725,1,0,0:0:0:0:
256,192,64800,1,0,0:0:0:0:
256,192,64875,1,0,0:0:0:0:
256,192,64950,1,0,0:0:0:0:
256,192,65100,1,0,0:0:0:0:
256,192,65250,1,12,0:0:0:0:
256,192,65400,1,12,0:0:0:0:
256,192,65550,1,12,0:0:0:0:
256,192,65700,1,12,0:0:0:0:
256,192,65850,1,8,0:0:0:0:
256,192,66000,1,8,0:0:0:0:
256,192,66150,1,0,0:0:0:0:
256,192,66300,1,8,0:0:0:0:
256,192,66450,1,0,0:0:0:0:
256,192,66600,1,0,0:0:0:0:
256,192,66750,1,8,0:0:0:0:
256,192,66825,1,0,0:0:0:0:
256,192,66900,1,0,0:0:0:0:
256,192,66975,1,0,0:0:0:0:
256,192,67050,1,8,0:0:0:0:
256,192,67125,1,0,0:0:0:0:
256,192,67200,1,0,0:0:0:0:
256,192,67275,1,0,0:0:0:0:
256,192,67350,1,8,0:0:0:0:
256,192,67425,1,8,0:0:0:0:
256,192,67500,1,8,0:0:0:0:
256,192,67575,1,0,0:0:0:0:
256,192,67650,1,8,0:0:0:0:
256,192,67725,1,0,0:0:0:0:
256,192,67800,1,8,0:0:0:0:
256,192,67875,1,0,0:0:0:0:
256,192,67950,1,8,0:0:0:0:
256,192,68025,1,0,0:0:0:0:
256,192,68100,1,0,0:0:0:0:
256,192,68175,1,0,0:0:0:0:
256,192,68250,1,8,0:0:0:0:
256,192,68400,1,8,0:0:0:0:
256,192,68550,1,8,0:0:0:0:
256,192,68625,1,0,0:0:0:0:
256,192,68700,1,0,0:0:0:0:
256,192,68775,1,0,0:0:0:0:
256,192,68850,1,8,0:0:0:0:
256,192,68925,1,0,0:0:0:0:
256,192,69000,1,8,0:0:0:0:
256,192,69150,1,8,0:0:0:0:
256,192,69300,1,8,0:0:0:0:
256,192,69450,1,0,0:0:0:0:
256,192,69487,1,0,0:0:0:0:
256,192,69525,1,0,0:0:0:0:
256,192,69562,1,0,0:0:0:0:
256,192,69600,1,0,0:0:0:0:
256,192,69750,1,8,0:0:0:0:
256,192,69825,1,8,0:0:0:0:
256,192,69900,1,8,0:0:0:0:
256,192,69975,1,0,0:0:0:0:
256,192,70050,1,8,0:0:0:0:
256,192,70125,1,0,0:0:0:0:
256,192,70200,1,8,0:0:0:0:
256,192,70275,1,0,0:0:0:0:
256,192,70350,1,8,0:0:0:0:
256,192,70425,1,0,0:0:0:0:
256,192,70500,1,0,0:0:0:0:
256,192,70575,1,0,0:0:0:0:
256,192,70650,1,8,0:0:0:0:
256,192,70800,1,8,0:0:0:0:
256,192,70950,1,8,0:0:0:0:
256,192,71025,1,0,0:0:0:0:
256,192,71100,1,0,0:0:0:0:
256,192,71175,1,0,0:0:0:0:
256,192,71250,1,8,0:0:0:0:
256,192,71325,1,0,0:0:0:0:
256,192,71400,1,8,0:0:0:0:
256,192,71550,1,8,0:0:0:0:
256,192,71700,1,8,0:0:0:0:
256,192,71850,1,8,0:0:0:0:
256,192,71925,1,0,0:0:0:0:
256,192,72000,1,8,0:0:0:0:
256,192,72075,1,0,0:0:0:0:
256,192,72150,1,8,0:0:0:0:
256,192,72225,1,8,0:0:0:0:
256,192,72300,1,8,0:0:0:0:
256,192,72375,1,0,0:0:0:0:
256,192,72450,1,8,0:0:0:0:
256,192,72525,1,0,0:0:0:0:
256,192,72600,1,8,0:0:0:0:
256,192,72675,1,0,0:0:0:0:
256,192,72750,1,8,0:0:0:0:
256,192,72825,1,0,0:0:0:0:
256,192,72900,1,0,0:0:0:0:
256,192,72975,1,0,0:0:0:0:
256,192,73050,1,8,0:0:0:0:
256,192,73200,1,8,0:0:0:0:
256,192,73350,1,8,0:0:0:0:
256,192,73425,1,0,0:0:0:0:
256,192,73500,1,0,0:0:0:0:
256,192,73575,1,0,0:0:0:0:
256,192,73650,1,8,0:0:0:0:
256,192,73725,1,0,0:0:0:0:
256,192,73800,1,8,0:0:0:0:
256,192,73950,1,8,0:0:0:0:
256,192,74025,1,0,0:0:0:0:
256,192,74100,1,8,0:0:0:0:
256,192,74250,1,0,0:0:0:0:
256,192,74287,1,0,0:0:0:0:
256,192,74325,1,0,0:0:0:0:
256,192,74362,1,0,0:0:0:0:
256,192,74400,1,0,0:0:0:0:
256,192,74437,1,0,0:0:0:0:
256,192,74475,1,0,0:0:0:0:
256,192,74512,1,0,0:0:0:0:
256,192,74550,1,8,0:0:0:0:
256,192,74625,1,8,0:0:0:0:
256,192,74700,1,8,0:0:0:0:
256,192,74775,1,0,0:0:0:0:
256,192,74850,1,8,0:0:0:0:
256,192,74925,1,0,0:0:0:0:
256,192,75000,1,8,0:0:0:0:
256,192,75075,1,0,0:0:0:0:
256,192,75150,1,8,0:0:0:0:
256,192,75225,1,0,0:0:0:0:
256,192,75300,1,0,0:0:0:0:
256,192,75375,1,0,0:0:0:0:
256,192,75450,1,8,0:0:0:0:
256,192,75600,1,8,0:0:0:0:
256,192,75750,1,8,0:0:0:0:
256,192,75825,1,0,0:0:0:0:
256,192,75900,1,0,0:0:0:0:
256,192,75975,1,0,0:0:0:0:
256,192,76050,1,8,0:0:0:0:
256,192,76125,1,0,0:0:0:0:
256,192,76200,1,8,0:0:0:0:
256,192,76350,1,8,0:0:0:0:
256,192,76500,1,8,0:0:0:0:
256,192,76650,1,0,0:0:0:0:
256,192,76687,1,0,0:0:0:0:
256,192,76725,1,0,0:0:0:0:
256,192,76762,1,0,0:0:0:0:
256,192,76800,1,0,0:0:0:0:
256,192,76950,12,0,77400,0:0:0:0:
256,192,77400,12,0,78000,0:0:0:0:
256,192,78150,5,0,0:0:0:0:
256,192,78225,1,0,0:0:0:0:
256,192,78300,1,0,0:0:0:0:
256,192,78375,1,0,0:0:0:0:
256,192,78450,1,8,0:0:0:0:
256,192,78525,1,0,0:0:0:0:
256,192,78600,1,0,0:0:0:0:
256,192,78750,1,0,0:0:0:0:
256,192,78825,1,0,0:0:0:0:
256,192,78900,1,0,0:0:0:0:
256,192,79350,12,0,80700,0:0:0:0:
256,192,80850,5,0,0:0:0:0:
256,192,80925,1,0,0:0:0:0:
256,192,81000,1,0,0:0:0:0:
256,192,81150,1,8,0:0:0:0:
256,192,81225,1,0,0:0:0:0:
256,192,81300,1,0,0:0:0:0:
256,192,81450,1,0,0:0:0:0:
256,192,81525,1,0,0:0:0:0:
256,192,81600,1,0,0:0:0:0:
256,192,81675,1,0,0:0:0:0:
256,192,81750,1,8,0:0:0:0:
256,192,81825,1,8,0:0:0:0:
256,192,81900,1,8,0:0:0:0:
256,192,82050,1,0,0:0:0:0:
256,192,82125,1,0,0:0:0:0:
256,192,82200,1,0,0:0:0:0:
256,192,82350,1,0,0:0:0:0:
256,192,82425,1,0,0:0:0:0:
256,192,82500,1,0,0:0:0:0:
256,192,82650,1,0,0:0:0:0:
256,192,82687,12,0,83700,0:0:0:0:
256,192,83850,5,0,0:0:0:0:
256,192,83925,1,0,0:0:0:0:
256,192,84000,1,0,0:0:0:0:
256,192,84150,1,0,0:0:0:0:
256,192,84300,1,0,0:0:0:0:
256,192,84450,1,0,0:0:0:0:
256,192,84525,1,0,0:0:0:0:
256,192,84600,1,0,0:0:0:0:
256,192,84675,1,0,0:0:0:0:
256,192,84750,1,0,0:0:0:0:
256,192,84825,1,0,0:0:0:0:
256,192,84900,1,0,0:0:0:0:
256,192,84975,1,0,0:0:0:0:
256,192,85050,1,8,0:0:0:0:
256,192,85125,1,8,0:0:0:0:
256,192,85200,1,8,0:0:0:0:
256,192,85275,1,8,0:0:0:0:
256,192,85350,1,8,0:0:0:0:
256,192,85425,1,8,0:0:0:0:
256,192,85500,1,8,0:0:0:0:
256,192,85575,1,8,0:0:0:0:
256,192,85650,1,0,0:0:0:0:
256,192,85725,1,0,0:0:0:0:
256,192,85800,1,0,0:0:0:0:
256,192,85875,1,0,0:0:0:0:
256,192,85950,1,0,0:0:0:0:
256,192,86025,1,0,0:0:0:0:
256,192,86100,1,0,0:0:0:0:
256,192,86175,1,0,0:0:0:0:
256,192,86250,1,8,0:0:0:0:
256,192,86325,1,8,0:0:0:0:
256,192,86400,1,8,0:0:0:0:
256,192,86475,1,8,0:0:0:0:
256,192,86550,1,8,0:0:0:0:
256,192,86625,1,8,0:0:0:0:
256,192,86700,1,8,0:0:0:0:
256,192,86775,1,8,0:0:0:0:
256,192,86850,1,0,0:0:0:0:
256,192,86925,1,0,0:0:0:0:
256,192,87000,1,0,0:0:0:0:
256,192,87075,1,0,0:0:0:0:
256,192,87150,1,0,0:0:0:0:
256,192,87225,1,0,0:0:0:0:
256,192,87300,1,0,0:0:0:0:
256,192,87375,1,0,0:0:0:0:
256,192,87450,1,8,0:0:0:0:
256,192,87525,1,8,0:0:0:0:
256,192,87600,1,8,0:0:0:0:
256,192,87675,1,8,0:0:0:0:
256,192,87750,1,8,0:0:0:0:
256,192,87825,1,8,0:0:0:0:
256,192,87900,1,8,0:0:0:0:
256,192,87975,1,8,0:0:0:0:
256,192,88050,1,0,0:0:0:0:
256,192,88125,1,0,0:0:0:0:
256,192,88200,1,0,0:0:0:0:
256,192,88275,1,0,0:0:0:0:
256,192,88350,1,0,0:0:0:0:
256,192,88425,1,0,0:0:0:0:
256,192,88500,1,0,0:0:0:0:
256,192,88575,1,0,0:0:0:0:
256,192,88650,1,8,0:0:0:0:
256,192,88725,1,8,0:0:0:0:
256,192,88800,1,8,0:0:0:0:
256,192,88875,1,8,0:0:0:0:
256,192,88950,1,8,0:0:0:0:
256,192,89025,1,8,0:0:0:0:
256,192,89100,1,8,0:0:0:0:
256,192,89175,1,8,0:0:0:0:
256,192,89250,1,0,0:0:0:0:
256,192,89325,1,0,0:0:0:0:
256,192,89400,1,0,0:0:0:0:
256,192,89475,1,0,0:0:0:0:
256,192,89550,1,0,0:0:0:0:
256,192,89625,1,0,0:0:0:0:
256,192,89700,1,0,0:0:0:0:
256,192,89775,1,0,0:0:0:0:
256,192,89850,1,8,0:0:0:0:
256,192,89925,1,8,0:0:0:0:
256,192,90000,1,8,0:0:0:0:
256,192,90075,1,8,0:0:0:0:
256,192,90150,1,8,0:0:0:0:
256,192,90225,1,8,0:0:0:0:
256,192,90300,1,8,0:0:0:0:
256,192,90375,1,8,0:0:0:0:
256,192,90450,1,0,0:0:0:0:
256,192,90525,1,0,0:0:0:0:
256,192,90600,1,0,0:0:0:0:
256,192,90675,1,0,0:0:0:0:
256,192,90750,1,0,0:0:0:0:
256,192,90825,1,0,0:0:0:0:
256,192,90900,1,0,0:0:0:0:
256,192,90975,1,0,0:0:0:0:
256,192,91050,1,8,0:0:0:0:
256,192,91125,1,8,0:0:0:0:
256,192,91200,1,8,0:0:0:0:
256,192,91275,1,8,0:0:0:0:
256,192,91350,1,8,0:0:0:0:
256,192,91425,1,8,0:0:0:0:
256,192,91500,1,8,0:0:0:0:
256,192,91575,1,8,0:0:0:0:
256,192,91650,1,0,0:0:0:0:
256,192,91725,1,0,0:0:0:0:
256,192,91800,1,0,0:0:0:0:
256,192,91875,1,0,0:0:0:0:
256,192,91950,1,0,0:0:0:0:
256,192,92025,1,0,0:0:0:0:
256,192,92100,1,0,0:0:0:0:
256,192,92175,1,0,0:0:0:0:
256,192,92250,1,8,0:0:0:0:
256,192,92325,1,8,0:0:0:0:
256,192,92400,1,8,0:0:0:0:
256,192,92475,1,8,0:0:0:0:
256,192,92550,1,8,0:0:0:0:
256,192,92625,1,8,0:0:0:0:
256,192,92700,1,8,0:0:0:0:
256,192,92775,1,8,0:0:0:0:
256,192,92850,1,0,0:0:0:0:
256,192,92925,1,0,0:0:0:0:
256,192,93000,1,0,0:0:0:0:
256,192,93075,1,0,0:0:0:0:
256,192,93150,1,0,0:0:0:0:
256,192,93225,1,0,0:0:0:0:
256,192,93300,1,0,0:0:0:0:
256,192,93375,1,0,0:0:0:0:
256,192,93450,1,8,0:0:0:0:
256,192,93525,1,8,0:0:0:0:
256,192,93600,1,8,0:0:0:0:
256,192,93675,1,8,0:0:0:0:
256,192,93750,1,8,0:0:0:0:
256,192,93825,1,8,0:0:0:0:
256,192,93900,1,8,0:0:0:0:
256,192,93975,1,8,0:0:0:0:
256,192,94050,1,0,0:0:0:0:
256,192,94125,1,0,0:0:0:0:
256,192,94200,1,0,0:0:0:0:
256,192,94275,1,0,0:0:0:0:
256,192,94350,1,0,0:0:0:0:
256,192,94425,1,0,0:0:0:0:
256,192,94500,1,0,0:0:0:0:
256,192,94575,1,0,0:0:0:0:
256,192,94650,1,8,0:0:0:0:
256,192,94725,1,8,0:0:0:0:
256,192,94800,1,8,0:0:0:0:
256,192,94875,1,8,0:0:0:0:
256,192,94950,1,8,0:0:0:0:
256,192,95025,1,8,0:0:0:0:
256,192,95100,1,8,0:0:0:0:
256,192,95175,1,8,0:0:0:0:
256,192,95250,1,8,0:0:0:0:
256,192,95287,1,8,0:0:0:0:
256,192,95325,1,8,0:0:0:0:
256,192,95362,1,8,0:0:0:0:
256,192,95400,1,8,0:0:0:0:
256,192,95437,1,8,0:0:0:0:
256,192,95475,1,8,0:0:0:0:
256,192,95512,1,8,0:0:0:0:
256,192,95550,1,8,0:0:0:0:
256,192,95587,1,8,0:0:0:0:
256,192,95625,1,8,0:0:0:0:
256,192,95662,1,8,0:0:0:0:
256,192,95700,1,8,0:0:0:0:
256,192,95737,1,8,0:0:0:0:
256,192,95775,1,8,0:0:0:0:
256,192,95812,1,8,0:0:0:0:
256,192,95850,1,8,0:0:0:0:
256,192,95887,1,8,0:0:0:0:
256,192,95925,1,8,0:0:0:0:
256,192,95962,1,8,0:0:0:0:
256,192,96000,1,8,0:0:0:0:
256,192,96037,1,8,0:0:0:0:
256,192,96075,1,8,0:0:0:0:
256,192,96112,1,8,0:0:0:0:
256,192,96150,1,8,0:0:0:0:
256,192,96187,1,8,0:0:0:0:
256,192,96225,1,8,0:0:0:0:
256,192,96262,1,8,0:0:0:0:
256,192,96300,1,8,0:0:0:0:
256,192,96337,1,8,0:0:0:0:
256,192,96375,1,8,0:0:0:0:
256,192,96412,1,8,0:0:0:0:
256,192,96450,1,8,0:0:0:0:
256,192,96487,1,8,0:0:0:0:
256,192,96525,1,8,0:0:0:0:
256,192,96562,1,8,0:0:0:0:
256,192,96600,1,8,0:0:0:0:
256,192,96637,1,8,0:0:0:0:
256,192,96675,1,8,0:0:0:0:
256,192,96712,1,8,0:0:0:0:
256,192,96750,1,8,0:0:0:0:
256,192,97725,1,12,0:0:0:0:
256,192,97762,1,0,0:0:0:0:
256,192,97875,1,8,0:0:0:0:
256,192,97912,1,0,0:0:0:0:
256,192,98025,1,8,0:0:0:0:
256,192,98062,1,0,0:0:0:0:
256,192,98175,1,8,0:0:0:0:
256,192,98212,1,0,0:0:0:0:
256,192,98325,1,8,0:0:0:0:
256,192,98362,1,0,0:0:0:0:
256,192,98475,1,8,0:0:0:0:
256,192,98512,1,0,0:0:0:0:
256,192,98625,1,8,0:0:0:0:
256,192,98662,1,0,0:0:0:0:
256,192,98775,1,8,0:0:0:0:
256,192,98812,1,0,0:0:0:0:
256,192,98925,1,8,0:0:0:0:
256,192,99000,1,0,0:0:0:0:
256,192,99075,1,0,0:0:0:0:
256,192,99150,1,0,0:0:0:0:
256,192,99225,1,8,0:0:0:0:
256,192,99300,1,0,0:0:0:0:
256,192,99375,1,8,0:0:0:0:
256,192,99450,1,0,0:0:0:0:
256,192,99525,1,8,0:0:0:0:
256,192,99600,1,8,0:0:0:0:
256,192,99675,1,8,0:0:0:0:
256,192,99750,1,0,0:0:0:0:
256,192,99825,1,0,0:0:0:0:
256,192,99900,1,0,0:0:0:0:
256,192,99975,1,0,0:0:0:0:
256,192,100050,1,0,0:0:0:0:
256,192,100125,1,8,0:0:0:0:
256,192,100162,1,0,0:0:0:0:
256,192,100275,1,8,0:0:0:0:
256,192,100312,1,0,0:0:0:0:
256,192,100425,1,8,0:0:0:0:
256,192,100462,1,0,0:0:0:0:
256,192,100575,1,8,0:0:0:0:
256,192,100612,1,0,0:0:0:0:
256,192,100725,1,8,0:0:0:0:
256,192,100762,1,0,0:0:0:0:
256,192,100875,1,8,0:0:0:0:
256,192,100912,1,0,0:0:0:0:
256,192,101025,1,8,0:0:0:0:
256,192,101062,1,0,0:0:0:0:
256,192,101175,1,8,0:0:0:0:
256,192,101212,1,0,0:0:0:0:
256,192,101325,1,8,0:0:0:0:
256,192,101400,1,0,0:0:0:0:
256,192,101475,1,0,0:0:0:0:
256,192,101550,1,0,0:0:0:0:
256,192,101625,1,8,0:0:0:0:
256,192,101700,1,0,0:0:0:0:
256,192,101775,1,8,0:0:0:0:
256,192,101850,1,0,0:0:0:0:
256,192,101925,1,8,0:0:0:0:
256,192,102000,1,8,0:0:0:0:
256,192,102075,1,8,0:0:0:0:
256,192,102150,1,0,0:0:0:0:
256,192,102225,1,0,0:0:0:0:
256,192,102300,1,0,0:0:0:0:
256,192,102375,1,0,0:0:0:0:
256,192,102450,1,0,0:0:0:0:
256,192,102525,1,8,0:0:0:0:
256,192,102600,1,0,0:0:0:0:
256,192,102675,1,0,0:0:0:0:
256,192,102750,1,0,0:0:0:0:
256,192,102825,1,8,0:0:0:0:
256,192,102900,1,0,0:0:0:0:
256,192,102975,1,0,0:0:0:0:
256,192,103050,1,0,0:0:0:0:
256,192,103125,1,8,0:0:0:0:
256,192,103200,1,0,0:0:0:0:
256,192,103275,1,0,0:0:0:0:
256,192,103350,1,0,0:0:0:0:
256,192,103425,1,8,0:0:0:0:
256,192,103500,1,0,0:0:0:0:
256,192,103575,1,0,0:0:0:0:
256,192,103650,1,0,0:0:0:0:
256,192,103725,1,8,0:0:0:0:
256,192,103800,1,0,0:0:0:0:
256,192,103875,1,0,0:0:0:0:
256,192,103950,1,0,0:0:0:0:
256,192,104025,1,8,0:0:0:0:
256,192,104100,1,0,0:0:0:0:
256,192,104175,1,8,0:0:0:0:
256,192,104250,1,0,0:0:0:0:
256,192,104325,1,8,0:0:0:0:
256,192,104400,1,8,0:0:0:0:
256,192,104475,1,8,0:0:0:0:
256,192,104550,1,0,0:0:0:0:
256,192,104625,1,8,0:0:0:0:
256,192,104700,1,0,0:0:0:0:
256,192,104775,1,8,0:0:0:0:
256,192,104850,1,0,0:0:0:0:
256,192,104925,1,8,0:0:0:0:
256,192,104962,1,0,0:0:0:0:
256,192,105075,1,8,0:0:0:0:
256,192,105112,1,0,0:0:0:0:
256,192,105225,1,8,0:0:0:0:
256,192,105262,1,0,0:0:0:0:
256,192,105375,1,8,0:0:0:0:
256,192,105412,1,0,0:0:0:0:
256,192,105525,1,8,0:0:0:0:
256,192,105562,1,0,0:0:0:0:
256,192,105675,1,8,0:0:0:0:
256,192,105712,1,0,0:0:0:0:
256,192,105825,1,8,0:0:0:0:
256,192,105862,1,0,0:0:0:0:
256,192,105975,1,8,0:0:0:0:
256,192,106012,1,0,0:0:0:0:
256,192,106125,1,8,0:0:0:0:
256,192,106200,1,0,0:0:0:0:
256,192,106275,1,0,0:0:0:0:
256,192,106350,1,0,0:0:0:0:
256,192,106425,1,8,0:0:0:0:
256,192,106575,1,8,0:0:0:0:
256,192,106725,1,8,0:0:0:0:
256,192,106800,1,0,0:0:0:0:
256,192,106875,1,0,0:0:0:0:
256,192,106950,1,0,0:0:0:0:
256,192,107025,1,0,0:0:0:0:
256,192,107100,1,0,0:0:0:0:
256,192,107175,1,0,0:0:0:0:
256,192,107250,1,0,0:0:0:0:
256,192,107325,1,8,0:0:0:0:
256,192,107400,1,0,0:0:0:0:
256,192,107475,1,8,0:0:0:0:
256,192,107550,1,0,0:0:0:0:
256,192,107625,1,8,0:0:0:0:
256,192,107700,1,0,0:0:0:0:
256,192,107775,1,8,0:0:0:0:
256,192,107850,1,0,0:0:0:0:
256,192,107925,1,8,0:0:0:0:
256,192,108000,1,0,0:0:0:0:
256,192,108075,1,8,0:0:0:0:
256,192,108150,1,0,0:0:0:0:
256,192,108225,1,8,0:0:0:0:
256,192,108300,1,0,0:0:0:0:
256,192,108375,1,8,0:0:0:0:
256,192,108450,1,0,0:0:0:0:
256,192,108525,1,8,0:0:0:0:
256,192,108600,1,8,0:0:0:0:
256,192,108675,1,8,0:0:0:0:
256,192,108750,1,0,0:0:0:0:
256,192,108825,1,8,0:0:0:0:
256,192,108900,1,0,0:0:0:0:
256,192,108975,1,8,0:0:0:0:
256,192,109050,1,0,0:0:0:0:
256,192,109125,1,8,0:0:0:0:
256,192,109200,1,8,0:0:0:0:
256,192,109275,1,8,0:0:0:0:
256,192,109350,1,0,0:0:0:0:
256,192,109425,1,8,0:0:0:0:
256,192,109462,1,0,0:0:0:0:
256,192,109500,1,0,0:0:0:0:
256,192,109537,1,0,0:0:0:0:
256,192,109575,1,0,0:0:0:0:
256,192,109612,1,0,0:0:0:0:
256,192,109650,1,0,0:0:0:0:
256,192,109687,1,0,0:0:0:0:
256,192,109725,1,8,0:0:0:0:
256,192,109762,1,0,0:0:0:0:
256,192,109875,1,8,0:0:0:0:
256,192,109912,1,0,0:0:0:0:
256,192,110025,1,8,0:0:0:0:
256,192,110062,1,0,0:0:0:0:
256,192,110175,1,8,0:0:0:0:
256,192,110212,1,0,0:0:0:0:
256,192,110325,1,8,0:0:0:0:
256,192,110362,1,0,0:0:0:0:
256,192,110475,1,8,0:0:0:0:
256,192,110512,1,0,0:0:0:0:
256,192,110625,1,8,0:0:0:0:
256,192,110662,1,0,0:0:0:0:
256,192,110775,1,8,0:0:0:0:
256,192,110812,1,0,0:0:0:0:
256,192,110925,1,8,0:0:0:0:
256,192,111000,1,8,0:0:0:0:
256,192,111075,1,8,0:0:0:0:
256,192,111150,1,0,0:0:0:0:
256,192,111225,1,8,0:0:0:0:
256,192,111300,1,0,0:0:0:0:
256,192,111375,1,8,0:0:0:0:
256,192,111450,1,0,0:0:0:0:
256,192,111525,1,8,0:0:0:0:
256,192,111600,1,8,0:0:0:0:
256,192,111675,1,8,0:0:0:0:
256,192,111750,1,0,0:0:0:0:
256,192,111825,1,8,0:0:0:0:
256,192,111862,1,0,0:0:0:0:
256,192,111900,1,0,0:0:0:0:
256,192,111937,1,0,0:0:0:0:
256,192,111975,1,0,0:0:0:0:
256,192,112012,1,0,0:0:0:0:
256,192,112050,1,0,0:0:0:0:
256,192,112087,1,0,0:0:0:0:
256,192,112125,1,8,0:0:0:0:
256,192,112200,1,0,0:0:0:0:
256,192,112275,1,8,0:0:0:0:
256,192,112350,1,0,0:0:0:0:
256,192,112425,1,8,0:0:0:0:
256,192,112500,1,0,0:0:0:0:
256,192,112575,1,8,0:0:0:0:
256,192,112650,1,0,0:0:0:0:
256,192,112725,1,8,0:0:0:0:
256,192,112800,1,0,0:0:0:0:
256,192,112875,1,8,0:0:0:0:
256,192,112950,1,0,0:0:0:0:
256,192,113025,1,8,0:0:0:0:
256,192,113100,1,0,0:0:0:0:
256,192,113175,1,8,0:0:0:0:
256,192,113250,1,0,0:0:0:0:
256,192,113325,1,8,0:0:0:0:
256,192,113400,1,8,0:0:0:0:
256,192,113475,1,8,0:0:0:0:
256,192,113550,1,0,0:0:0:0:
256,192,113625,1,8,0:0:0:0:
256,192,113700,1,0,0:0:0:0:
256,192,113775,1,8,0:0:0:0:
256,192,113850,1,0,0:0:0:0:
256,192,113925,1,8,0:0:0:0:
256,192,114000,1,8,0:0:0:0:
256,192,114075,1,8,0:0:0:0:
256,192,114150,1,0,0:0:0:0:
256,192,114225,1,8,0:0:0:0:
256,192,114262,1,0,0:0:0:0:
256,192,114300,1,0,0:0:0:0:
256,192,114337,1,0,0:0:0:0:
256,192,114375,1,0,0:0:0:0:
256,192,114412,1,0,0:0:0:0:
256,192,114450,1,0,0:0:0:0:
256,192,114487,1,0,0:0:0:0:
256,192,114525,1,8,0:0:0:0:
256,192,114562,1,0,0:0:0:0:
256,192,114675,1,8,0:0:0:0:
256,192,114712,1,0,0:0:0:0:
256,192,114825,1,8,0:0:0:0:
256,192,114862,1,0,0:0:0:0:
256,192,114975,1,8,0:0:0:0:
256,192,115012,1,0,0:0:0:0:
256,192,115125,1,8,0:0:0:0:
256,192,115162,1,0,0:0:0:0:
256,192,115275,1,8,0:0:0:0:
256,192,115312,1,0,0:0:0:0:
256,192,115425,1,8,0:0:0:0:
256,192,115462,1,0,0:0:0:0:
256,192,115575,1,8,0:0:0:0:
256,192,115612,1,0,0:0:0:0:
256,192,115725,1,8,0:0:0:0:
256,192,115800,1,8,0:0:0:0:
256,192,115875,1,8,0:0:0:0:
256,192,115950,1,0,0:0:0:0:
256,192,116025,1,8,0:0:0:0:
256,192,116100,1,0,0:0:0:0:
256,192,116175,1,8,0:0:0:0:
256,192,116250,1,0,0:0:0:0:
256,192,116325,1,8,0:0:0:0:
256,192,116400,1,8,0:0:0:0:
256,192,116475,1,8,0:0:0:0:
256,192,116550,1,0,0:0:0:0:
256,192,116625,1,8,0:0:0:0:
256,192,116662,1,0,0:0:0:0:
256,192,116700,1,0,0:0:0:0:
256,192,116737,1,0,0:0:0:0:
256,192,116775,1,0,0:0:0:0:
256,192,116812,1,0,0:0:0:0:
256,192,116850,1,0,0:0:0:0:
256,192,116887,1,0,0:0:0:0:
256,192,116925,1,8,0:0:0:0:
256,192,117000,1,0,0:0:0:0:
256,192,117075,1,8,0:0:0:0:
256,192,117150,1,0,0:0:0:0:
256,192,117225,1,8,0:0:0:0:
256,192,117300,1,0,0:0:0:0:
256,192,117375,1,8,0:0:0:0:
256,192,117450,1,0,0:0:0:0:
256,192,117525,1,8,0:0:0:0:
256,192,117600,1,0,0:0:0:0:
256,192,117675,1,8,0:0:0:0:
256,192,117750,1,0,0:0:0:0:
256,192,117825,1,8,0:0:0:0:
256,192,117900,1,0,0:0:0:0:
256,192,117975,1,8,0:0:0:0:
256,192,118050,1,0,0:0:0:0:
256,192,118125,1,8,0:0:0:0:
256,192,118200,1,8,0:0:0:0:
256,192,118275,1,8,0:0:0:0:
256,192,118350,1,0,0:0:0:0:
256,192,118425,1,8,0:0:0:0:
256,192,118500,1,0,0:0:0:0:
256,192,118575,1,8,0:0:0:0:
256,192,118650,1,0,0:0:0:0:
256,192,118725,1,8,0:0:0:0:
256,192,118800,1,8,0:0:0:0:
256,192,118875,1,8,0:0:0:0:
256,192,118950,1,0,0:0:0:0:
256,192,119025,1,8,0:0:0:0:
256,192,119062,1,0,0:0:0:0:
256,192,119100,1,0,0:0:0:0:
256,192,119137,1,0,0:0:0:0:
256,192,119175,1,0,0:0:0:0:
256,192,119212,1,0,0:0:0:0:
256,192,119250,1,0,0:0:0:0:
256,192,119287,1,0,0:0:0:0:
256,192,119325,1,8,0:0:0:0:
256,192,119362,1,0,0:0:0:0:
256,192,119475,1,8,0:0:0:0:
256,192,119512,1,0,0:0:0:0:
256,192,119625,1,8,0:0:0:0:
256,192,119662,1,0,0:0:0:0:
256,192,119775,1,8,0:0:0:0:
256,192,119812,1,0,0:0:0:0:
256,192,119925,1,8,0:0:0:0:
256,192,119962,1,0,0:0:0:0:
256,192,120075,1,8,0:0:0:0:
256,192,120112,1,0,0:0:0:0:
256,192,120225,1,8,0:0:0:0:
256,192,120262,1,0,0:0:0:0:
256,192,120375,1,8,0:0:0:0:
256,192,120412,1,0,0:0:0:0:
256,192,120525,1,8,0:0:0:0:
256,192,120600,1,8,0:0:0:0:
256,192,120675,1,8,0:0:0:0:
256,192,120750,1,0,0:0:0:0:
256,192,120825,1,8,0:0:0:0:
256,192,120900,1,0,0:0:0:0:
256,192,120975,1,8,0:0:0:0:
256,192,121050,1,0,0:0:0:0:
256,192,121125,1,8,0:0:0:0:
256,192,121200,1,8,0:0:0:0:
256,192,121275,1,8,0:0:0:0:
256,192,121350,1,0,0:0:0:0:
256,192,121425,1,8,0:0:0:0:
256,192,121462,1,0,0:0:0:0:
256,192,121500,1,0,0:0:0:0:
256,192,121537,1,0,0:0:0:0:
256,192,121575,1,0,0:0:0:0:
256,192,121612,1,0,0:0:0:0:
256,192,121650,1,0,0:0:0:0:
256,192,121687,1,0,0:0:0:0:
256,192,121725,1,8,0:0:0:0:
256,192,121800,1,0,0:0:0:0:
256,192,121875,1,0,0:0:0:0:
256,192,121950,1,0,0:0:0:0:
256,192,122025,1,8,0:0:0:0:
256,192,122100,1,0,0:0:0:0:
256,192,122175,1,0,0:0:0:0:
256,192,122250,1,0,0:0:0:0:
256,192,122325,1,8,0:0:0:0:
256,192,122400,1,0,0:0:0:0:
256,192,122475,1,0,0:0:0:0:
256,192,122550,1,0,0:0:0:0:
256,192,122625,1,8,0:0:0:0:
256,192,122700,1,0,0:0:0:0:
256,192,122775,1,0,0:0:0:0:
256,192,122850,1,0,0:0:0:0:
256,192,122925,1,8,0:0:0:0:
256,192,123000,1,0,0:0:0:0:
256,192,123075,1,8,0:0:0:0:
256,192,123150,1,0,0:0:0:0:
256,192,123225,1,8,0:0:0:0:
256,192,123300,1,8,0:0:0:0:
256,192,123375,1,8,0:0:0:0:
256,192,123450,1,0,0:0:0:0:
256,192,123525,1,8,0:0:0:0:
256,192,123600,1,8,0:0:0:0:
256,192,123675,1,8,0:0:0:0:
256,192,123750,1,0,0:0:0:0:
256,192,123825,1,0,0:0:0:0:
256,192,123862,1,0,0:0:0:0:
256,192,123900,1,0,0:0:0:0:
256,192,123937,1,0,0:0:0:0:
256,192,123975,1,0,0:0:0:0:
256,192,124012,1,0,0:0:0:0:
256,192,124050,1,0,0:0:0:0:
256,192,124087,1,0,0:0:0:0:
256,192,124125,1,8,0:0:0:0:
256,192,124162,1,0,0:0:0:0:
256,192,124275,1,8,0:0:0:0:
256,192,124312,1,0,0:0:0:0:
256,192,124425,1,8,0:0:0:0:
256,192,124462,1,0,0:0:0:0:
256,192,124575,1,8,0:0:0:0:
256,192,124612,1,0,0:0:0:0:
256,192,124725,1,8,0:0:0:0:
256,192,124762,1,0,0:0:0:0:
256,192,124875,1,8,0:0:0:0:
256,192,124912,1,0,0:0:0:0:
256,192,125025,1,8,0:0:0:0:
256,192,125062,1,0,0:0:0:0:
256,192,125175,1,8,0:0:0:0:
256,192,125212,1,0,0:0:0:0:
256,192,125325,1,8,0:0:0:0:
256,192,125400,1,0,0:0:0:0:
256,192,125475,1,0,0:0:0:0:
256,192,125550,1,0,0:0:0:0:
256,192,125625,1,8,0:0:0:0:
256,192,125700,1,0,0:0:0:0:
256,192,125775,1,8,0:0:0:0:
256,192,125850,1,0,0:0:0:0:
256,192,125925,1,8,0:0:0:0:
256,192,125962,1,8,0:0:0:0:
256,192,126000,1,8,0:0:0:0:
256,192,126037,1,8,0:0:0:0:
256,192,126075,1,8,0:0:0:0:
256,192,126112,1,8,0:0:0:0:
256,192,126150,1,8,0:0:0:0:
256,192,126187,1,8,0:0:0:0:
256,192,126225,1,8,0:0:0:0:
256,192,126262,1,8,0:0:0:0:
256,192,126300,1,8,0:0:0:0:
256,192,126450,5,12,0:0:0:0:
256,192,126600,12,0,128850,0:0:0:0:
