osu file format v14

[General]
AudioFilename: audio.mp3
AudioLeadIn: 0
PreviewTime: 48161
Countdown: 1
SampleSet: Soft
StackLeniency: 0.7
Mode: 0
LetterboxInBreaks: 0
WidescreenStoryboard: 0

[Editor]
Bookmarks: 1293,15547,39911,57161,67473,69348,77973,87067,111161,112661,126536
DistanceSpacing: 1.8
BeatDivisor: 4
GridSize: 4
TimelineZoom: 8

[Metadata]
Title:Laser
TitleUnicode:Laser
Artist:Sid
ArtistUnicode:Sid
Creator:carc1nogen
Version:Insane
Source:
Tags:
BeatmapID:1730307
BeatmapSetID:825557

[Difficulty]
HPDrainRate:5
CircleSize:4
OverallDifficulty:8
ApproachRate:9
SliderMultiplier:1
SliderTickRate:1

[Events]
//Background and Video events
0,0,"wallhaven-268004.png",0,0
//Break Periods
//Storyboard Layer 0 (Background)
//Storyboard Layer 1 (Fail)
//Storyboard Layer 2 (Pass)
//Storyboard Layer 3 (Foreground)
//Storyboard Sound Samples

[TimingPoints]
536,375,4,2,0,60,1,0
23974,-100,4,2,0,60,0,0
24536,-50,4,2,0,60,0,0
26411,-100,4,2,0,60,0,0
26598,-66.6666666666667,4,2,0,60,0,0
26973,-100,4,2,0,60,0,0
29598,-57.4712643678161,4,2,0,60,0,0
29973,-100,4,2,0,60,0,0
30536,-200,4,2,0,60,0,0
31098,-66.6666666666667,4,2,0,60,0,0
38129,-333.333333333333,4,2,0,60,0,0
39161,-100,4,2,0,60,0,0
40286,-100,4,2,0,60,0,0
40286,-100,4,2,0,60,0,0
40567,-100,4,2,0,60,0,0
41223,-333.333333333333,4,2,0,60,0,0
42161,-133.333333333333,4,2,0,60,0,0
42536,-100,4,2,0,60,0,0
43004,-100,4,2,0,60,0,0
46754,-133.333333333333,4,2,0,60,0,0
48161,-100,4,2,0,60,0,1
49286,-57.1428571428571,4,2,0,60,0,1
50786,-100,4,2,0,60,0,1
52286,-66.6666666666667,4,2,0,60,0,1
53786,-83.3333333333333,4,2,0,60,0,1
56598,-100,4,2,0,60,0,1
60536,-133.333333333333,4,2,0,60,0,1
61661,-50,4,2,0,60,0,1
63668,-66.6666666666667,4,2,0,60,0,1
66536,-133.333333333333,4,2,0,60,0,1
66911,-100,4,2,0,60,0,1
71973,-57.1428571428571,4,2,0,60,0,1
72067,-57.1428571428571,4,2,0,60,0,1
74689,-100,4,2,0,60,0,0
80598,-133.333333333333,4,2,0,60,0,0
80973,-100,4,2,0,60,0,0
83598,-66.6666666666667,4,2,0,60,0,0
83879,-66.6666666666667,4,2,0,60,0,0
98036,-100,4,2,0,60,0,0
99348,-66.6666666666667,4,2,0,60,0,0
100098,-100,4,2,0,60,0,0
100661,-1000,4,2,0,60,0,0
101598,-100,4,2,0,60,0,0
102536,-66.6666666666667,4,2,0,60,0,0
105536,-50,4,2,0,60,0,0
107692,-100,4,2,0,60,0,0
108536,-66.6666666666667,4,2,0,60,0,0
109098,-100,4,2,0,60,0,0
112661,-500,4,2,0,60,0,0
113129,-100,4,2,0,60,0,0
115286,-50,4,2,0,60,0,0
115661,-100,4,2,0,60,0,0
116411,-50,4,2,0,60,0,0
116786,-66.6666666666667,4,2,0,60,0,0
116786,-100,4,2,0,60,0,0
117348,-100,4,2,0,60,0,0
118286,-66.6666666666667,4,2,0,60,0,0
118661,-100,4,2,0,60,0,0
124848,-100,4,2,0,60,0,0
125223,-100,4,2,0,60,0,0
125598,-133.333333333333,4,2,0,60,0,0
125973,-100,4,2,0,60,0,0

[Colours]
Combo1 : 181,106,255
Combo2 : 32,178,170
Combo3 : 242,193,77
Combo4 : 89,171,255
Combo5 : 255,102,204

[HitObjects]
125,186,23973,5,0,0:0:0:0:
125,186,24161,2,0,L|180:171,1,50
395,48,24536,2,0,B|444:74|456:108|458:136|456:182|435:206|404:232,1,200
117,336,25098,2,0,B|68:310|56:276|54:248|56:202|77:178|108:152,1,200
308,262,25661,1,0,0:0:0:0:
449,130,25848,2,0,L|351:68,1,100
93,143,26223,2,0,L|196:214,1,100
398,205,26598,6,0,B|431:251|427:281|432:304|401:346,1,150
402,343,27161,1,0,0:0:0:0:
76,215,27536,2,0,P|88:157|130:128,1,100
401,147,28098,2,0,P|396:108|348:69,1,100
107,285,28661,2,0,L|156:247,1,50
437,176,29036,2,0,L|397:211,1,50
399,208,29411,1,0,0:0:0:0:
440,274,29598,6,0,B|424:286|404:294|362:300|322:268|322:226|330:196,1,174.000001460266
155,159,30348,1,0,0:0:0:0:
155,159,30536,2,0,L|188:201,1,50
102,300,31098,2,0,B|118:277|144:252|169:249|179:307|209:270|244:262|254:244|260:224|262:205|259:188|246:168,1,225.000008583069
369,91,31848,2,0,B|328:102|287:95|259:79|285:116|339:144|335:176|341:199|323:250|315:269,1,225.000008583069
223,338,32598,2,0,B|255:333|288:301|288:301|317:318|346:308|373:301|387:273|387:273|400:249|396:212,1,225.000008583069
206,66,33536,6,0,B|222:111|193:148|166:163|128:172|110:194|101:217|106:253,1,225.000008583069
50,172,34286,2,0,B|61:139|86:123|120:99|120:99|161:80|137:35|107:27|82:37|71:74|116:91,1,225.000008583069
64,303,35036,2,0,B|83:322|102:324|153:324|170:279|170:279|177:259|176:234,1,150.000005722046
105,242,35598,2,0,B|111:210|141:194|141:194|167:181|200:182|227:201|221:203,1,150.000005722046
221,203,36161,1,0,0:0:0:0:
339,148,36911,5,0,0:0:0:0:
106,274,37286,2,0,L|165:213,1,75.0000028610231
256,132,37661,1,0,0:0:0:0:
294,336,37848,1,0,0:0:0:0:
343,75,38223,2,0,P|384:90|410:141,1,75.0000028610231
319,320,39911,5,0,0:0:0:0:
56,158,40286,2,0,L|109:206,1,50
214,292,40661,1,0,0:0:0:0:
321,53,40848,1,0,0:0:0:0:
110,155,41223,2,0,P|81:184|66:217,1,74.9999977111817
312,270,42348,5,0,0:0:0:0:
312,270,42536,2,0,L|232:210,1,93.7500035762788
82,212,43098,2,0,L|150:137,1,100
242,34,43848,2,0,B|275:35|311:53|326:73|333:103|329:130|329:134,1,150
124,109,45348,5,0,0:0:0:0:
124,109,45536,2,0,L|176:157,1,50
324,249,45911,2,0,L|271:280,1,50
176,330,46473,1,0,0:0:0:0:
77,231,46754,2,0,B|97:198|137:169|168:153|191:145,1,131.25000500679
314,150,47504,1,0,0:0:0:0:
448,341,47598,6,0,L|415:340,1,18.7500007152558
410,340,47786,1,0,0:0:0:0:
383,340,47879,1,0,0:0:0:0:
358,340,47973,1,0,0:0:0:0:
328,340,48067,1,0,0:0:0:0:
301,339,48161,1,0,0:0:0:0:
84,138,48536,5,0,0:0:0:0:
266,67,49098,1,0,0:0:0:0:
266,67,49286,2,0,B|306:110|302:141|299:162|299:162|251:134|201:126|176:145|154:165|154:165|114:206|111:282|162:327|211:340|267:316|267:316|298:303|309:253|309:253|349:254|386:207,1,700.00000667572
385,207,51161,5,0,0:0:0:0:
98,70,51536,1,0,0:0:0:0:
340,331,52098,1,0,0:0:0:0:
241,303,52286,2,0,B|230:269|190:247|145:255|145:255|186:186|195:172|195:172|240:201|294:214|326:203|347:190|371:168|393:133|379:94|363:75|323:8|262:48|236:78|236:78|234:89,1,600.000022888185
170,328,54161,5,0,0:0:0:0:
370,194,54536,1,0,0:0:0:0:
115,81,55098,1,0,0:0:0:0:
115,81,55661,2,0,B|119:100|118:128|100:154|85:182|86:207|92:237|103:250|120:276|120:276|150:255|166:239|159:210|157:196,1,300
153,197,57161,5,0,0:0:0:0:
153,197,57536,2,0,B|173:210|204:221|235:211|250:196,1,100
207,138,58098,6,0,B|177:126|148:110|111:132|111:132|74:157|78:192,1,150
80,169,59036,1,0,0:0:0:0:
91,190,59129,1,0,0:0:0:0:
106,211,59223,1,0,0:0:0:0:
123,228,59317,1,0,0:0:0:0:
145,241,59411,1,0,0:0:0:0:
169,248,59504,1,0,0:0:0:0:
194,247,59598,1,0,0:0:0:0:
218,241,59692,1,0,0:0:0:0:
241,231,59786,1,0,0:0:0:0:
263,220,59879,1,0,0:0:0:0:
286,209,59973,1,0,0:0:0:0:
309,199,60067,1,0,0:0:0:0:
333,194,60161,1,0,0:0:0:0:
358,194,60254,1,0,0:0:0:0:
382,201,60348,1,0,0:0:0:0:
397,214,60442,1,0,0:0:0:0:
404,228,60536,2,0,B|421:268|387:299,1,75.0000028610231
128,272,61098,5,0,0:0:0:0:
136,263,61192,1,0,0:0:0:0:
143,255,61286,1,0,0:0:0:0:
230,192,61474,5,0,0:0:0:0:
247,192,61567,1,0,0:0:0:0:
262,192,61661,2,0,L|342:192,1,75.0000028610231
454,198,62223,1,0,0:0:0:0:
358,224,62411,2,0,L|468:333,1,150.000005722046
356,345,63161,5,0,0:0:0:0:
110,229,63348,1,0,0:0:0:0:
426,215,63536,2,0,P|418:290|345:333,1,150
62,202,64098,1,0,0:0:0:0:
69,202,64192,1,0,0:0:0:0:
75,203,64286,2,0,L|152:191,1,75.0000028610231
368,161,64661,1,0,0:0:0:0:
310,304,64848,6,0,L|244:166,1,150.000005722046
245,168,65411,1,0,0:0:0:0:
106,100,66161,1,0,0:0:0:0:
134,280,66536,2,0,P|184:263|202:241,1,75.0000028610231
195,145,67098,2,0,B|194:193|218:227|253:238,1,100
343,266,67661,2,0,B|291:244|235:250|196:267|169:287|157:309,1,200
348,159,69348,5,0,0:0:0:0:
290,332,69536,1,0,0:0:0:0:
99,200,69723,1,0,0:0:0:0:
99,200,69817,1,0,0:0:0:0:
99,200,69911,1,0,0:0:0:0:
375,233,70098,1,0,0:0:0:0:
169,122,70286,2,0,L|207:91,1,50
406,34,70848,2,0,L|377:134,1,100
343,261,71411,5,0,0:0:0:0:
197,77,71599,1,0,0:0:0:0:
190,83,71693,1,0,0:0:0:0:
184,89,71786,1,0,0:0:0:0:
180,96,71880,2,0,B|163:114|164:152|169:178|185:195,1,100
256,192,72348,12,0,74598,0:0:0:0:
190,263,77973,5,0,0:0:0:0:
378,152,78161,1,0,0:0:0:0:
164,65,78348,1,0,0:0:0:0:
64,209,78536,2,0,L|167:176,1,100
367,119,79098,1,0,0:0:0:0:
283,297,79473,2,0,L|229:268,1,50
60,175,79848,1,0,0:0:0:0:
261,102,80036,1,0,0:0:0:0:
261,102,80130,1,0,0:0:0:0:
265,106,80224,1,0,0:0:0:0:
152,304,80598,2,0,L|211:248,1,75
392,205,81536,6,0,L|293:172,1,100
79,127,82098,2,0,L|119:224,1,100
164,340,82661,1,0,0:0:0:0:
348,189,82848,2,0,P|312:147|270:131,1,100
116,163,83410,1,0,0:0:0:0:
117,155,83598,2,0,P|159:55|210:33,1,150.000005722046
355,115,84348,5,0,0:0:0:0:
353,124,84536,2,0,B|328:121|304:135|269:154|283:187|279:211,1,127.50000243187
159,154,87161,1,0,0:0:0:0:
159,154,87536,2,0,B|211:201|244:152|282:183|324:156|317:117|276:95|233:120|257:157|282:139,1,225.000008583069
390,224,88661,5,0,0:0:0:0:
262,339,88848,1,0,0:0:0:0:
142,68,89036,2,0,P|82:85|59:109,1,75.0000028610231
62,168,89411,2,0,P|122:151|145:127,1,75.0000028610231
219,46,89786,2,0,B|228:90|228:90|199:117|198:118|198:118|210:150|201:178|169:209|169:209|156:219|131:229,1,225.000008583069
121,344,90911,6,0,L|194:299,1,75.0000028610231
441,186,91286,2,0,L|351:196,1,75.0000028610231
177,214,91661,1,0,0:0:0:0:
105,172,91848,2,0,B|83:216|92:278|141:296|175:295,1,150.000005722046
366,178,92410,1,0,0:0:0:0:
277,316,92598,1,0,0:0:0:0:
182,165,92785,1,0,0:0:0:0:
405,262,92973,1,0,0:0:0:0:
434,134,93161,2,0,L|364:83,1,75.0000028610231
101,120,93536,5,0,0:0:0:0:
106,127,93723,1,0,0:0:0:0:
111,132,93911,2,0,L|156:204,1,75.0000028610231
269,248,94286,2,0,L|222:171,1,75.0000028610231
193,117,94661,1,0,0:0:0:0:
193,117,94848,2,0,B|236:81|269:70|305:68|345:85,1,150.000005722046
414,128,95411,5,0,0:0:0:0:
281,348,95599,1,0,0:0:0:0:
384,57,95786,1,0,0:0:0:0:
184,220,95974,1,0,0:0:0:0:
357,291,96161,1,0,0:0:0:0:
241,70,96349,1,0,0:0:0:0:
75,242,96536,2,0,B|106:295|136:319|164:334|196:340,1,150.000005722046
405,224,97098,6,0,L|347:164,1,75.0000028610231
218,120,97473,2,0,L|291:193,1,75.0000028610231
214,315,97848,1,0,0:0:0:0:
128,313,98036,2,0,B|131:278|148:248|171:238|200:229,1,100
276,255,98598,2,0,B|280:214|276:168|221:147|193:146,1,150
85,227,99348,6,0,B|123:187|123:187|111:168|111:126|116:109|129:91|151:70|182:57|215:57,1,225
333,52,100098,2,0,L|268:155,1,112.500004291535
154,294,100848,2,0,L|181:313,1,25
265,303,102161,5,0,0:0:0:0:
254,307,102536,2,0,B|248:269|269:238|288:225|317:207|351:188|351:188|284:196|241:198|217:194|166:181|127:155|97:120|73:81|56:30|56:30|95:46|129:63|161:76|210:81|247:77|271:69,1,750.000028610231
59,346,105161,5,0,0:0:0:0:
59,346,105536,2,0,B|109:324|151:318|194:312|231:316|274:323|326:345|324:345|324:345|281:333|239:305|200:286|164:289|149:233|136:222|90:217|78:153|91:-23|202:46|248:59|280:56|316:79|335:108|338:133|328:158|320:183|326:192|318:207|318:207|350:169|355:156|371:125|374:96|361:69|357:64|357:64|381:77|410:74|445:63|469:53|491:33,1,1200
475,31,108161,1,0,0:0:0:0:
344,117,108536,6,0,B|310:165|310:225|342:255|342:307|329:338,1,225
125,100,109567,2,0,B|172:138|216:115|247:90|304:106|343:116,1,225
123,77,111161,1,0,0:0:0:0:
48,117,111536,6,0,B|80:156|117:190|179:160|203:126|205:77,1,200
105,166,112661,2,0,L|113:191,1,25
121,213,113411,5,0,0:0:0:0:
134,233,113504,1,0,0:0:0:0:
154,249,113598,1,0,0:0:0:0:
177,258,113692,1,0,0:0:0:0:
202,260,113786,1,0,0:0:0:0:
226,257,113879,1,0,0:0:0:0:
250,250,113973,1,0,0:0:0:0:
274,242,114067,1,0,0:0:0:0:
298,235,114161,1,0,0:0:0:0:
322,230,114254,1,0,0:0:0:0:
347,229,114348,1,0,0:0:0:0:
372,234,114442,1,0,0:0:0:0:
395,246,114536,2,0,L|322:167,1,100
166,51,115098,6,0,L|181:77,1,25
246,46,115286,2,0,B|260:81|256:101|243:134|215:150|184:156|156:151|140:137|125:120,1,200
175,335,115848,1,0,0:0:0:0:
360,153,116223,1,0,0:0:0:0:
433,261,116411,2,0,B|426:286|418:309|391:313|361:330|336:327|311:307|290:285|282:246,1,200
166,79,117161,5,0,0:0:0:0:
449,99,117348,1,0,0:0:0:0:
449,99,117442,1,0,0:0:0:0:
449,99,117536,2,0,L|399:139,1,37.5000014305115
156,220,117911,2,0,L|197:277,1,37.5000014305115
278,370,118286,2,0,P|346:331|345:267,1,150.000005722046
291,110,118848,5,0,0:0:0:0:
372,333,119223,1,0,0:0:0:0:
381,341,119316,1,0,0:0:0:0:
388,350,119411,2,0,L|387:277,1,50
388,66,119786,2,0,L|388:127,1,50
386,268,120161,1,0,0:0:0:0:
148,191,120536,6,0,L|249:122,1,100
334,168,121098,2,0,L|254:228,1,100
166,275,121661,2,0,B|104:293|60:254|48:198|61:164|81:140,1,200
397,129,123348,5,0,0:0:0:0:
260,321,123536,1,0,0:0:0:0:
205,62,123723,5,0,0:0:0:0:
80,213,123911,1,0,0:0:0:0:
398,237,124098,5,0,0:0:0:0:
91,177,124380,5,0,0:0:0:0:
87,185,124473,1,0,0:0:0:0:
82,194,124567,1,0,0:0:0:0:
77,202,124661,1,0,0:0:0:0:
74,210,124754,1,0,0:0:0:0:
71,220,124848,2,0,B|93:280|124:311|171:327,1,150
413,125,125879,6,0,L|361:192,1,75
256,192,126348,12,0,128504,0:0:0:0:
