osu file format v14

[General]
AudioFilename: audio.mp3
AudioLeadIn: 0
PreviewTime: 48389
Countdown: 0
SampleSet: Soft
StackLeniency: 0.7
Mode: 0
LetterboxInBreaks: 0
WidescreenStoryboard: 0

[Editor]
DistanceSpacing: 2
BeatDivisor: 6
GridSize: 4
TimelineZoom: 1

[Metadata]
Title:Snowman
TitleUnicode:Snowman
Artist:Sia
ArtistUnicode:Sia
Creator:ZLOdeuka-
Version:Snowman
Source:
Tags:Gordon123 Everyday Is Christmas 2017
BeatmapID:1488855
BeatmapSetID:703740

[Difficulty]
HPDrainRate:6
CircleSize:4.5
OverallDifficulty:7
ApproachRate:8
SliderMultiplier:1.6
SliderTickRate:1

[Events]
//Background and Video events
0,0,"BG.jpg",0,0
//Break Periods
//Storyboard Layer 0 (Background)
//Storyboard Layer 1 (Fail)
//Storyboard Layer 2 (Pass)
//Storyboard Layer 3 (Foreground)
//Storyboard Sound Samples

[TimingPoints]
7394,857.142857142857,4,2,1,40,1,0
48536,-66.6666666666667,4,2,1,40,0,1
75965,-66.6666666666667,4,2,1,30,0,0

[Colours]
Combo1 : 87,175,240
Combo2 : 69,207,146
Combo3 : 227,121,190
Combo4 : 251,32,32

[HitObjects]
40,72,7394,6,0,L|46:124,2,53.3333333333333,0|0|0,1:0|0:0|0:0,0:0:0:0:
137,197,8251,2,0,L|123:303,1,106.666666666667,2|0,0:0|1:0,0:0:0:0:
176,352,9108,1,0,1:0:0:0:
256,256,9394,1,0,0:0:0:0:
336,352,9679,1,0,0:0:0:0:
389,302,9965,2,0,P|377:250|389:198,1,106.666666666667,2|0,0:0|0:0,0:0:0:0:
255,67,10822,6,0,P|257:95|255:123,1,53.3333333333333,0|0,1:0|0:0,0:0:0:0:
131,171,11394,1,0,0:0:0:0:
131,171,11679,2,0,L|140:279,1,106.666666666667,2|0,0:0|1:0,0:0:0:0:
187,115,12536,2,0,L|177:222,1,106.666666666667,0|0,1:0|0:0,0:0:0:0:
266,121,13394,1,2,0:0:0:0:
378,191,13679,1,0,0:0:0:0:
494,255,13965,1,0,0:0:0:0:
494,255,14251,6,0,L|497:310,1,53.3333333333333,0|0,1:0|0:0,0:0:0:0:
364,327,14822,1,0,0:0:0:0:
230,320,15108,1,2,0:0:0:0:
303,208,15393,1,0,0:0:0:0:
364,327,15679,1,0,1:0:0:0:
436,215,15965,6,0,L|438:161,1,53.3333333333333,0|0,1:0|0:0,0:0:0:0:
442,28,16536,1,0,0:0:0:0:
315,71,16822,2,0,L|317:124,2,53.3333333333333,2|0|0,0:0|0:0|0:0,0:0:0:0:
216,160,17679,6,0,L|209:270,1,106.666666666667,0|0,1:0|0:0,0:0:0:0:
323,336,18536,2,0,L|318:283,1,53.3333333333333,2|0,0:0|0:0,0:0:0:0:
129,254,19108,1,0,1:0:0:0:
129,254,19394,2,0,P|93:289|117:331,1,106.666666666667,0|0,1:0|0:0,0:0:0:0:
251,334,20251,1,2,0:0:0:0:
193,214,20536,1,0,0:0:0:0:
59,209,20822,1,0,0:0:0:0:
59,209,21108,6,0,P|47:191|35:160,1,53.3333333333333,0|0,1:0|0:0,0:0:0:0:
69,32,21679,1,0,0:0:0:0:
184,99,21965,2,0,P|208:110|234:115,2,53.3333333333333,2|0|0,0:0|0:0|1:0,0:0:0:0:
316,81,22822,1,0,1:0:0:0:
316,81,23108,2,0,P|341:86|366:97,1,53.3333333333333
383,240,23679,2,0,P|342:205|315:160,1,106.666666666667,2|0,0:0|0:0,0:0:0:0:
255,266,24536,6,0,P|255:292|259:322,2,53.3333333333333,0|0|0,1:0|0:0|0:0,0:0:0:0:
134,208,25393,2,0,P|134:234|130:264,2,53.3333333333333,2|0|0,0:0|0:0|1:0,0:0:0:0:
122,74,26251,2,0,L|230:84,1,106.666666666667,0|0,1:0|0:0,0:0:0:0:
134,208,27108,2,0,L|242:218,1,106.666666666667,2|0,0:0|0:0,0:0:0:0:
406,302,27965,6,0,L|352:306,1,53.3333333333333,0|0,1:0|0:0,0:0:0:0:
221,281,28536,1,0,0:0:0:0:
94,237,28822,1,2,0:0:0:0:
168,348,29108,1,0,0:0:0:0:
172,215,29393,1,0,1:0:0:0:
90,320,29679,6,0,P|65:335|42:343,1,53.3333333333333,0|0,1:0|0:0,0:0:0:0:
24,210,30251,1,0,0:0:0:0:
43,78,30536,2,0,P|68:87|90:100,2,53.3333333333333,2|0|0,0:0|0:0|0:0,0:0:0:0:
213,33,31393,6,0,L|203:140,1,106.666666666667,0|0,1:0|0:0,0:0:0:0:
307,222,32251,2,0,L|301:164,1,53.3333333333333,2|0,0:0|0:0,0:0:0:0:
286,36,32822,1,0,1:0:0:0:
234,209,33108,5,2,1:2:0:0:
420,194,33394,1,0,0:0:0:0:
234,209,33679,1,0,0:2:0:0:
277,336,33965,5,2,0:2:0:0:
91,321,34251,1,0,0:0:0:0:
277,336,34536,1,0,0:2:0:0:
384,316,34822,6,0,P|411:320|446:331,2,53.3333333333333,0|0|0,1:0|0:0|0:0,0:0:0:0:
384,316,35679,2,0,L|398:211,1,106.666666666667,2|0,0:0|0:0,0:0:0:0:
318,41,36536,5,0,1:0:0:0:
214,66,36822,1,0,0:0:0:0:
137,140,37108,1,0,0:0:0:0:
150,245,37394,1,2,0:0:0:0:
229,174,37679,1,0,0:0:0:0:
251,278,37965,1,0,0:0:0:0:
229,174,38251,6,0,P|256:171|281:174,1,53.3333333333333,0|0,1:0|0:0,0:0:0:0:
382,209,38822,1,0,0:0:0:0:
471,266,39108,2,0,P|483:318|471:370,1,106.666666666667,2|0,0:0|0:0,0:0:0:0:
331,337,39965,5,0,1:0:0:0:
302,234,40251,1,0,0:0:0:0:
226,308,40536,1,0,0:0:0:0:
122,333,40822,1,2,0:0:0:0:
46,256,41108,2,0,P|42:228|44:201,1,53.3333333333333
193,106,41679,6,0,P|197:134|195:161,1,53.3333333333333,0|0,1:0|0:0,0:0:0:0:
131,244,42251,1,0,0:0:0:0:
262,73,42536,2,0,P|270:132|268:183,1,106.666666666667,2|0,0:0|0:0,0:0:0:0:
399,312,43393,6,0,P|393:289|390:259,1,53.3333333333333,0|0,1:0|0:0,0:0:0:0:
390,152,43965,1,0,0:0:0:0:
390,152,44251,2,0,P|363:154|337:160,1,53.3333333333333,2|0,0:0|0:0,0:0:0:0:
271,244,44822,1,0,0:0:0:0:
97,330,45108,6,0,L|73:224,1,106.666666666667,0|0,1:0|0:0,0:0:0:0:
145,55,45965,2,0,P|147:110|163:160,1,106.666666666667,2|0,0:0|1:0,0:0:0:0:
349,158,46822,2,0,P|365:108|367:55,1,106.666666666667,0|0,1:0|0:0,0:0:0:0:
438,225,47679,2,0,L|415:330,1,106.666666666667,2|0,0:0|0:0,0:0:0:0:
219,298,48536,6,0,P|180:293|140:299,2,80.0000030517579,4|2|0,1:2|0:0|0:0,0:0:0:0:
110,211,49393,2,0,P|78:235|52:269,2,80.0000030517579,2|0|0,0:0|0:0|1:0,0:0:0:0:
219,298,50251,5,2,1:2:0:0:
110,211,50536,1,0,0:0:0:0:
137,77,50822,1,0,0:0:0:0:
241,164,51108,2,0,P|302:168|289:90,1,160.000006103516,2|0,0:0|0:0,0:0:0:0:
247,283,51965,6,0,P|290:285|325:277,1,80.0000030517579,0|2,1:2|0:0,0:0:0:0:
427,186,52536,1,0,0:0:0:0:
332,88,52822,2,0,P|289:86|254:94,1,80.0000030517579,2|0,0:0|0:0,0:0:0:0:
162,196,53393,1,0,1:0:0:0:
162,196,53679,5,2,1:2:0:0:
76,90,53965,1,0,0:0:0:0:
33,219,54251,1,0,0:0:0:0:
118,324,54536,2,0,L|198:318,1,80.0000030517579,2|0,0:0|0:0,0:0:0:0:
370,200,55108,1,0,0:0:0:0:
370,200,55393,6,0,L|290:194,2,80.0000030517579,0|2|0,1:0|0:0|0:0,0:0:0:0:
451,90,56251,1,2,0:0:0:0:
507,213,56536,1,0,0:0:0:0:
427,323,56822,1,0,1:0:0:0:
427,323,57108,5,2,1:2:0:0:
318,272,57393,1,0,0:0:0:0:
197,272,57679,1,0,0:0:0:0:
88,323,57965,2,0,B|61:296|51:258|51:258|72:218|61:171,1,160.000006103516,2|0,0:0|0:0,0:0:0:0:
164,37,58822,6,0,P|184:87|191:113,2,80.0000030517579,0|2|0,1:0|0:0|0:0,0:0:0:0:
291,94,59679,2,0,P|269:143|256:166,2,80.0000030517579,2|0|0,0:0|0:0|1:0,0:0:0:0:
184,189,60536,5,2,1:2:0:0:
237,298,60822,1,0,0:0:0:0:
350,339,61108,1,0,0:0:0:0:
458,288,61393,2,0,L|448:209,1,80.0000030517579,2|0,0:0|0:0,0:0:0:0:
365,41,61965,1,0,0:0:0:0:
365,41,62251,6,0,L|355:120,1,80.0000030517579,4|0,1:2|0:0,0:0:0:0:
327,237,62822,1,0,0:0:0:0:
215,282,63108,2,0,P|190:250|186:207,1,80.0000030517579,2|0,0:0|0:0,0:0:0:0:
270,127,63679,1,0,1:0:0:0:
215,282,63965,6,0,P|148:311|119:245,1,160.000006103516,0|0,1:2|0:0,0:0:0:0:
206,164,64822,1,2,0:0:0:0:
118,245,65109,1,0,0:0:0:0:
85,129,65394,1,0,0:0:0:0:
173,48,65679,6,0,P|214:43|254:43,1,80.0000030517579,0|0,1:0|0:0,0:0:0:0:
372,53,66251,1,0,0:0:0:0:
465,128,66536,1,2,0:0:0:0:
489,245,66822,1,0,0:0:0:0:
434,350,67108,1,0,1:0:0:0:
434,350,67393,6,0,P|393:355|353:355,1,80.0000030517579,0|0,1:0|0:0,0:0:0:0:
234,339,67965,1,0,0:0:0:0:
149,253,68251,1,2,0:0:0:0:
143,133,68536,1,0,0:0:0:0:
223,49,68822,1,0,0:0:0:0:
223,49,69108,6,0,L|214:132,1,80.0000030517579,0|0,1:0|0:0,0:0:0:0:
295,247,69679,2,0,L|286:167,1,80.0000030517579,0|2,0:0|0:0,0:0:0:0:
211,262,70251,1,0,0:0:0:0:
290,351,70536,1,0,1:0:0:0:
363,255,70822,6,0,B|400:223|458:224|458:224|481:172,1,160.000006103516,0|0,1:0|0:0,0:0:0:0:
440,58,71679,1,2,0:0:0:0:
440,58,71965,1,0,0:0:0:0:
324,90,72251,1,0,0:0:0:0:
209,125,72536,6,0,P|169:129|129:125,1,80.0000030517579,0|0,1:0|0:0,0:0:0:0:
27,61,73108,1,0,0:0:0:0:
17,180,73393,1,2,0:0:0:0:
117,246,73679,1,0,0:0:0:0:
129,125,73965,1,0,1:0:0:0:
117,246,74251,5,0,1:0:0:0:
196,335,74536,1,0,0:0:0:0:
316,335,74822,1,0,0:0:0:0:
396,246,75108,2,0,P|419:213|431:175,2,80.0000030517579,2|0|0,0:0|0:0|0:0,0:0:0:0:
356,132,75965,1,4,1:0:0:0:
