osu file format v14

[General]
AudioFilename: audio.mp3
AudioLeadIn: 0
PreviewTime: 48389
Countdown: 0
SampleSet: Soft
StackLeniency: 0.7
Mode: 0
LetterboxInBreaks: 0
WidescreenStoryboard: 0

[Editor]
DistanceSpacing: 2
BeatDivisor: 6
GridSize: 4
TimelineZoom: 1

[Metadata]
Title:Snowman
TitleUnicode:Snowman
Artist:Sia
ArtistUnicode:Sia
Creator:ZLOdeuka-
Version:Snowball
Source:
Tags:Gordon123 Everyday Is Christmas 2017
BeatmapID:1489603
BeatmapSetID:703740

[Difficulty]
HPDrainRate:5
CircleSize:3.8
OverallDifficulty:4
ApproachRate:5
SliderMultiplier:1.3
SliderTickRate:1

[Events]
//Background and Video events
0,0,"BG.jpg",0,0
//Break Periods
//Storyboard Layer 0 (Background)
//Storyboard Layer 1 (Fail)
//Storyboard Layer 2 (Pass)
//Storyboard Layer 3 (Foreground)
//Storyboard Sound Samples

[TimingPoints]
7394,857.142857142857,4,2,1,30,1,0
48536,-100,4,2,1,40,0,1
75965,-100,4,2,1,30,0,0

[Colours]
Combo1 : 87,175,240
Combo2 : 69,207,146
Combo3 : 227,121,190
Combo4 : 251,32,32

[HitObjects]
454,306,7394,6,0,P|465:290|478:267,2,43.3333333333333,0|0|0,1:0|0:0|0:0,0:0:0:0:
369,326,8251,1,2,0:0:0:0:
256,194,8822,1,0,1:0:0:0:
171,214,9108,2,0,P|160:230|147:253,1,43.3333333333333,0|0,1:0|0:0,0:0:0:0:
129,335,9679,1,0,0:0:0:0:
65,275,9965,2,0,P|54:233|50:186,1,86.6666666666667,2|0,0:0|0:0,0:0:0:0:
122,142,10822,6,0,P|132:100|136:57,1,86.6666666666667,0|0,1:0|0:0,0:0:0:0:
53,34,11679,1,2,0:0:0:0:
220,79,12251,1,0,1:0:0:0:
303,101,12536,2,0,L|391:95,1,86.6666666666667,0|0,1:0|0:0,0:0:0:0:
433,170,13394,2,0,L|394:249,1,86.6666666666667,2|0,0:0|0:0,0:0:0:0:
310,227,14251,6,0,P|300:210|284:190,1,43.3333333333333,0|0,1:0|0:0,0:0:0:0:
200,171,14822,1,0,0:0:0:0:
119,203,15108,1,2,0:0:0:0:
106,288,15394,1,0,0:0:0:0:
163,352,15679,1,0,1:0:0:0:
247,333,15965,2,0,P|271:330|297:328,1,43.3333333333333,0|0,1:0|0:0,0:0:0:0:
376,332,16536,1,0,0:0:0:0:
462,338,16822,2,0,P|483:336|505:333,2,43.3333333333333,2|0|0,0:0|0:0|0:0,0:0:0:0:
427,258,17679,6,0,L|438:171,1,86.6666666666667,0|0,1:0|0:0,0:0:0:0:
453,86,18536,1,2,0:0:0:0:
372,54,18822,1,0,0:0:0:0:
286,68,19108,1,0,1:0:0:0:
226,130,19393,2,0,P|182:136|138:130,1,86.6666666666667,0|0,1:0|0:0,0:0:0:0:
72,75,20251,2,0,P|73:55|77:32,2,43.3333333333333,2|0|0,0:0|0:0|0:0,0:0:0:0:
74,161,21108,6,0,L|79:247,1,86.6666666666667,0|0,1:0|0:0,0:0:0:0:
161,273,21965,2,0,L|158:330,1,43.3333333333333,2|0,0:0|0:0,0:0:0:0:
244,327,22536,1,0,1:0:0:0:
242,240,22822,2,0,L|239:196,2,43.3333333333333,0|0|0,1:0|0:0|0:0,0:0:0:0:
325,218,23679,2,0,L|330:132,1,86.6666666666667,2|0,0:0|0:0,0:0:0:0:
361,51,24536,6,0,P|381:46|403:43,2,43.3333333333333,0|0|0,1:0|0:0|0:0,0:0:0:0:
409,123,25393,2,0,P|427:132|446:143,2,43.3333333333333,2|0|0,0:0|0:0|1:0,0:0:0:0:
393,208,26251,2,0,P|402:249|431:281,1,86.6666666666667,0|0,1:0|0:0,0:0:0:0:
386,355,27108,2,0,P|345:342|303:351,1,86.6666666666667,2|0,0:0|0:0,0:0:0:0:
217,363,27965,5,0,1:0:0:0:
133,338,28251,1,0,0:0:0:0:
102,256,28536,1,0,0:0:0:0:
113,170,28822,2,0,P|118:147|126:126,2,43.3333333333333,2|0|0,0:0|0:0|1:0,0:0:0:0:
182,222,29679,1,0,1:0:0:0:
266,241,29965,1,0,0:0:0:0:
349,218,30251,1,0,0:0:0:0:
414,161,30536,2,0,P|425:123|426:109,2,43.3333333333333,2|0|0,0:0|0:0|0:0,0:0:0:0:
332,130,31393,6,0,L|323:42,1,86.6666666666667,0|0,1:0|0:0,0:0:0:0:
239,68,32251,2,0,L|230:154,1,86.6666666666667,2|0,0:0|1:0,0:0:0:0:
158,203,33108,6,0,L|154:157,2,43.3333333333333,0|0|0,1:0|0:0|0:0,0:0:0:0:
232,246,33965,2,0,L|269:219,2,43.3333333333333,2|0|0,0:0|0:0|0:0,0:0:0:0:
252,330,34822,5,0,1:0:0:0:
338,336,35108,1,0,0:0:0:0:
252,330,35394,1,0,0:0:0:0:
165,324,35679,2,0,L|76:330,1,86.6666666666667,2|0,0:0|0:0,0:0:0:0:
60,245,36536,1,0,1:0:0:0:
60,245,36822,2,0,L|63:201,1,43.3333333333333
138,157,37394,1,2,0:0:0:0:
138,157,37680,2,0,L|134:113,1,43.3333333333333
185,44,38251,6,0,P|204:41|233:38,2,43.3333333333333,0|0|0,1:0|0:0|0:0,0:0:0:0:
217,124,39108,2,0,L|305:140,1,86.6666666666667,2|0,0:0|0:0,0:0:0:0:
386,161,39965,1,0,1:0:0:0:
386,161,40251,2,0,L|433:156,1,43.3333333333333
454,239,40822,1,2,0:0:0:0:
454,239,41108,2,0,L|501:244,1,43.3333333333333
503,330,41679,5,0,1:0:0:0:
416,339,41965,1,0,0:0:0:0:
329,349,42251,1,0,0:0:0:0:
329,349,42536,2,0,L|244:335,1,86.6666666666667,2|0,0:0|0:0,0:0:0:0:
175,280,43394,2,0,L|132:283,2,43.3333333333333,0|0|0,1:0|0:0|0:0,0:0:0:0:
219,205,44251,2,0,L|262:208,2,43.3333333333333,2|0|0,0:0|0:0|0:0,0:0:0:0:
178,128,45108,6,0,P|167:85|175:42,1,86.6666666666667,0|0,1:0|0:0,0:0:0:0:
251,82,45965,2,0,P|293:93|326:122,1,86.6666666666667,2|0,0:0|1:0,0:0:0:0:
253,169,46822,2,0,P|221:200|180:214,1,86.6666666666667,0|0,1:0|0:0,0:0:0:0:
178,128,47679,2,0,P|167:84|177:39,1,86.6666666666667,2|0,0:0|0:0,0:0:0:0:
251,83,48536,6,0,L|294:86,2,43.3333333333333,4|0|0,1:0|0:0|0:0,0:0:0:0:
276,165,49393,2,0,L|317:175,2,43.3333333333333,2|0|0,0:0|0:0|1:0,0:0:0:0:
191,144,50251,1,0,1:0:0:0:
106,162,50536,1,0,0:0:0:0:
57,233,50822,1,0,0:0:0:0:
60,319,51108,2,0,P|103:334|141:318,1,86.6666666666667,2|0,0:0|0:0,0:0:0:0:
204,261,51965,6,0,P|212:239|215:214,2,43.3333333333333,0|0|0,1:0|0:0|0:0,0:0:0:0:
289,244,52822,2,0,P|292:220|292:195,2,43.3333333333333,2|0|0,0:0|0:0|1:0,0:0:0:0:
264,327,53679,1,0,1:0:0:0:
346,355,53965,1,0,0:0:0:0:
433,351,54251,1,0,0:0:0:0:
490,286,54536,2,0,P|495:244|491:198,1,86.6666666666667,2|0,0:0|0:0,0:0:0:0:
426,141,55393,6,0,L|417:97,2,43.3333333333333,0|0|0,1:0|0:0|0:0,0:0:0:0:
340,123,56251,2,0,L|323:81,2,43.3333333333333,2|0|0,0:0|0:0|1:0,0:0:0:0:
370,204,57108,1,0,1:0:0:0:
330,280,57393,1,0,0:0:0:0:
243,290,57679,1,0,0:0:0:0:
178,231,57965,2,0,P|164:190|167:137,1,86.6666666666667,2|0,0:0|0:0,0:0:0:0:
203,69,58822,6,0,P|210:47|212:17,2,43.3333333333333,0|0|0,1:0|0:0|0:0,0:0:0:0:
116,78,59679,2,0,P|115:54|106:26,2,43.3333333333333,2|0|0,0:0|0:0|1:0,0:0:0:0:
102,163,60536,1,0,1:0:0:0:
138,241,60822,1,0,0:0:0:0:
218,274,61108,1,0,0:0:0:0:
304,272,61393,2,0,P|339:250|350:207,1,86.6666666666667,2|0,0:0|0:0,0:0:0:0:
312,129,62251,6,0,P|304:84|311:43,1,86.6666666666667,4|0,1:0|0:0,0:0:0:0:
395,63,63108,2,0,P|393:85|395:107,1,43.3333333333333,2|0,0:0|0:0,0:0:0:0:
425,187,63679,1,0,1:0:0:0:
453,268,63965,2,0,P|427:300|385:313,1,86.6666666666667,0|0,1:0|0:0,0:0:0:0:
299,297,64822,2,0,P|257:289|213:297,1,86.6666666666667,2|0,0:0|0:0,0:0:0:0:
127,312,65679,6,0,P|86:300|59:268,1,86.6666666666667,0|0,1:0|0:0,0:0:0:0:
89,186,66536,2,0,P|129:173|157:141,1,86.6666666666667,2|0,0:0|1:0,0:0:0:0:
243,134,67393,2,0,P|273:163|316:170,1,86.6666666666667,0|0,1:0|0:0,0:0:0:0:
402,164,68251,2,0,P|442:149|467:115,1,86.6666666666667,2|0,0:0|0:0,0:0:0:0:
416,45,69108,6,0,L|329:36,1,86.6666666666667,0|0,1:0|0:0,0:0:0:0:
261,89,69965,2,0,L|215:92,1,43.3333333333333,2|0,0:0|0:0,0:0:0:0:
131,96,70536,1,0,1:0:0:0:
44,99,70822,2,0,L|34:187,1,86.6666666666667,0|0,1:0|0:0,0:0:0:0:
106,233,71679,2,0,L|110:280,1,43.3333333333333,2|0,0:0|0:0,0:0:0:0:
118,362,72251,1,0,0:0:0:0:
190,314,72536,6,0,P|231:307|275:310,1,86.6666666666667,0|0,1:0|0:0,0:0:0:0:
359,331,73393,2,0,P|344:291|340:247,1,86.6666666666667,2|0,0:0|1:0,0:0:0:0:
348,160,74251,2,0,P|311:180|269:192,1,86.6666666666667,0|0,1:0|0:0,0:0:0:0:
235,112,75108,2,0,L|241:67,2,43.3333333333333,2|0|0,0:0|0:0|0:0,0:0:0:0:
268,192,75965,1,4,1:0:0:0:
