osu file format v14

[General]
AudioFilename: audio.mp3
AudioLeadIn: 0
PreviewTime: 48389
Countdown: 0
SampleSet: Soft
StackLeniency: 0.7
Mode: 0
LetterboxInBreaks: 0
WidescreenStoryboard: 0

[Editor]
DistanceSpacing: 1
BeatDivisor: 6
GridSize: 4
TimelineZoom: 1

[Metadata]
Title:Snowman
TitleUnicode:Snowman
Artist:Sia
ArtistUnicode:Sia
Creator:ZLOdeuka-
Version:Gordon's Snowflake
Source:
Tags:Gordon123 Everyday Is Christmas 2017
BeatmapID:1489602
BeatmapSetID:703740

[Difficulty]
HPDrainRate:2
CircleSize:2.5
OverallDifficulty:2
ApproachRate:2
SliderMultiplier:1
SliderTickRate:1

[Events]
//Background and Video events
0,0,"BG.jpg",0,0
//Break Periods
//Storyboard Layer 0 (Background)
//Storyboard Layer 1 (Fail)
//Storyboard Layer 2 (Pass)
//Storyboard Layer 3 (Foreground)
//Storyboard Sound Samples

[TimingPoints]
7394,857.142857142857,4,2,1,30,1,0
34822,-100,4,2,1,40,0,0
48536,-76.9230769230769,4,2,1,40,0,1
75965,-90.9090909090909,4,2,1,30,0,0

[Colours]
Combo1 : 87,175,240
Combo2 : 69,207,146
Combo3 : 227,121,190
Combo4 : 251,32,32

[HitObjects]
124,312,7394,6,0,P|172:324|236:320,1,100,0|2,1:0|0:0,0:0:0:0:
292,252,9108,2,0,P|280:208|288:144,1,100,0|2,1:0|0:0,0:0:0:0:
376,192,10822,2,0,P|381:142|368:94,1,100,0|2,1:0|0:0,0:0:0:0:
268,108,12536,2,0,L|156:124,1,100,0|2,1:0|0:0,0:0:0:0:
72,96,14251,5,0,1:0:0:0:
56,196,15108,1,2,0:0:0:0:
112,280,15965,2,0,P|156:300|216:292,1,100,0|2,1:0|0:0,0:0:0:0:
176,200,17679,2,0,P|184:92|268:52,1,200,0|0,1:0|1:0,0:0:0:0:
260,152,20251,1,2,0:0:0:0:
324,232,21108,6,0,B|372:224|372:224|436:236,1,100,0|2,1:0|0:0,0:0:0:0:
400,332,22822,2,0,B|349:341|349:341|301:333,1,100,0|2,1:0|0:0,0:0:0:0:
200,336,24536,2,0,B|232:236|176:236|204:128,1,200,0|0,1:0|1:0,0:0:0:0:
256,56,27108,1,2,0:0:0:0:
344,104,27965,6,0,L|360:208,1,100,0|2,1:0|0:0,0:0:0:0:
328,296,29679,2,0,P|288:316|224:312,1,100,0|2,1:0|0:0,0:0:0:0:
136,296,31393,1,0,1:0:0:0:
36,296,32251,1,2,0:0:0:0:
96,216,33108,2,0,P|108:172|104:116,1,100,2|2,1:2|0:2,0:0:0:0:
196,80,34822,6,0,P|288:124|384:108,1,200,0|0,1:0|1:0,0:0:0:0:
432,196,37394,1,2,0:0:0:0:
380,280,38251,2,0,P|282:265|194:309,1,200,0|0,1:0|1:0,0:0:0:0:
108,360,40822,1,2,0:0:0:0:
64,268,41679,6,0,L|60:164,1,100,0|2,1:0|0:0,0:0:0:0:
152,124,43394,2,0,L|156:232,1,100,0|2,1:0|0:0,0:0:0:0:
236,280,45108,1,0,1:0:0:0:
336,280,45965,1,2,0:0:0:0:
432,252,46822,2,0,P|468:220|400:152,1,166.666666666667,0|0,1:0|0:0,0:0:0:0:
364,168,48536,6,0,B|296:168|296:168|196:116,1,173.333325398763,4|0,1:2|0:0,0:0:0:0:
168,92,49965,1,0,1:0:0:0:
124,92,50251,2,0,B|80:128|80:180|80:180|80:224,1,129.999994049073,2|2,1:2|0:0,0:0:0:0:
80,296,51679,1,0,0:0:0:0:
112,324,51965,6,0,B|172:328|172:328|220:320|220:320|296:324,1,173.333325398763,0|0,1:2|0:0,0:0:0:0:
328,332,53393,1,0,1:0:0:0:
356,300,53679,2,0,P|344:232|376:164,1,129.999994049073,2|2,1:2|0:0,0:0:0:0:
296,124,55108,1,0,0:0:0:0:
264,96,55393,6,0,B|180:116|180:72|84:96,1,173.333325398763,0|0,1:0|0:0,0:0:0:0:
68,128,56822,1,0,0:0:0:0:
68,172,57108,2,0,P|100:220|180:244,1,129.999994049073,2|2,1:2|0:0,0:0:0:0:
248,216,58536,1,0,0:0:0:0:
280,248,58822,6,0,B|372:276|372:228|456:252,1,173.333325398763,0|0,1:0|0:0,0:0:0:0:
476,216,60251,1,0,0:0:0:0:
464,176,60536,2,0,P|412:136|344:136,1,129.999994049073,2|2,1:2|0:0,0:0:0:0:
268,160,61965,1,0,0:0:0:0:
224,164,62251,6,0,L|88:148,2,129.999994049073,4|2|0,1:2|0:0|1:2,0:0:0:0:
308,264,64822,1,2,0:0:0:0:
184,304,65679,2,0,L|40:284,2,129.999994049073,0|2|0,1:0|0:0|1:0,0:0:0:0:
308,264,68251,1,2,0:0:0:0:
372,324,68822,1,0,0:0:0:0:
416,328,69108,6,0,P|508:240|480:112,1,259.999988098145,0|0,1:0|1:0,0:0:0:0:
376,48,71679,1,2,0:0:0:0:
300,152,72536,2,0,P|260:104|252:24,1,129.999994049073,0|2,1:0|0:0,0:0:0:0:
164,136,74251,2,0,P|204:184|212:264,1,129.999994049073,0|2,1:0|0:0,0:0:0:0:
256,352,75965,5,4,1:0:0:0:
