osu file format v14

[General]
AudioFilename: audio.mp3
AudioLeadIn: 0
PreviewTime: 52251
Countdown: 0
SampleSet: Soft
StackLeniency: 0.7
Mode: 0
LetterboxInBreaks: 0
WidescreenStoryboard: 0

[Editor]
Bookmarks: 176242
DistanceSpacing: 1.3
BeatDivisor: 8
GridSize: 32
TimelineZoom: 1.1

[Metadata]
Title:Free The Animal
TitleUnicode:Free The Animal
Artist:Sia
ArtistUnicode:Sia
Creator:Tony
Version:Max's Normal
Source:
Tags:-M4x Mao 1000 forms of fear
BeatmapID:984768
BeatmapSetID:428841

[Difficulty]
HPDrainRate:4
CircleSize:3.5
OverallDifficulty:4
ApproachRate:5
SliderMultiplier:1.3
SliderTickRate:1

[Events]
//Background and Video events
0,0,"sia-541b4fce-hero.jpg",0,0
//Break Periods
2,70754,86968
//Storyboard Layer 0 (Background)
//Storyboard Layer 1 (Fail)
//Storyboard Layer 2 (Pass)
//Storyboard Layer 3 (Foreground)
//Storyboard Sound Samples

[TimingPoints]
19912,550.45871559633,4,2,0,55,1,0
52939,-100,4,2,0,55,0,1
70554,-100,4,2,0,55,0,0
123398,-100,4,2,0,55,0,1
158627,-100,4,2,0,55,0,0
193856,-100,4,2,0,55,0,1
211334,-100,4,2,0,55,0,0
211471,-100,4,2,0,55,0,1
229086,-100,4,2,0,55,0,0
244774,-100,4,2,0,25,0,0

[Colours]
Combo1 : 255,213,85
Combo2 : 255,174,94
Combo3 : 255,100,177
Combo4 : 242,24,57

[HitObjects]
150,51,19636,5,0,0:0:0:0:
230,35,19911,6,0,P|259:48|277:75,1,65,4|4,3:0|0:3,0:0:0:0:
203,115,20462,2,0,P|165:186|185:238,1,130,8|0,0:0|0:0,0:0:0:0:
249,183,21288,1,0,0:0:0:0:
306,244,21563,2,0,P|331:192|323:142,2,97.5,8|4|4,0:0|0:3|0:3,0:0:0:0:
235,290,22664,2,0,L|99:314,1,130,8|0,0:0|0:0,0:0:0:0:
24,329,23489,1,2,0:0:0:0:
48,248,23765,1,8,0:0:0:0:
24,168,24040,6,0,B|12:132|12:132|16:92,2,65
108,188,24866,2,0,L|240:196,1,130,8|0,0:0|0:0,0:0:0:0:
321,202,25691,1,0,0:0:0:0:
401,228,25967,2,0,P|404:180|380:139,2,97.5,8|4|4,0:0|0:3|0:3,0:0:0:0:
384,312,27067,2,0,B|349:308|328:276|328:276|289:288|264:268,1,130,8|0,0:0|0:0,0:0:0:0:
204,220,27893,1,2,0:0:0:0:
124,244,28168,6,0,L|116:368,2,97.5,8|4|4,0:0|0:3|0:3,0:0:0:0:
39,247,29269,2,0,L|49:104,1,130,8|0,0:0|0:0,0:0:0:0:
109,57,30095,1,0,0:0:0:0:
172,112,30370,2,0,P|240:140|304:100,1,130,8|4,0:0|0:3,0:0:0:0:
360,72,31196,2,0,L|440:64,1,65,4|8,0:3|0:0,0:0:0:0:
480,224,32022,2,0,L|400:232,1,65,2|0,0:0|0:0,0:0:0:0:
332,240,32572,1,8,0:0:0:0:
248,252,32847,6,0,P|240:300|256:332,2,65
280,172,33673,1,8,0:0:0:0:
304,92,33948,2,0,P|309:60|300:29,2,65
222,68,34774,1,8,0:0:0:0:
70,141,35324,6,0,P|62:107|65:76,1,65,4|4,3:0|0:3,0:0:0:0:
138,34,35875,2,0,L|160:234,1,195,8|0,0:0|0:0,0:0:0:0:
129,306,36976,1,0,0:0:0:0:
181,371,37251,1,0,0:0:0:0:
260,341,37526,6,0,P|299:348|326:338,1,65,4|4,3:0|0:3,0:0:0:0:
289,264,38077,2,0,P|273:212|300:118,1,130,8|0,0:0|0:0,0:0:0:0:
337,71,38902,1,0,0:0:0:0:
410,112,39178,6,0,P|421:65|405:19,2,97.5,8|4|4,0:0|0:3|0:3,0:0:0:0:
363,182,40278,2,0,B|384:250|337:252|368:333,1,130,8|2,0:0|0:0,0:0:0:0:
442,286,41104,1,2,0:0:0:0:
480,210,41379,2,0,B|493:162|493:162|473:91,2,97.5,2|4|0,0:0|0:3|0:0,0:0:0:0:
408,163,42480,2,0,P|361:132|279:131,1,130,8|0,0:0|0:0,0:0:0:0:
209,158,43306,1,0,0:0:0:0:
151,219,43581,6,0,P|105:198|48:198,2,97.5,8|4|4,0:0|0:3|0:3,0:0:0:0:
228,252,44682,2,0,B|255:231|256:195|256:195|298:196|328:162,1,130,8|2,0:0|0:0,0:0:0:0:
262,107,45508,1,2,0:0:0:0:
309,37,45783,2,0,P|344:32|384:43,1,65,2|0,0:0|0:0,0:0:0:0:
436,95,46334,6,0,P|444:135|427:178,2,65,4|0|8,0:3|0:0|0:0,0:0:0:0:
359,130,47159,1,0,0:0:0:0:
323,206,47434,2,0,P|314:237|320:269,1,65
349,348,47985,6,0,P|289:347|247:312,2,97.5,8|4|4,0:0|0:3|0:3,0:0:0:0:
425,311,49086,2,0,B|457:298|457:250|457:250|456:178,1,130,8|2,0:0|0:0,0:0:0:0:
379,159,49911,1,2,0:0:0:0:
300,192,50187,1,2,0:0:0:0:
252,122,50462,6,0,P|247:88|264:38,2,65
300,192,51288,1,0,0:0:0:0:
349,260,51563,2,0,P|354:294|337:344,2,65
270,291,52389,1,2,0:0:0:0:
191,260,52664,1,2,0:0:0:0:
111,289,52939,6,0,P|96:241|124:152,1,130,4|8,1:3|1:0,0:0:0:0:
162,95,53765,2,0,P|256:114|365:90,1,195,0|8,0:0|1:0,0:0:0:0:
468,218,55141,5,4,0:3:0:0:
421,288,55416,1,2,0:0:0:0:
336,281,55691,2,0,L|330:198,1,65,8|2,1:0|0:0,0:0:0:0:
246,207,56242,1,2,0:0:0:0:
241,291,56517,2,0,L|238:359,2,65,0|8|0,0:0|1:0|0:0,0:0:0:0:
153,306,57343,6,0,P|99:299|55:226,1,130,4|8,1:3|1:0,0:0:0:0:
137,225,58168,2,0,B|120:171|73:160|73:160|108:106|76:41,1,195,0|8,0:0|1:0,0:0:0:0:
249,109,59545,5,4,3:0:0:0:
328,79,59820,1,2,0:0:0:0:
411,90,60095,2,0,P|454:104|480:139,1,65,8|2,1:0|0:0,0:0:0:0:
405,173,60645,1,2,0:0:0:0:
409,257,60921,2,0,L|413:337,2,65,0|4|4,1:0|1:3|1:3,0:0:0:0:
331,290,61746,6,0,B|171:283,1,130,4|8,1:3|1:0,0:0:0:0:
141,223,62572,2,0,P|115:283|198:370,1,195,0|8,0:0|1:0,0:0:0:0:
29,334,63948,5,4,0:3:0:0:
2,253,64223,1,2,0:0:0:0:
29,172,64499,2,0,L|117:160,1,65,8|2,1:0|0:0,0:0:0:0:
169,198,65049,1,2,0:0:0:0:
244,235,65324,2,0,L|332:223,2,65,2|4|4,0:0|0:3|0:3,0:0:0:0:
266,153,66150,6,0,L|420:133,1,130,4|8,1:3|1:0,0:0:0:0:
460,189,66976,2,0,P|480:115|373:56,1,195,0|8,0:0|1:0,0:0:0:0:
313,74,68077,1,8,1:0:0:0:
240,31,68352,1,4,0:3:0:0:
168,76,68627,6,2,P|162:106|168:139,2,65
316,153,69728,2,2,P|322:183|316:216,2,65
237,184,70554,5,4,0:3:0:0:
256,192,88168,12,4,89820,0:0:0:0:
109,214,90370,6,0,P|104:167|124:126,1,65,4|4,0:3|0:3,0:0:0:0:
187,182,90921,2,0,B|223:177|248:200|248:200|270:172|327:168,1,130,8|0,0:0|0:0,0:0:0:0:
386,144,91746,1,0,0:0:0:0:
319,91,92022,1,8,0:0:0:0:
382,247,92572,6,0,L|369:330,1,65,4|4,0:3|0:3,0:0:0:0:
285,316,93123,2,0,P|243:285|234:203,1,130,8|0,0:0|0:0,0:0:0:0:
261,133,93948,1,2,0:0:0:0:
177,142,94223,2,0,L|88:151,1,65,8|0,0:0|0:0,0:0:0:0:
47,203,94774,6,0,P|42:243|59:295,1,65,4|4,0:3|0:3,0:0:0:0:
103,329,95324,2,0,P|173:340|237:295,1,130,8|0,0:0|0:0,0:0:0:0:
264,238,96150,1,0,0:0:0:0:
346,256,96425,6,0,L|460:282,2,97.5,8|4|4,0:0|0:3|0:3,0:0:0:0:
352,171,97526,2,0,B|324:167|290:192|290:192|274:160|231:149,1,130,8|0,0:0|0:0,0:0:0:0:
160,170,98352,1,0,0:0:0:0:
217,232,98627,1,0,0:0:0:0:
169,301,98902,6,0,P|139:320|97:319,2,65,0|4|4,0:0|0:3|0:3,0:0:0:0:
112,238,99728,2,0,P|80:190|113:102,1,130,8|0,0:0|0:0,0:0:0:0:
161,72,100554,1,0,0:0:0:0:
244,85,100829,2,0,L|249:169,1,65,8|0,0:0|0:0,0:0:0:0:
320,193,101379,6,0,L|325:277,1,65,4|4,0:3|0:3,0:0:0:0:
330,342,101930,2,0,B|368:339|390:311|390:311|422:324|457:315,1,130,8|0,0:0|0:0,0:0:0:0:
430,234,102756,1,0,0:0:0:0:
447,151,103031,1,0,0:0:0:0:
373,109,103306,6,0,P|358:80|355:48,2,65,0|4|0,0:0|0:3|0:0,0:0:0:0:
328,180,104132,1,8,0:0:0:0:
284,252,104407,2,0,P|286:284|301:312,2,65
368,259,105233,1,8,0:0:0:0:
353,90,105783,6,0,P|380:107|412:110,1,65,4|4,3:0|0:3,0:0:0:0:
410,27,106334,2,0,P|446:35|468:172,1,195,8|6,0:0|0:3,0:0:0:0:
402,218,107434,1,0,0:0:0:0:
385,301,107710,1,2,0:3:0:0:
315,347,107985,6,0,P|294:321|288:290,1,65,4|4,3:0|0:3,0:0:0:0:
318,213,108536,2,0,P|255:210|209:254,1,130,8|0,0:0|0:0,0:0:0:0:
181,334,109361,1,0,0:0:0:0:
118,276,109637,6,0,B|109:225|109:225|120:174,2,97.5,8|4|0,0:0|0:3|0:3,0:0:0:0:
187,228,110737,2,0,B|215:94,1,130,8|2,0:0|0:0,0:0:0:0:
248,23,111563,1,2,0:0:0:0:
332,26,111838,6,0,B|449:52,2,97.5,2|4|4,0:0|0:3|0:3,0:0:0:0:
334,110,112939,2,0,P|350:176|327:243,1,130,8|0,0:0|0:0,0:0:0:0:
285,304,113765,1,0,0:0:0:0:
204,327,114040,6,0,P|145:324|107:285,2,97.5,8|4|4,0:0|0:3|0:3,0:0:0:0:
180,245,115141,2,0,B|153:216|121:216|121:216|128:179|101:155,1,130,8|2,0:0|0:0,0:0:0:0:
40,103,115967,1,2,0:0:0:0:
97,41,116242,2,0,L|177:36,1,65,2|0,0:0|0:0,0:0:0:0:
222,95,116793,6,0,P|227:135|211:179,2,65,4|0|8,0:3|0:0|0:0,0:0:0:0:
143,126,117618,1,0,0:0:0:0:
98,197,117893,2,0,P|93:227|102:269,1,65
172,302,118444,6,0,L|285:294,2,97.5,8|4|4,0:0|0:3|0:3,0:0:0:0:
97,343,119545,2,0,P|59:336|20:239,1,130,8|2,0:0|0:0,0:0:0:0:
31,179,120370,1,2,0:0:0:0:
106,141,120646,1,2,0:0:0:0:
180,180,120921,6,0,B|164:216|189:264,2,65
262,159,121747,1,0,0:0:0:0:
344,141,122022,2,0,B|360:105|335:57,2,65,0|0|4,0:0|0:0|0:0,0:0:0:0:
320,222,122847,1,4,0:1:0:0:
343,303,123123,1,4,0:1:0:0:
422,275,123398,6,0,L|437:139,1,130,4|8,1:3|1:0,0:0:0:0:
425,62,124223,2,0,P|360:44|260:139,1,195,0|8,0:0|1:0,0:0:0:0:
296,282,125600,5,4,0:3:0:0:
218,249,125875,1,4,0:3:0:0:
141,283,126150,2,0,L|133:372,1,65,8|2,1:0|0:0,0:0:0:0:
56,316,126701,1,2,0:0:0:0:
65,232,126976,2,0,L|70:167,2,65,2|8|4,0:0|1:0|0:3,0:0:0:0:
147,212,127802,6,0,L|160:66,1,130,4|8,1:3|1:0,0:0:0:0:
234,119,128627,2,0,B|269:138|327:162|327:81|386:101|422:121,1,195,0|8,0:0|1:0,0:0:0:0:
456,286,130004,5,4,0:3:0:0:
378,318,130279,1,4,0:3:0:0:
321,255,130554,2,0,P|317:220|333:163,1,65,8|2,1:0|0:0,0:0:0:0:
387,137,131104,1,2,0:0:0:0:
466,165,131379,2,0,P|471:132|460:92,2,65,2|4|4,0:0|0:3|0:3,0:0:0:0:
428,241,132205,6,0,P|362:279|295:253,1,130,4|8,1:3|1:0,0:0:0:0:
235,300,133031,2,0,L|224:105,1,195,0|8,0:0|1:0,0:0:0:0:
65,48,134407,5,4,0:3:0:0:
35,127,134682,1,2,0:0:0:0:
61,207,134958,2,0,P|58:245|72:290,1,65,8|2,1:0|0:0,0:0:0:0:
141,238,135508,1,2,0:0:0:0:
195,173,135783,2,0,P|200:144|193:91,2,65,2|4|4,0:0|0:3|0:3,0:0:0:0:
228,251,136609,6,0,B|282:286|282:286|362:263,1,130,4|8,1:3|1:0,0:0:0:0:
420,229,137435,2,0,P|411:160|288:143,1,195,0|8,0:0|1:0,0:0:0:0:
228,172,138536,1,8,1:0:0:0:
151,136,138811,1,4,0:3:0:0:
159,219,139086,6,2,L|166:291,2,65
324,184,140187,2,2,L|331:112,2,65
316,268,141012,6,0,P|386:282|430:224,1,130,4|8,1:3|1:0,0:0:0:0:
443,162,141838,2,0,L|237:84,1,195,0|8,0:0|1:0,0:0:0:0:
420,37,143214,5,4,0:3:0:0:
373,107,143489,1,4,0:3:0:0:
372,191,143764,2,0,L|385:275,1,65,8|2,1:0|0:0,0:0:0:0:
308,297,144315,1,2,0:0:0:0:
224,282,144590,2,0,P|188:282|146:301,2,65,2|4|4,0:0|0:3|0:3,0:0:0:0:
201,363,145416,6,0,P|147:373|89:332,1,130,4|8,1:3|1:0,0:0:0:0:
50,256,146242,2,0,B|29:215|36:143|76:179|78:103|48:55,1,195,0|8,0:0|1:0,0:0:0:0:
140,213,147618,5,4,0:3:0:0:
211,168,147893,1,4,0:3:0:0:
241,89,148168,2,0,P|243:43|220:7,1,65,8|2,1:0|0:0,0:0:0:0:
162,65,148718,1,2,0:0:0:0:
132,143,148994,2,0,P|129:175|141:216,2,65,2|8|4,0:0|1:0|0:3,0:0:0:0:
216,169,149819,6,0,L|366:190,1,130,4|8,1:3|1:0,0:0:0:0:
389,258,150645,2,0,P|455:227|461:100,1,195,0|8,0:0|1:0,0:0:0:0:
304,90,152021,5,4,0:3:0:0:
258,161,152296,1,4,0:3:0:0:
303,232,152572,2,0,P|303:271|319:314,1,65,8|2,1:0|0:0,0:0:0:0:
255,360,153122,1,2,0:0:0:0:
200,295,153398,2,0,P|207:263|206:231,2,65,2|8|4,0:0|1:0|0:3,0:0:0:0:
123,258,154223,6,0,B|67:290|67:290|-8:256,1,130,4|8,1:3|1:0,0:0:0:0:
65,201,155049,2,0,L|253:94,1,195,0|8,0:0|1:0,0:0:0:0:
304,152,156150,1,8,0:0:0:0:
380,115,156425,1,4,0:3:0:0:
455,153,156700,6,2,P|461:184|460:217,2,65
304,76,157801,2,2,P|302:43|308:11,2,65
378,116,158627,6,0,L|368:208,1,65,4|4,0:3|0:3,0:0:0:0:
360,264,159178,2,0,P|284:284|229:255,1,130,8|0,0:0|0:0,0:0:0:0:
176,208,160003,1,0,0:0:0:0:
164,124,160278,1,8,0:0:0:0:
18,211,160829,6,0,L|18:306,1,65,4|4,0:3|0:3,0:0:0:0:
42,356,161379,2,0,B|73:354|92:321|92:321|121:352|178:345,1,130,8|0,0:0|0:0,0:0:0:0:
236,350,162205,1,0,0:0:0:0:
311,312,162480,1,8,0:0:0:0:
479,297,163031,6,0,P|489:263|469:209,2,65,4|4|8,0:3|0:3|0:0,0:0:0:0:
403,258,163856,1,0,0:0:0:0:
365,182,164132,2,0,P|364:116|430:64,1,130,0|8,0:0|0:3,0:0:0:0:
441,147,164957,1,4,0:3:0:0:
437,231,165233,6,0,P|382:267|358:268,2,65,4|4|8,0:3|0:3|0:0,0:0:0:0:
365,182,166058,1,0,0:0:0:0:
302,239,166334,2,0,B|274:250|256:283|256:283|240:250|188:232,1,130,0|8,0:0|0:0,0:0:0:0:
181,320,167159,1,0,0:0:0:0:
96,324,167434,6,0,L|48:256,1,65,4|4,0:3|0:3,0:0:0:0:
10,200,167985,2,0,P|27:143|92:104,1,130,8|0,0:0|0:0,0:0:0:0:
168,110,168811,1,0,0:0:0:0:
239,154,169086,1,8,0:0:0:0:
217,321,169636,6,0,L|305:309,1,65,4|4,0:3|0:3,0:0:0:0:
359,345,170187,2,0,L|512:330,1,130,8|0,0:0|0:0,0:0:0:0:
472,249,171012,1,0,0:0:0:0:
489,166,171288,1,8,0:0:0:0:
379,37,171838,6,0,L|373:113,2,65,4|4|8,0:3|0:3|0:0,0:0:0:0:
295,53,172664,1,0,0:0:0:0:
240,117,172939,2,0,L|251:260,1,130,0|8,0:0|0:3,0:0:0:0:
257,331,173765,1,4,0:3:0:0:
331,290,174040,6,0,P|340:259|334:207,2,65,4|4|8,0:3|0:3|0:0,0:0:0:0:
257,331,174866,1,0,0:0:0:0:
182,291,175141,2,0,P|155:232|165:169,1,130,0|8,0:0|0:0,0:0:0:0:
81,158,175967,1,0,0:0:0:0:
84,76,176242,6,0,B|142:58|142:58|176:64,1,65,4|4,0:3|0:3,0:0:0:0:
225,88,176792,2,0,B|287:111|287:111|368:80,1,130,8|0,0:0|0:0,0:0:0:0:
424,55,177618,1,2,0:0:0:0:
411,138,177893,1,8,0:0:0:0:
398,221,178168,1,2,0:0:0:0:
416,303,178444,6,0,P|375:304|336:271,1,65,4|4,0:3|0:3,0:0:0:0:
296,231,178994,2,0,P|272:275|173:288,1,130,8|0,0:0|0:0,0:0:0:0:
115,280,179820,1,0,0:0:0:0:
66,210,180095,1,8,0:0:0:0:
71,125,180370,1,0,0:0:0:0:
130,64,180645,6,0,P|172:63|208:86,2,65,4|4|8,0:3|0:3|0:0,0:0:0:0:
148,146,181471,1,0,0:0:0:0:
231,157,181746,2,0,L|369:175,1,130,0|8,0:0|0:3,0:0:0:0:
436,210,182572,1,4,0:3:0:0:
479,137,182847,6,0,P|486:94|466:49,2,65,4|4|8,0:3|0:3|0:0,0:0:0:0:
399,107,183673,1,0,0:0:0:0:
320,77,183948,2,0,P|246:76|196:138,1,130,0|8,0:0|0:0,0:0:0:0:
281,151,184774,1,2,0:0:0:0:
210,196,185049,6,0,P|172:192|143:166,1,65,4|4,0:3|0:3,0:0:0:0:
69,154,185600,2,0,B|73:193|46:215|46:215|79:243|64:296,1,130,8|0,0:0|0:0,0:0:0:0:
133,324,186425,1,2,0:0:0:0:
211,292,186700,1,8,0:0:0:0:
277,343,186976,1,2,0:0:0:0:
343,291,187251,6,0,P|378:277|427:284,1,65,4|4,0:3|0:3,0:0:0:0:
483,306,187801,2,0,B|504:241|456:242|481:179,1,130,8|2,0:0|0:0,0:0:0:0:
462,97,188627,1,0,0:0:0:0:
385,62,188902,2,0,L|304:32,1,65,10|0,0:0|0:0,0:0:0:0:
241,60,189453,6,0,P|225:97|228:141,1,65
175,190,190003,2,0,P|189:227|223:256,2,65
422,336,191654,6,0,L|456:247,1,65
416,195,192205,2,0,L|450:106,2,65
339,231,193031,1,4,0:0:0:0:
261,198,193306,1,4,0:1:0:0:
183,165,193581,1,4,0:1:0:0:
105,199,193856,6,0,L|120:335,1,130,4|8,1:3|1:0,0:0:0:0:
203,322,194682,2,0,P|288:359|367:303,1,195,0|8,0:0|1:0,0:0:0:0:
277,161,196058,5,4,0:3:0:0:
345,111,196333,1,4,0:3:0:0:
429,111,196608,2,0,L|421:200,1,65,8|2,1:0|0:0,0:0:0:0:
414,260,197159,1,2,0:0:0:0:
488,299,197434,2,0,P|497:274|493:234,2,65,2|8|4,0:0|1:0|0:3,0:0:0:0:
415,343,198260,6,0,L|265:328,1,130,4|8,1:3|1:0,0:0:0:0:
210,368,199086,2,0,B|193:343|185:275|236:292|238:217|211:182,1,195,0|8,0:0|1:0,0:0:0:0:
111,43,200462,5,4,0:3:0:0:
69,116,200737,1,4,0:3:0:0:
27,189,201012,2,0,B|27:223|27:223|54:276,1,65,8|2,1:0|0:0,0:0:0:0:
86,321,201563,1,2,0:0:0:0:
167,297,201838,2,0,P|198:288|238:287,2,65,2|4|4,0:0|0:3|0:3,0:0:0:0:
158,212,202664,6,0,B|163:181|134:155|134:155|166:134|160:72,1,130,4|8,1:3|1:0,0:0:0:0:
225,43,203489,2,0,B|264:59|309:53|309:53|306:69|306:69|360:61|413:90,1,195,0|8,0:0|1:0,0:0:0:0:
458,239,204867,5,4,0:3:0:0:
379,271,205141,1,2,0:0:0:0:
300,239,205417,2,0,P|276:211|274:161,1,65,8|2,1:0|0:0,0:0:0:0:
275,99,205967,1,2,0:0:0:0:
199,138,206243,2,0,P|185:167|186:199,2,65,2|4|4,0:0|0:3|0:3,0:0:0:0:
192,53,207068,6,0,B|138:18|138:18|58:41,1,130,4|8,1:3|1:0,0:0:0:0:
43,114,207894,2,0,P|103:172|203:129,1,195,0|8,0:0|1:0,0:0:0:0:
258,77,208995,1,8,1:0:0:0:
340,93,209270,1,4,0:3:0:0:
365,173,209545,6,2,B|367:208|367:208|351:248,2,65
257,303,210646,2,0,B|222:305|222:305|194:293,2,65,2|4|4,0:0|0:1|0:1,0:0:0:0:
236,221,211471,6,0,P|157:214|117:263,1,130,4|8,1:3|1:0,0:0:0:0:
80,319,212298,2,0,B|107:284|105:209|54:226|62:158|79:133,1,195,0|8,0:0|1:0,0:0:0:0:
217,36,213673,5,4,0:3:0:0:
232,118,213948,1,4,0:3:0:0:
248,200,214223,2,0,L|263:285,1,65,8|2,1:0|0:0,0:0:0:0:
326,315,214774,1,2,0:0:0:0:
410,322,215049,2,0,P|449:316|484:296,2,65,2|4|4,0:0|0:3|0:3,0:0:0:0:
419,237,215875,6,0,P|387:206|407:116,1,130,4|8,1:3|1:0,0:0:0:0:
466,79,216701,2,0,B|446:41|393:41|393:41|273:41,1,195,0|8,0:0|1:0,0:0:0:0:
141,130,218077,5,4,0:3:0:0:
112,209,218352,1,4,0:3:0:0:
142,287,218627,2,0,P|147:331|129:375,1,65,8|2,1:0|0:0,0:0:0:0:
64,317,219177,1,2,0:0:0:0:
29,239,219454,2,0,P|24:195|42:151,2,65,2|8|4,0:0|1:0|0:3,0:0:0:0:
112,209,220279,6,0,P|180:221|224:177,1,130,4|8,1:3|1:0,0:0:0:0:
253,104,221104,2,0,L|272:321,1,195,0|8,0:0|1:0,0:0:0:0:
425,231,222480,5,4,0:3:0:0:
402,149,222755,1,4,0:3:0:0:
327,107,223031,2,0,B|295:99|295:99|242:112,1,65,8|2,1:0|0:0,0:0:0:0:
185,138,223581,1,2,0:0:0:0:
104,165,223857,2,0,B|72:172|72:172|40:164,2,65,2|8|4,0:0|1:0|0:3,0:0:0:0:
127,246,224683,6,0,P|97:302|118:364,1,130,4|8,1:3|1:0,0:0:0:0:
181,309,225508,2,0,B|231:311|256:256|256:256|280:312|347:310,1,195,0|8,0:0|1:0,0:0:0:0:
414,299,226609,1,8,1:0:0:0:
478,244,226884,1,4,0:3:0:0:
484,159,227159,6,2,P|478:120|451:83,2,65
342,251,228261,2,2,P|345:283|360:311,2,65
371,171,229087,5,4,1:0:0:0:
255,48,229636,2,0,L|111:57,1,130,8|0,0:0|0:0,0:0:0:0:
62,112,230462,1,0,0:0:0:0:
105,184,230737,2,0,L|184:179,1,65
243,222,231288,6,0,L|227:291,1,65,4|4,0:3|0:3,0:0:0:0:
153,324,231838,2,0,B|123:333|101:349|101:349|125:319|137:273,1,130,8|0,0:0|0:0,0:0:0:0:
177,120,232939,1,0,0:0:0:0:
261,128,233214,1,0,0:0:0:0:
317,65,233489,6,0,P|345:76|390:78,1,65,4|4,0:3|0:3,0:0:0:0:
442,23,234040,2,0,P|462:100|432:146,1,130,8|0,0:0|0:0,0:0:0:0:
356,162,234866,1,2,0:0:0:0:
292,217,235141,2,0,P|286:251|300:298,1,65,8|2,0:0|0:0,0:0:0:0:
370,310,235691,6,0,P|376:276|362:229,1,65,4|4,0:3|0:3,0:0:0:0:
292,217,236242,2,0,B|256:233|252:266|252:266|217:254|182:282,1,130,8|0,0:0|0:0,0:0:0:0:
107,279,237067,1,2,0:0:0:0:
117,194,237343,1,2,0:0:0:0:
62,124,237618,1,2,0:0:0:0:
77,41,237893,5,4,0:3:0:0:
224,123,238444,2,0,P|286:137|346:84,1,130,8|0,0:0|0:0,0:0:0:0:
271,49,239269,1,0,0:0:0:0:
224,123,239545,2,0,L|233:213,1,65,8|0,0:0|0:0,0:0:0:0:
176,252,240095,6,0,L|182:316,1,65,4|4,0:3|0:3,0:0:0:0:
257,355,240645,2,0,P|321:356|379:297,1,130,8|0,0:0|0:0,0:0:0:0:
440,161,241746,2,0,P|445:203|426:247,1,65,8|0,0:0|0:0,0:0:0:0:
360,194,242297,5,4,0:3:0:0:
281,224,242572,1,4,0:3:0:0:
248,145,242847,6,0,P|246:102|269:60,2,65,8|0|0,0:0|0:0|0:0,0:0:0:0:
281,224,243673,1,2,0:0:0:0:
322,296,243948,2,0,P|323:338|300:380,1,65,4|8,0:3|0:0,0:0:0:0:
232,320,244499,5,4,0:3:0:0:
256,192,244774,12,8,247251,0:0:0:0:
