osu file format v14

[General]
AudioFilename: audio.mp3
AudioLeadIn: 0
PreviewTime: 52251
Countdown: 0
SampleSet: Soft
StackLeniency: 0.7
Mode: 0
LetterboxInBreaks: 0
WidescreenStoryboard: 0

[Editor]
Bookmarks: 70554,90370,123398,158627
DistanceSpacing: 1
BeatDivisor: 4
GridSize: 8
TimelineZoom: 1.9

[Metadata]
Title:Free The Animal
TitleUnicode:Free The Animal
Artist:Sia
ArtistUnicode:Sia
Creator:Tony
Version:Mao's Easy
Source:
Tags:-M4x Mao 1000 forms of fear
BeatmapID:1046082
BeatmapSetID:428841

[Difficulty]
HPDrainRate:2
CircleSize:3
OverallDifficulty:2
ApproachRate:3
SliderMultiplier:1
SliderTickRate:1

[Events]
//Background and Video events
0,0,"sia-541b4fce-hero.jpg",0,0
//Break Periods
2,70753,88930
//Storyboard Layer 0 (Background)
//Storyboard Layer 1 (Fail)
//Storyboard Layer 2 (Pass)
//Storyboard Layer 3 (Foreground)
//Storyboard Sound Samples

[TimingPoints]
19912,550.45871559633,4,2,0,55,1,0
52939,-100,4,1,0,85,0,1
70554,-100,4,2,0,55,0,0
123398,-100,4,1,0,85,0,1
140875,-100,4,1,0,85,0,0
141012,-100,4,1,0,85,0,1
158627,-100,4,2,0,55,0,0
193856,-100,4,1,0,85,0,1
211334,-100,4,2,0,55,0,0
211471,-100,4,1,0,85,0,1
227434,-100,4,2,0,55,0,1
228535,-100,4,1,0,85,0,1
229086,-100,4,2,0,55,0,0
244774,-100,4,2,0,25,0,0

[Colours]
Combo1 : 255,213,85
Combo2 : 255,174,94
Combo3 : 255,100,177
Combo4 : 242,24,57

[HitObjects]
42,74,19911,5,4,1:0:0:0:
66,171,20462,2,0,P|118:220|213:226,1,150,8|0,1:0|0:0,0:0:0:0:
238,209,21563,2,0,L|245:126,2,75,8|4|4,1:0|0:3|0:3,0:0:0:0:
272,245,22664,1,8,1:0:0:0:
430,367,23765,1,8,1:0:0:0:
478,279,24315,6,0,L|472:221,1,50,2|0,0:0|0:0,0:0:0:0:
494,184,24866,2,0,P|442:187|370:120,1,150,8|0,1:0|0:0,0:0:0:0:
364,76,25967,2,0,L|390:6,2,75,8|4|4,1:0|0:3|0:3,0:0:0:0:
317,56,27067,2,0,P|232:33|150:98,1,200,8|8,1:0|1:0,0:0:0:0:
114,191,28719,6,0,L|99:296,1,100,4|8,0:0|1:0,0:0:0:0:
126,332,29545,1,0,0:0:0:0:
175,327,29820,2,0,L|189:228,1,100,2|8,0:0|1:0,0:0:0:0:
276,179,30921,2,0,P|289:214|287:245,1,50,4|4,0:3|0:3,0:0:0:0:
281,275,31471,2,0,P|302:325|441:348,1,200,8|8,1:0|1:0,0:0:0:0:
474,261,33123,6,0,L|489:156,1,100,4|8,0:0|1:0,0:0:0:0:
462,120,33949,1,0,0:0:0:0:
413,125,34224,2,0,L|399:224,1,100,2|8,0:0|1:0,0:0:0:0:
387,323,35324,1,4,0:0:0:0:
290,296,35875,2,0,P|264:235|282:147,1,150,8|0,1:0|0:0,0:0:0:0:
305,113,36976,1,8,0:1:0:0:
226,51,37526,6,0,P|203:57|165:52,1,50,4|0,1:0|0:0,0:0:0:0:
133,30,38077,2,0,P|101:94|87:221,1,200,8|8,1:0|1:0,0:0:0:0:
134,308,39728,1,2,0:0:0:0:
178,330,40003,1,4,0:3:0:0:
223,351,40278,2,0,P|255:287|269:160,1,200,8|8,1:1|0:1,0:0:0:0:
244,63,41930,5,4,1:0:0:0:
288,39,42205,1,4,0:3:0:0:
337,34,42480,2,0,P|393:85|412:170,1,150,8|0,1:0|0:0,0:0:0:0:
432,200,43581,2,0,L|512:216,2,75,8|4|4,1:0|0:3|0:3,0:0:0:0:
396,235,44682,1,8,1:0:0:0:
331,311,45233,2,0,B|281:315|281:315|250:354|250:354|190:359,1,150,2|0,3:0|0:0,0:0:0:0:
150,365,46334,5,4,1:0:0:0:
71,303,46884,2,0,P|42:263|82:122,1,200,8|8,1:0|0:1,0:0:0:0:
153,65,48535,1,2,0:0:0:0:
202,75,48811,1,4,0:3:0:0:
250,85,49086,2,0,P|288:173|245:260,1,200,8|8,1:0|0:1,0:0:0:0:
175,333,50737,6,2,B|228:385|335:364|292:300|399:279|452:333,1,300,4|0,0:0|0:0,0:0:0:0:
494,241,52939,6,2,P|450:220|388:213,1,100,6|8,1:0|1:0,0:0:0:0:
351,225,53765,2,2,P|274:235|114:42,1,350,2|8,0:0|0:0,0:0:0:0:
36,177,56517,1,2,0:3:0:0:
40,226,56792,2,0,L|47:292,1,50,10|4,0:0|0:3,0:0:0:0:
53,325,57343,6,2,P|105:357|161:350,1,100,6|8,0:0|0:0,0:0:0:0:
189,338,58168,2,2,B|256:295|258:165|173:200|175:70|248:21,1,350,2|8,0:0|0:0,0:0:0:0:
396,33,60921,2,0,L|449:39,2,50,2|8|4,0:3|0:0|0:3,0:0:0:0:
362,69,61746,6,2,P|349:120|379:166,1,100,6|8,0:0|0:0,0:0:0:0:
402,198,62572,2,2,P|423:264|293:357,1,250,2|6,0:0|0:2,0:0:0:0:
229,285,64499,2,0,P|194:270|92:308,1,150,8|2,0:0|0:3,0:0:0:0:
67,347,65600,1,8,0:0:0:0:
19,259,66150,6,2,P|8:206|22:152,1,100,6|8,0:0|0:0,0:0:0:0:
45,120,66976,2,2,B|109:167|231:122|168:55|290:10|362:61,1,350,2|8,0:0|0:0,0:0:0:0:
458,168,69728,2,0,B|445:217|445:217|468:260|468:260|457:311,1,150,4|4,0:3|1:0,3:0:0:0:
462,310,90370,5,4,0:0:0:0:
376,362,90921,2,0,P|305:371|244:327,1,150,8|0,1:0|0:0,0:0:0:0:
210,290,92022,2,0,L|225:202,2,75,8|4|4,0:0|0:3|0:3,0:0:0:0:
165,312,93123,1,8,1:0:0:0:
33,160,94224,1,8,1:0:0:0:
111,98,94774,6,0,P|132:99|163:110,1,50,4|0,0:0|0:0,0:0:0:0:
190,147,95325,2,0,P|239:201|312:205,1,150,8|0,1:0|0:0,0:0:0:0:
340,164,96426,2,0,L|330:84,2,75,8|4|4,1:0|0:3|0:3,0:0:0:0:
389,158,97526,2,0,P|459:176|484:296,1,200,8|8,1:0|1:0,0:0:0:0:
400,338,99178,6,0,L|294:348,1,100,4|8,0:0|1:0,0:0:0:0:
256,324,100003,1,0,0:0:0:0:
211,302,100278,2,0,L|105:312,1,100,2|8,0:0|1:0,0:0:0:0:
44,237,101379,2,0,L|36:181,1,50,4|4,0:0|0:3,0:0:0:0:
59,142,101930,2,0,P|126:169|234:104,1,200,8|8,1:0|1:1,0:0:0:0:
294,33,103581,6,0,P|317:63|321:130,1,100,4|8,0:0|1:0,0:0:0:0:
304,169,104407,1,0,0:0:0:0:
286,215,104682,2,0,P|287:264|314:305,1,100,2|8,0:0|1:0,0:0:0:0:
400,357,105783,1,4,0:0:0:0:
463,279,106334,2,0,P|477:221|442:128,1,150,8|4,1:0|0:3,0:0:0:0:
410,105,107435,1,8,1:0:0:0:
312,82,107985,6,0,L|257:102,1,50,4|4,1:0|0:3,0:0:0:0:
250,146,108535,2,0,P|253:238|214:344,1,200,8|8,1:0|0:1,0:0:0:0:
123,302,110187,1,2,0:0:0:0:
77,281,110462,1,4,0:3:0:0:
33,256,110737,2,0,P|30:164|69:58,1,200,8|8,1:0|1:0,0:0:0:0:
156,21,112389,6,0,P|169:49|165:83,1,50,4|0,1:0|0:0,0:0:0:0:
169,117,112939,2,0,P|139:175|156:257,1,150,8|0,1:0|0:0,0:0:0:0:
183,296,114040,2,0,L|178:382,2,75,8|4|4,1:0|0:3|0:3,0:0:0:0:
226,270,115141,1,8,1:0:0:0:
317,228,115692,2,0,B|367:232|367:232|398:271|398:271|458:276,1,150,2|0,0:3|0:0,0:0:0:0:
497,278,116793,5,4,1:0:0:0:
501,178,117343,2,0,P|502:133|384:56,1,200,8|8,1:0|1:0,0:0:0:0:
327,136,118994,1,2,0:0:0:0:
296,175,119269,1,4,0:3:0:0:
266,215,119545,2,0,P|174:185|151:93,1,200,8|8,1:0|1:0,0:0:0:0:
53,68,121196,6,2,P|47:146|185:309,1,300,4|2,0:0|0:0,0:0:0:0:
270,263,123398,6,2,P|282:214|270:154,1,100,6|8,0:0|0:0,0:0:0:0:
240,128,124223,2,2,P|250:89|455:154,1,350,2|8,0:0|0:0,0:0:0:0:
450,301,126976,1,2,0:3:0:0:
423,343,127251,2,0,L|355:363,1,50,8|4,0:0|0:3,0:0:0:0:
328,374,127801,6,2,P|282:332|238:330,1,100,6|8,0:0|0:0,0:0:0:0:
208,360,128627,2,2,B|141:317|139:187|224:222|222:92|149:43,1,350,2|8,0:0|0:0,0:0:0:0:
54,158,131379,2,0,P|43:188|38:220,2,50,2|8|4,0:3|0:0|0:3,0:0:0:0:
96,132,132205,6,2,P|125:174|162:207,1,100,6|8,0:0|0:0,0:0:0:0:
207,229,133031,2,2,P|263:242|438:157,1,250,2|6,0:0|0:2,0:0:0:0:
361,94,134957,2,0,P|325:129|224:125,1,150,8|2,0:0|0:3,0:0:0:0:
189,99,136058,1,8,0:0:0:0:
105,44,136609,6,2,P|65:46|17:96,1,100,6|8,0:0|0:0,0:0:0:0:
15,133,137434,2,2,B|15:212|125:282|140:192|250:262|252:350,1,350,2|8,0:0|0:0,0:0:0:0:
401,367,140187,2,0,P|399:332|388:297,1,50,2|8,0:3|0:0,0:0:0:0:
374,272,140737,1,2,0:3:0:0:
357,224,141012,6,2,P|349:182|382:112,1,100,6|8,0:0|0:0,0:0:0:0:
401,92,141838,2,2,B|335:148|270:114|263:32|229:29|208:110|136:131|84:61,1,350,2|8,0:0|0:0,0:0:0:0:
145,200,144590,2,0,P|179:199|205:186,2,50,2|8|4,0:3|0:0|0:3,0:0:0:0:
99,179,145416,6,2,P|63:221|70:279,1,100,6|8,0:0|0:0,0:0:0:0:
92,304,146242,2,2,B|157:360|222:326|229:244|263:241|284:322|356:343|408:273,1,350,2|8,0:0|0:0,0:0:0:0:
471,138,148994,1,2,0:3:0:0:
464,88,149269,2,0,L|454:33,1,50,8|4,0:0|0:3,0:0:0:0:
408,20,149820,6,2,P|365:20|308:64,1,100,6|8,0:0|0:0,0:0:0:0:
269,36,150645,2,2,B|228:84|255:174|306:132|333:223|295:266,1,250,2|6,0:0|0:2,0:0:0:0:
244,348,152572,2,0,P|198:377|105:355,1,150,8|2,0:0|0:3,0:0:0:0:
66,331,153673,1,8,0:0:0:0:
30,237,154223,6,2,P|34:196|75:154,1,100,6|8,0:0|0:0,0:0:0:0:
123,171,155049,2,2,B|183:221|307:182|248:113|372:73|441:128,1,350,2|8,0:0|0:0,0:0:0:0:
483,272,157801,2,0,L|490:336,2,50,2|8|4,0:3|0:0|0:3,0:0:0:0:
476,222,158627,5,4,1:0:0:0:
458,123,159178,2,0,P|427:83|291:106,1,200,8|8,1:0|1:0,0:0:0:0:
256,192,160829,1,4,0:0:0:0:
217,282,161379,2,0,P|129:319|54:261,1,200,8|8,1:0|1:0,0:0:0:0:
36,162,163031,6,0,L|29:59,1,100,4|8,0:0|1:0,0:0:0:0:
67,30,163856,1,0,0:0:0:0:
113,48,164132,2,0,L|120:151,1,100,2|4,0:0|3:0,0:0:0:0:
172,232,165233,2,0,L|178:331,1,100,4|8,0:0|1:0,0:0:0:0:
225,349,166059,1,0,0:0:0:0:
263,317,166334,2,0,L|256:217,1,100,2|8,0:0|1:0,0:0:0:0:
283,121,167434,5,4,1:0:0:0:
382,127,167985,2,0,P|452:172|463:286,1,200,8|8,1:0|1:0,0:0:0:0:
365,355,169636,1,4,0:0:0:0:
240,365,170187,2,0,P|180:288|198:193,1,200,8|8,1:0|1:0,0:0:0:0:
210,94,171838,6,0,P|170:71|103:73,1,100,4|8,0:0|1:0,0:0:0:0:
72,92,172664,1,0,0:0:0:0:
44,133,172939,2,0,L|24:236,1,100,2|4,0:0|3:0,0:0:0:0:
88,308,174040,2,0,P|128:331|195:329,1,100,4|8,0:0|1:0,0:0:0:0:
226,310,174866,1,0,0:0:0:0:
273,294,175141,2,0,P|322:295|365:319,1,100,2|8,0:0|1:0,0:0:0:0:
464,335,176242,5,4,1:0:0:0:
470,235,176792,2,0,P|430:157|323:145,1,200,8|8,1:0|1:0,0:0:0:0:
256,215,178444,1,4,0:0:0:0:
185,143,178994,2,0,P|89:151|42:235,1,200,8|8,1:0|1:0,0:0:0:0:
85,325,180645,6,0,L|188:342,1,100,4|8,0:0|1:0,0:0:0:0:
225,314,181471,1,0,0:0:0:0:
265,284,181746,2,0,L|368:301,1,100,2|4,0:0|3:0,0:0:0:0:
352,200,182847,2,0,L|253:183,1,100,4|8,0:0|1:0,0:0:0:0:
212,211,183673,1,0,0:0:0:0:
172,241,183948,2,0,L|73:224,1,100,2|8,0:0|1:0,0:0:0:0:
7,148,185049,5,4,1:0:0:0:
48,57,185600,2,0,P|111:42|196:133,1,200,8|8,1:0|1:0,0:0:0:0:
256,211,187251,1,4,0:0:0:0:
316,131,187801,2,0,P|368:51|464:57,1,200,8|8,1:0|1:0,0:0:0:0:
503,149,189453,6,0,P|504:198|478:248,1,100,4|2,0:0|0:0,0:0:0:0:
448,279,190278,1,0,0:0:0:0:
402,299,190554,2,0,L|292:269,1,100,2|2,0:0|0:0,0:0:0:0:
206,272,191655,2,0,L|110:299,1,100,4|2,0:0|0:0,0:0:0:0:
64,279,192481,1,0,0:0:0:0:
29,243,192756,2,0,P|8:198|9:149,1,100,2|0,0:0|1:0,0:0:0:0:
105,176,193856,6,2,P|142:166|178:114,1,100,6|8,1:0|0:0,0:0:0:0:
176,64,194682,2,2,B|216:32|272:64|296:128|248:216|176:264|104:256,1,350,2|8,0:0|0:0,0:0:0:0:
215,359,197434,2,0,L|286:360,1,50,2|8,0:3|0:0,0:0:0:0:
312,343,197985,1,4,0:3:0:0:
357,323,198260,6,2,P|406:321|452:340,1,100,6|8,0:0|0:0,0:0:0:0:
491,307,199086,2,2,B|457:227|330:200|348:290|221:264|191:190,1,350,2|8,0:0|0:0,0:0:0:0:
339,161,201838,2,0,P|367:158|403:158,2,50,2|8|4,0:3|0:0|0:3,0:0:0:0:
292,141,202664,6,2,P|244:135|196:93,1,100,6|8,1:0|0:0,0:0:0:0:
177,61,203489,2,2,P|125:56|5:197,1,250,2|6,0:0|0:2,0:0:0:0:
97,226,205416,2,0,P|97:152|167:140,1,150,8|2,0:0|0:3,0:0:0:0:
202,163,206517,1,8,0:0:0:0:
256,248,207067,6,2,L|256:360,1,100,6|8,0:0|0:0,0:0:0:0:
299,373,207893,2,2,P|388:374|461:159,1,350,2|8,0:0|0:0,0:0:0:0:
340,76,210645,2,0,L|276:66,2,50,2|8|4,0:3|0:0|0:3,0:0:0:0:
368,117,211471,6,2,P|346:165|341:217,1,100,6|8,1:0|0:0,0:0:0:0:
335,261,212297,2,2,B|250:277|156:189|239:152|145:63|67:82,1,350,2|8,0:0|0:0,0:0:0:0:
32,228,215049,2,0,L|18:298,1,50,2|8,0:3|0:0,0:0:0:0:
45,321,215600,1,4,0:3:0:0:
74,361,215875,6,2,P|118:338|173:339,1,100,6|8,0:0|0:0,0:0:0:0:
211,360,216700,2,2,B|292:386|339:329|313:251|343:235|394:301|469:292|489:207,1,350,2|10,0:0|0:0,0:0:0:0:
473,58,219453,2,0,L|464:0,2,50,2|0|4,0:3|1:0|0:3,0:0:0:0:
451,103,220278,6,2,P|392:102|356:77,1,100,6|8,0:0|0:0,0:0:0:0:
316,53,221104,2,2,B|278:97|307:189|358:146|387:238|347:289,1,250,2|6,0:0|0:2,0:0:0:0:
277,346,223031,2,0,B|246:366|194:344|222:317|170:295|142:315,1,150,8|2,0:0|0:3,0:0:0:0:
106,349,224132,1,8,0:0:0:0:
61,259,224682,6,2,P|41:216|54:148,1,100,6|8,0:0|0:0,0:0:0:0:
73,123,225508,2,2,B|227:23|367:174|270:284|124:277|112:72|291:30,1,550,2|8,0:0|0:0,0:0:0:0:
389,46,229086,5,4,1:0:0:0:
456,120,229636,2,0,B|448:176|448:176|464:216|464:216|457:265,1,150,8|4,1:0|3:0,0:0:0:0:
359,247,231012,2,0,B|363:211|363:211|352:183|352:183|357:143,1,100,4|4,3:0|0:3,0:0:0:0:
361,99,231838,2,0,B|312:117|312:117|177:62|177:62|125:85,1,250,8|2,1:0|0:0,0:0:0:0:
40,128,233765,5,4,0:3:0:0:
33,177,234040,2,0,B|25:233|25:233|41:273|41:273|34:322,1,150,8|2,1:0|0:0,0:0:0:0:
130,292,235416,2,0,B|134:256|134:256|123:228|123:228|130:191,1,100,2|4,0:0|0:3,0:0:0:0:
160,155,236242,2,0,P|201:138|286:194,1,150,8|8,1:0|0:3,0:0:0:0:
290,238,237343,2,0,L|285:305,1,50,4|0,3:0|0:0,0:0:0:0:
282,337,237893,5,4,1:0:0:0:
375,372,238444,2,0,B|380:272|380:272|421:234,1,150,8|2,1:0|0:0,0:0:0:0:
403,138,239820,2,0,B|355:181|355:181|319:179,1,100,2|4,0:0|0:3,0:0:0:0:
270,173,240645,2,0,P|214:196|203:323,1,200,8|8,1:0|1:0,0:0:0:0:
106,351,242297,6,0,P|95:214|295:81,1,400,4|4,1:0|0:0,0:0:0:0:
256,192,244774,12,8,247251,1:0:0:0:
