osu file format v14

[General]
AudioFilename: audio.mp3
AudioLeadIn: 0
PreviewTime: 52251
Countdown: 0
SampleSet: Soft
StackLeniency: 0.7
Mode: 0
LetterboxInBreaks: 0
WidescreenStoryboard: 0

[Editor]
Bookmarks: 158627
DistanceSpacing: 1.5
BeatDivisor: 8
GridSize: 4
TimelineZoom: 2.399999

[Metadata]
Title:Free The Animal
TitleUnicode:Free The Animal
Artist:Sia
ArtistUnicode:Sia
Creator:Tony
Version:Animal
Source:
Tags:-M4x Mao 1000 forms of fear
BeatmapID:925393
BeatmapSetID:428841

[Difficulty]
HPDrainRate:7
CircleSize:4
OverallDifficulty:7
ApproachRate:9
SliderMultiplier:2.5
SliderTickRate:1

[Events]
//Background and Video events
0,0,"sia-541b4fce-hero.jpg",0,0
//Break Periods
2,70753,87568
//Storyboard Layer 0 (Background)
//Storyboard Layer 1 (Fail)
//Storyboard Layer 2 (Pass)
//Storyboard Layer 3 (Foreground)
//Storyboard Sound Samples

[TimingPoints]
19912,550.45871559633,4,2,0,55,1,0
105508,-55.5555555555556,4,2,0,55,0,0
105645,-100,4,2,0,55,0,0
193856,-100,4,2,0,55,0,1
211334,-100,4,2,0,55,0,0
211471,-100,4,2,0,55,0,1
229086,-100,4,2,0,55,0,0
244774,-100,4,2,0,25,0,0

[Colours]
Combo1 : 255,213,85
Combo2 : 255,174,94
Combo3 : 255,100,177
Combo4 : 242,24,57

[HitObjects]
112,160,17985,6,0,P|164:208|184:212,1,62.5,0|0,1:0|1:0,1:0:0:0:
248,64,18260,2,0,P|222:81|203:106,1,62.5,0|0,1:0|1:0,1:0:0:0:
340,216,18535,2,0,P|322:190|297:171,1,62.5,0|0,1:0|1:0,1:0:0:0:
80,214,19636,6,0,P|64:288|104:352,2,125,2|0|0,0:0|1:0|0:0,0:0:0:0:
348,300,20462,2,0,L|140:272,2,187.5,8|2|0,1:0|0:0|0:0,0:0:0:0:
448,316,21425,1,0,0:0:0:0:
388,148,21563,6,0,P|416:76|480:60,1,125,8|0,1:0|0:0,0:0:0:0:
512,104,21976,2,0,P|484:176|420:192,1,125,0|2,1:0|0:0,0:0:0:0:
340,40,22389,1,0,1:0:0:0:
428,312,22664,1,8,1:0:0:0:
428,312,23214,6,0,L|492:340,2,62.5,2|2|0,0:0|0:0|1:0,0:0:0:0:
352,280,23627,1,0,0:0:0:0:
276,248,23765,1,8,1:0:0:0:
276,248,24040,6,0,P|192:256|152:240,1,125,2|0,0:0|1:0,0:0:0:0:
76,300,24453,2,0,P|64:239|82:180,1,125
140,100,24866,1,8,1:0:0:0:
308,360,25141,1,2,0:0:0:0:
140,100,25691,5,2,0:0:0:0:
228,52,25829,1,2,0:0:0:0:
320,92,25967,2,0,B|372:108|372:108|410:85|451:99,1,125,8|0,1:0|0:0,0:0:0:0:
432,196,26379,2,0,P|440:272|405:317,1,125,0|2,1:0|0:0,0:0:0:0:
232,224,26792,2,0,P|292:213|349:237,2,125,0|8|2,1:0|1:0|0:0,0:0:0:0:
256,80,27618,6,0,L|248:132,4,31.25,2|2|2|0|0,0:0|0:0|0:0|0:0|1:0,0:0:0:0:
320,32,28031,1,2,0:0:0:0:
172,92,28168,1,8,1:0:0:0:
256,340,28444,5,2,0:0:0:0:
256,340,28581,1,0,1:0:0:0:
256,340,28719,2,0,P|336:364|388:336,1,125,2|0,0:0|1:0,0:0:0:0:
184,296,29132,2,0,P|104:272|52:300,1,125,2|0,0:0|0:0,0:0:0:0:
120,352,29545,1,2,0:0:0:0:
40,96,29820,6,0,L|176:72,1,125,2|0,0:0|1:0,0:0:0:0:
36,216,30233,2,0,L|160:195,1,125,2|0,0:0|0:0,0:0:0:0:
236,132,30645,1,0,0:0:0:0:
424,196,30921,6,0,P|439:270|406:334,1,125,0|0,1:0|1:0,0:0:0:0:
304,112,31471,2,0,P|368:47|516:89,1,250,8|0,1:0|0:0,0:0:0:0:
428,320,32297,1,2,0:0:0:0:
428,320,32434,1,2,0:0:0:0:
428,320,32572,1,8,1:0:0:0:
288,136,32847,5,2,0:0:0:0:
244,220,32985,1,0,1:0:0:0:
264,308,33123,2,0,P|160:300|136:272,1,125,2|0,0:0|1:0,0:0:0:0:
80,334,33535,2,0,P|88:230|116:206,1,125,2|0,0:0|0:0,0:0:0:0:
148,140,33948,5,2,0:0:0:0:
108,56,34086,1,0,1:0:0:0:
192,224,34223,2,0,P|264:252|309:232,1,125,2|0,0:0|1:0,0:0:0:0:
260,40,34636,2,0,P|234:112|252:160,1,125,2|0,0:0|0:0,0:0:0:0:
260,40,35049,1,0,0:0:0:0:
320,352,35324,5,0,1:0:0:0:
496,200,35600,1,0,1:0:0:0:
140,224,35875,1,8,1:0:0:0:
140,224,36425,1,2,0:0:0:0:
76,284,36563,1,2,0:0:0:0:
140,344,36700,1,0,1:0:0:0:
204,284,36838,2,0,L|268:288,1,62.5,0|8,0:0|1:0,0:0:0:0:
464,64,37251,5,2,0:0:0:0:
372,84,37389,1,0,0:0:0:0:
288,48,37526,2,0,L|136:40,1,125,0|0,1:0|1:0,0:0:0:0:
224,256,38077,2,0,L|376:264,1,125,8|0,1:0|0:0,0:0:0:0:
120,184,38489,5,0,0:0:0:0:
120,184,38627,2,0,P|96:252|108:312,1,125,2|0,0:0|0:0,0:0:0:0:
184,352,39040,1,2,0:0:0:0:
188,124,39178,2,0,P|132:96|68:112,1,125,8|0,1:0|0:0,0:0:0:0:
69,336,39590,6,0,P|125:364|189:348,1,125,0|0,1:0|0:0,0:0:0:0:
443,335,40003,2,0,P|388:363|328:351,1,125,0|8,1:0|1:0,0:0:0:0:
16,144,40829,6,0,L|32:220,1,62.5,2|2,0:0|0:0,0:0:0:0:
116,220,41104,2,0,L|132:296,1,62.5,0|0,3:0|0:0,0:0:0:0:
212,304,41379,1,0,3:0:0:0:
476,64,41655,5,0,0:0:0:0:
376,52,41792,2,0,L|251:41,1,125,0|0,1:0|0:0,0:0:0:0:
36,176,42205,2,0,L|160:165,2,125,0|8|0,1:0|1:0|0:0,0:0:0:0:
288,336,43031,6,0,L|376:328,1,62.5,2|2,0:0|0:0,0:0:0:0:
440,204,43306,2,0,L|352:196,1,62.5,0|0,1:0|0:0,0:0:0:0:
216,72,43581,2,0,L|364:52,1,125,8|0,1:0|0:0,0:0:0:0:
116,40,43994,6,0,P|116:112|164:160,1,125,0|0,1:0|0:0,0:0:0:0:
216,72,44407,1,0,1:0:0:0:
392,196,44682,2,0,P|376:276|312:224,1,187.5,8|0,1:0|0:0,0:0:0:0:
312,144,45233,6,0,P|280:144|252:164,1,62.5,2|2,0:0|0:0,0:0:0:0:
168,272,45508,2,0,P|199:271|228:252,1,62.5,0|0,3:0|0:0,0:0:0:0:
84,212,45783,1,0,3:0:0:0:
84,212,46058,6,0,L|60:76,1,125,2|0,0:0|1:0,0:0:0:0:
428,172,46609,2,0,L|452:308,2,125,0|8|0,0:0|1:0|0:0,0:0:0:0:
356,272,47297,2,0,L|332:149,1,125,2|0,0:0|0:0,0:0:0:0:
280,340,47710,2,0,L|256:217,1,125,2|8,0:0|1:0,0:0:0:0:
228,44,48260,5,0,0:0:0:0:
164,184,48398,2,0,L|16:192,1,125,0|0,1:0|0:0,0:0:0:0:
144,88,48811,2,0,L|-4:96,1,125,0|8,1:0|1:0,0:0:0:0:
432,356,49636,5,2,0:0:0:0:
388,264,49774,1,2,0:0:0:0:
488,208,49911,1,0,3:0:0:0:
384,136,50049,1,0,0:0:0:0:
484,40,50187,1,0,3:0:0:0:
92,36,50462,6,0,P|68:112|88:172,2,125,2|0|0,0:0|0:0|0:0,0:0:0:0:
248,116,51288,1,2,0:0:0:0:
16,256,51563,1,0,0:0:0:0:
196,32,51838,1,0,0:0:0:0:
80,328,52113,1,0,0:0:0:0:
248,116,52389,5,2,0:0:0:0:
132,188,52526,1,0,0:0:0:0:
16,256,52664,1,0,0:0:0:0:
248,116,52939,6,2,P|340:84|420:128,1,187.5,4|0,1:0|0:0,1:0:0:0:
328,196,53489,1,8,1:0:0:0:
328,196,53765,2,2,B|304:280|304:280|352:318|343:371,1,187.5,2|2,1:0|0:0,1:0:0:0:
260,356,54315,1,2,0:0:0:0:
36,208,54590,6,0,L|48:68,1,125,8|2,1:0|0:0,1:0:0:0:
36,208,55003,1,0,0:0:0:0:
156,88,55141,2,0,B|216:96|216:96|248:80|280:77,1,125,0|0,1:0|1:0,0:0:0:0:
436,44,55691,1,10,1:0:0:0:
352,320,55967,6,0,L|284:312,1,62.5,2|0,1:0|0:0,0:0:0:0:
152,248,56242,2,0,L|220:240,1,62.5,2|0,1:0|0:0,0:0:0:0:
360,220,56517,1,2,1:0:0:0:
16,264,56792,5,8,1:0:0:0:
88,32,57067,1,0,0:0:0:0:
16,264,57343,2,2,P|56:328|164:320,1,187.5,2|2,1:0|1:0,1:0:0:0:
105,253,57893,1,8,1:0:0:0:
88,32,58168,2,2,L|288:40,1,187.5,2|2,1:0|1:0,1:0:0:0:
428,112,58719,6,0,L|248:120,1,125,2|8,1:0|1:0,0:0:0:0:
20,136,59269,1,2,0:0:0:0:
20,136,59407,1,2,0:0:0:0:
20,136,59545,1,0,1:0:0:0:
224,344,59820,6,0,L|364:332,1,125,0|8,1:0|1:0,0:0:0:0:
412,80,60370,2,0,L|332:88,1,62.5,2|0,1:0|0:0,0:0:0:0:
196,104,60645,2,0,L|258:97,1,62.5,2|0,1:0|0:0,0:0:0:0:
412,80,60921,5,2,1:0:0:0:
492,148,61058,1,0,1:0:0:0:
400,204,61196,1,0,1:0:0:0:
468,288,61334,1,0,1:0:0:0:
328,352,61471,2,0,L|260:364,1,62.5,0|0,3:0|3:0,0:0:0:0:
116,304,61746,6,2,L|306:273,1,187.5,4|0,0:0|0:0,1:0:0:0:
92,220,62297,2,2,L|268:188,2,125,8|2|0,1:0|0:0|0:0,1:0:0:0:
184,72,63123,1,2,0:0:0:0:
184,72,63260,1,2,0:0:0:0:
184,72,63398,2,0,B|248:60|248:60|284:72|324:56,1,125,8|0,1:0|0:0,0:0:0:0:
184,200,63811,2,0,B|248:188|248:188|284:200|324:184,1,125,4|0,0:0|0:0,0:0:0:0:
404,120,64223,5,2,1:0:0:0:
96,124,64499,1,10,1:0:0:0:
256,344,64774,1,2,1:0:0:0:
256,344,64911,1,0,0:0:0:0:
256,344,65049,1,2,1:0:0:0:
96,124,65324,2,0,P|68:204|84:256,1,125,2|0,1:0|1:0,0:0:0:0:
360,324,65875,6,0,L|440:328,1,62.5,0|0,1:0|1:0,1:0:0:0:
496,192,66150,2,2,L|348:184,1,125,2|0,1:0|1:0,1:0:0:0:
84,176,66700,1,8,1:0:0:0:
84,176,66976,2,2,B|80:228|124:276|124:276|60:264|24:316|36:368,1,250,2|2,1:0|1:0,1:0:0:0:
64,44,67801,6,2,L|232:48,1,125,8|0,1:0|1:0,1:0:0:0:
300,52,68214,1,4,0:0:0:0:
436,160,68352,2,0,P|412:236|352:260,1,125,2|2,0:0|1:0,0:0:0:0:
284,236,68765,5,0,1:0:0:0:
264,144,68902,1,10,1:0:0:0:
352,176,69040,1,0,0:0:0:0:
439,327,69178,2,0,P|351:347|319:331,1,125,2|0,1:0|0:0,0:0:0:0:
108,76,69728,5,2,1:0:0:0:
108,227,69866,1,0,0:0:0:0:
197,104,70003,1,2,1:0:0:0:
52,151,70141,1,0,0:0:0:0:
197,198,70278,2,0,P|196:272|160:308,1,125,2|4,1:0|0:0,0:0:0:0:
256,192,88168,12,0,90370,1:0:0:0:
352,56,90645,5,0,1:0:0:0:
440,220,90921,1,8,1:0:0:0:
440,220,91196,1,0,0:0:0:0:
412,288,91334,6,0,P|336:308|264:276,1,125,2|0,0:0|0:0,0:0:0:0:
100,288,91746,2,0,P|176:308|248:276,1,125,2|8,0:0|1:0,0:0:0:0:
256,148,92297,1,0,0:0:0:0:
372,52,92572,6,0,P|432:44|476:100,1,125,0|0,1:0|1:0,0:0:0:0:
388,332,93123,1,8,1:0:0:0:
388,332,93535,1,2,0:0:0:0:
388,332,93948,2,0,L|308:320,1,62.5,2|0,0:0|0:0,0:0:0:0:
196,296,94223,1,8,1:0:0:0:
24,168,94499,5,2,0:0:0:0:
80,112,94636,1,2,0:0:0:0:
136,60,94774,2,0,P|208:20|264:56,1,125,0|0,1:0|1:0,0:0:0:0:
232,205,95187,2,0,P|242:145|204:98,1,125,2|0,0:0|0:0,0:0:0:0:
168,164,95600,1,2,0:0:0:0:
320,144,95737,6,0,L|452:132,1,125,2|0,0:0|0:0,0:0:0:0:
296,264,96150,2,0,L|428:252,2,125,2|8|0,0:0|1:0|0:0,0:0:0:0:
208,268,96838,2,0,P|239:333|296:348,1,125,0|0,1:0|0:0,0:0:0:0:
180,192,97251,2,0,P|149:127|92:112,2,125,0|8|0,1:0|1:0|0:0,0:0:0:0:
14,270,98077,5,2,0:0:0:0:
104,188,98214,1,2,0:0:0:0:
80,306,98352,1,0,3:0:0:0:
28,196,98489,1,0,3:0:0:0:
135,255,98627,2,0,P|160:268|180:296,1,62.5,0|0,3:0|3:0,0:0:0:0:
304,268,98902,2,0,P|286:293|259:308,1,62.5,0|0,3:0|3:0,0:0:0:0:
236,168,99178,5,0,1:0:0:0:
144,48,99453,1,0,1:0:0:0:
292,28,99728,1,8,1:0:0:0:
236,168,100003,1,0,0:0:0:0:
188,224,100141,2,0,L|204:348,1,125,2|0,0:0|0:0,0:0:0:0:
292,216,100554,2,0,L|308:340,2,125,2|8|0,0:0|1:0|0:0,0:0:0:0:
284,140,101242,1,0,0:0:0:0:
272,68,101379,5,0,1:0:0:0:
307,339,101655,1,0,1:0:0:0:
80,192,101930,2,0,B|64:144|92:96|92:96|44:72|48:16,1,187.5,8|2,1:0|0:0,0:0:0:0:
168,164,102618,5,0,0:0:0:0:
100,275,102756,2,0,P|129:265|152:244,1,62.5,0|0,3:0|0:0,0:0:0:0:
263,267,103031,2,0,P|253:238|232:216,1,62.5,0|0,3:0|0:0,0:0:0:0:
244,132,103306,5,2,0:0:0:0:
328,176,103444,1,0,1:0:0:0:
416,156,103582,2,0,P|408:260|380:284,1,125,2|0,0:0|0:0,0:0:0:0:
442,340,103994,2,0,P|338:332|314:304,1,125,2|0,0:0|0:0,0:0:0:0:
248,272,104407,5,2,0:0:0:0:
164,312,104545,1,0,1:0:0:0:
332,228,104682,2,0,P|360:156|340:111,1,125,2|2,0:0|0:0,0:0:0:0:
148,160,105095,2,0,P|220:186|268:168,1,125,2|0,0:0|0:0,0:0:0:0:
88,100,105508,6,2,P|68:144|88:216,1,112.499996566773,2|0,1:0|0:0,1:0:0:0:
144,324,105783,5,0,1:0:0:0:
256,52,106058,1,0,1:0:0:0:
368,324,106334,2,0,B|400:288|448:292|448:292|480:244|460:200,1,187.5,8|2,1:0|0:0,0:0:0:0:
256,52,107022,6,0,L|188:68,1,62.5,2|0,0:0|1:0,0:0:0:0:
40,176,107297,2,0,L|100:161,1,62.5,0|0,3:0|3:0,3:0:0:0:
48,320,107710,5,6,0:0:0:0:
140,300,107848,1,0,1:0:0:0:
224,336,107985,2,0,L|376:344,1,125,0|0,1:0|1:0,0:0:0:0:
288,128,108536,2,0,L|136:120,1,125,8|0,1:0|0:0,0:0:0:0:
392,200,108948,5,0,0:0:0:0:
392,200,109086,2,0,P|416:132|404:72,1,125,2|0,0:0|0:0,0:0:0:0:
328,32,109499,1,2,0:0:0:0:
324,260,109637,2,0,P|380:288|444:272,1,125,8|0,1:0|0:0,0:0:0:0:
443,48,110049,6,0,P|387:20|323:36,1,125,0|0,1:0|0:0,0:0:0:0:
69,49,110462,2,0,P|124:21|184:33,1,125,0|8,1:0|1:0,0:0:0:0:
496,240,111288,6,0,L|480:164,1,62.5,2|2,0:0|0:0,0:0:0:0:
396,164,111563,2,0,L|380:88,1,62.5,0|0,3:0|0:0,0:0:0:0:
300,80,111838,1,0,3:0:0:0:
36,320,112114,5,0,0:0:0:0:
136,332,112251,2,0,L|261:343,1,125,0|0,1:0|0:0,0:0:0:0:
476,208,112664,2,0,L|352:219,2,125,0|8|0,1:0|1:0|0:0,0:0:0:0:
224,48,113490,6,0,L|136:56,1,62.5,2|2,0:0|0:0,0:0:0:0:
72,180,113765,2,0,L|160:188,1,62.5,0|0,1:0|0:0,0:0:0:0:
296,312,114040,2,0,L|148:332,1,125,8|0,1:0|0:0,0:0:0:0:
396,344,114453,6,0,P|396:272|348:224,1,125,0|0,1:0|0:0,0:0:0:0:
296,312,114866,1,0,1:0:0:0:
120,188,115141,2,0,P|136:108|200:160,1,187.5,8|0,1:0|0:0,0:0:0:0:
200,240,115692,6,0,P|232:240|260:220,1,62.5,2|2,0:0|0:0,0:0:0:0:
344,112,115967,2,0,P|313:113|284:132,1,62.5,0|0,3:0|0:0,0:0:0:0:
428,172,116242,1,0,3:0:0:0:
428,172,116517,6,0,L|452:308,1,125,2|0,0:0|1:0,0:0:0:0:
84,212,117068,2,0,L|60:76,2,125,0|8|0,0:0|1:0|0:0,0:0:0:0:
156,112,117756,2,0,L|180:235,1,125,2|0,0:0|0:0,0:0:0:0:
232,44,118169,2,0,L|256:167,1,125,2|8,0:0|1:0,0:0:0:0:
284,340,118719,5,0,0:0:0:0:
348,200,118857,2,0,L|496:192,1,125,0|0,1:0|0:0,0:0:0:0:
368,296,119270,2,0,L|516:288,1,125,0|8,1:0|1:0,0:0:0:0:
80,28,120095,5,2,0:0:0:0:
124,120,120233,1,2,0:0:0:0:
24,176,120370,1,0,3:0:0:0:
128,248,120508,1,0,0:0:0:0:
28,344,120646,1,0,3:0:0:0:
420,348,120921,6,0,P|444:272|424:212,2,125,2|0|0,0:0|0:0|0:0,0:0:0:0:
264,268,121747,1,2,0:0:0:0:
496,128,122022,1,0,0:0:0:0:
316,352,122297,1,0,0:0:0:0:
408,40,122572,6,0,L|328:56,1,62.5,2|2,0:0|0:0,0:0:0:0:
328,208,122847,2,0,L|315:146,1,62.5,2|2,0:0|0:0,0:0:0:0:
180,92,123123,2,0,L|241:79,1,62.5,2|2,0:0|0:0,0:0:0:0:
68,68,123398,6,0,P|72:136|120:184,1,125,4|0,0:0|1:0,0:0:0:0:
164,316,123948,2,0,P|116:360|32:356,1,125,8|0,1:0|0:0,0:0:0:0:
204,224,124361,2,0,P|248:272|244:356,1,125,2|0,0:0|0:0,0:0:0:0:
107,177,124774,2,0,P|155:133|239:137,1,125,2|8,0:0|1:0,0:0:0:0:
496,256,125324,5,2,0:0:0:0:
464,324,125462,1,2,0:0:0:0:
496,256,125600,1,0,1:0:0:0:
256,52,125875,1,2,1:0:0:0:
16,256,126150,1,10,1:0:0:0:
496,256,126425,6,0,L|500:172,1,62.5,2|2,1:0|1:0,0:0:0:0:
372,268,126700,2,0,L|368:352,1,62.5,2|0,1:0|0:0,0:0:0:0:
416,116,126976,1,2,1:0:0:0:
416,116,127251,6,0,P|344:92|276:112,1,125,8|0,1:0|1:0,0:0:0:0:
348,184,127664,1,0,1:0:0:0:
176,72,127801,2,2,B|164:120|188:164|188:164|184:204,1,125,2|2,1:0|1:0,1:0:0:0:
92,348,128352,2,0,P|148:332|236:348,1,125,8|2,1:0|1:0,1:0:0:0:
424,336,128765,2,2,P|368:352|280:336,1,125,2|0,1:0|1:0,1:0:0:0:
420,224,129178,2,0,P|364:240|276:224,2,125,2|8|0,1:0|1:0|0:0,0:0:0:0:
184,192,129866,5,2,0:0:0:0:
184,192,130003,2,0,P|184:272|240:332,1,125,0|2,1:0|1:0,0:0:0:0:
316,368,130554,1,10,1:0:0:0:
216,120,130829,2,0,P|159:113|126:140,1,62.5,2|2,1:0|1:0,0:0:0:0:
298,241,131104,2,0,P|353:253|389:229,1,62.5,2|0,1:0|0:0,0:0:0:0:
356,114,131379,5,2,1:0:0:0:
392,26,131517,1,0,0:0:0:0:
468,80,131655,1,0,1:0:0:0:
156,114,131930,1,0,1:0:0:0:
120,26,132068,1,0,1:0:0:0:
44,80,132205,6,0,P|40:160|76:200,1,125,6|0,0:0|0:0,0:0:0:0:
342,94,132756,2,2,L|125:117,2,187.5,10|2|2,1:0|1:0|1:0,1:0:0:0:
504,76,133856,1,10,1:0:0:0:
436,224,134132,5,0,0:0:0:0:
436,224,134269,1,0,0:0:0:0:
436,224,134407,2,0,P|428:296|480:348,1,125,2|2,1:0|1:0,0:0:0:0:
54,335,134957,2,0,P|87:284|76:224,1,125,10|0,1:0|0:0,0:0:0:0:
16,96,135370,1,0,0:0:0:0:
16,96,135508,2,0,L|152:80,1,125,2|2,1:0|1:0,0:0:0:0:
400,56,136058,5,0,1:0:0:0:
456,140,136196,1,0,0:0:0:0:
344,140,136334,2,0,L|304:200,1,62.5
220,348,136609,2,2,B|168:336|168:336|124:356|88:336,1,125,2|0,1:0|1:0,0:0:0:0:
84,84,137159,6,0,P|128:188|112:268,2,187.5,10|2|0,1:0|0:0|0:0,0:0:0:0:
428,84,138260,2,0,P|392:134|383:196,1,125,2|0,1:0|3:0,0:0:0:0:
396,276,138673,1,0,3:0:0:0:
428,83,138811,6,0,B|383:79|370:59|370:59|336:72|294:61,1,125,0|2,1:0|1:0,0:0:0:0:
172,56,139223,1,0,0:0:0:0:
280,148,139361,1,2,1:0:0:0:
248,12,139499,1,0,0:0:0:0:
192,144,139636,1,2,1:0:0:0:
192,144,139774,2,0,P|184:220|232:300,1,125
128,336,140187,6,0,L|60:328,1,62.5,2|0,1:0|0:0,0:0:0:0:
192,144,140462,2,0,L|260:136,1,62.5,2|0,1:0|0:0,0:0:0:0:
92,240,140737,2,0,L|24:232,1,62.5,2|0,1:0|0:0,0:0:0:0:
168,52,141012,6,0,L|344:32,1,125,4|0,0:0|1:0,0:0:0:0:
484,144,141563,2,0,L|308:124,1,125,8|0,1:0|0:0,0:0:0:0:
480,232,141976,2,0,L|304:212,1,125,2|0,0:0|0:0,0:0:0:0:
276,208,142389,1,2,0:0:0:0:
156,100,142664,1,0,1:0:0:0:
484,144,142939,1,2,0:0:0:0:
484,144,143077,1,2,0:0:0:0:
484,144,143214,1,0,1:0:0:0:
92,32,143489,6,0,P|62:97|78:155,1,125,0|10,1:0|1:0,0:0:0:0:
157,307,144040,2,0,L|225:299,1,62.5,2|0,1:0|0:0,0:0:0:0:
357,235,144315,2,0,L|289:227,1,62.5,2|0,1:0|0:0,0:0:0:0:
149,207,144590,1,2,1:0:0:0:
484,252,144866,5,2,1:0:0:0:
149,207,145141,1,2,0:0:0:0:
96,148,145278,1,2,0:0:0:0:
40,208,145416,2,0,B|24:240|40:276|40:276|40:304|24:328,1,125,0|0,1:0|1:0,0:0:0:0:
488,328,145967,6,0,B|472:304|472:276|472:276|488:240|472:208,1,125,8|0,1:0|0:0,0:0:0:0:
396,336,146379,2,0,B|380:312|380:284|380:284|396:248|380:216,1,125,2|0,0:0|0:0,0:0:0:0:
340,144,146792,1,2,0:0:0:0:
256,352,147067,1,0,1:0:0:0:
172,144,147343,1,2,0:0:0:0:
108,96,147480,1,2,0:0:0:0:
180,60,147618,1,0,1:0:0:0:
432,96,147893,6,0,P|452:156|432:224,1,125,0|10,1:0|1:0,0:0:0:0:
256,352,148444,2,0,L|188:344,1,62.5,2|0,1:0|0:0,0:0:0:0:
256,240,148719,2,0,L|324:232,1,62.5,2|0,1:0|0:0,0:0:0:0:
437,214,148994,6,0,P|451:154|432:96,2,125,2|8|0,1:0|1:0|0:0,0:0:0:0:
164,176,149820,2,0,L|336:160,1,125,0|0,1:0|1:0,0:0:0:0:
64,96,150370,2,0,P|48:192|92:276,2,187.5,8|2|2,1:0|0:0|0:0,0:0:0:0:
164,320,151471,6,0,P|111:355|36:340,1,125,8|0,1:0|0:0,0:0:0:0:
204,232,151884,1,0,0:0:0:0:
204,232,152022,2,0,P|256:196|332:212,1,125,0|0,1:0|1:0,0:0:0:0:
460,300,152572,1,2,1:0:0:0:
376,68,152847,6,0,L|312:64,1,62.5,2|0,1:0|0:0,0:0:0:0:
136,68,153123,2,0,L|200:64,1,62.5,2|0,1:0|0:0,0:0:0:0:
380,72,153398,1,2,1:0:0:0:
436,12,153535,1,0,0:0:0:0:
460,92,153673,1,8,1:0:0:0:
460,292,153948,1,0,0:0:0:0:
436,372,154085,1,0,0:0:0:0:
380,312,154223,6,0,P|300:296|248:308,1,125,0|0,1:0|1:0,0:0:0:0:
132,72,154774,2,0,P|212:88|264:76,1,125,8|0,1:0|0:0,0:0:0:0:
44,24,155187,2,0,P|36:96|64:144,1,125,2|0,0:0|0:0,0:0:0:0:
32,332,155600,2,0,P|40:260|12:212,2,125,2|0|0,0:0|1:0|1:0,0:0:0:0:
132,72,156425,6,0,B|192:52|192:52|272:64,1,125,0|2,1:0|1:0,0:0:0:0:
396,92,156838,1,2,0:0:0:0:
268,140,156976,1,2,1:0:0:0:
336,24,157113,1,0,0:0:0:0:
348,164,157251,2,0,B|356:236|356:236|332:292,1,125,2|0,1:0|0:0,0:0:0:0:
177,284,157801,5,2,1:0:0:0:
32,237,157939,1,0,0:0:0:0:
177,190,158077,1,2,1:0:0:0:
88,313,158214,1,2,0:0:0:0:
88,162,158352,1,2,1:0:0:0:
280,48,158627,5,0,1:0:0:0:
360,112,158834,2,0,P|372:192|360:228,1,93.75,0|2,1:0|0:0,0:0:0:0:
280,48,159178,5,8,1:0:0:0:
420,288,159385,2,0,P|340:300|304:288,1,93.75,2|0,0:0|0:0,0:0:0:0:
464,208,159728,5,2,0:0:0:0:
244,352,159934,2,0,P|232:272|244:236,1,93.75,0|2,0:0|0:0,0:0:0:0:
279,185,160278,2,0,P|232:173|179:193,2,93.75,8|2|0,1:0|0:0|0:0,0:0:0:0:
360,224,160829,5,0,1:0:0:0:
128,124,161035,1,0,1:0:0:0:
340,88,161242,1,2,0:0:0:0:
340,88,161379,1,8,1:0:0:0:
140,264,161586,2,0,P|152:336|184:368,1,93.75,2|0,0:0|0:0,0:0:0:0:
244,172,161930,5,2,0:0:0:0:
128,124,162136,2,0,P|137:78|116:37,1,93.75,0|2,0:0|0:0,0:0:0:0:
24,208,162480,1,8,1:0:0:0:
140,264,162687,2,0,P|152:336|184:368,1,93.75,2|0,0:0|0:0,0:0:0:0:
376,272,163031,6,0,L|236:288,1,125,0|0,1:0|1:0,0:0:0:0:
432,172,163444,1,2,0:0:0:0:
348,108,163581,2,0,L|208:124,1,125,8|0,1:0|0:0,0:0:0:0:
251,286,163994,2,0,L|376:272,1,125,2|2,0:0|0:0,0:0:0:0:
432,172,164407,1,0,0:0:0:0:
432,172,164682,5,8,3:0:0:0:
80,208,164957,1,8,3:0:0:0:
432,172,165233,6,0,P|464:236|456:288,1,125,0|0,1:0|1:0,0:0:0:0:
356,96,165645,1,2,0:0:0:0:
356,96,165783,2,0,P|420:64|472:72,1,125,8|0,1:0|0:0,0:0:0:0:
264,160,166196,2,0,P|184:198|84:160,1,187.5,2|2,0:0|0:0,0:0:0:0:
356,96,166884,1,8,1:0:0:0:
415,268,167159,6,0,L|400:240,3,31.25,2|2|2|2,0:0|0:0|0:0|0:0,0:0:0:0:
464,336,167434,6,0,P|436:352|352:324,1,125,0|0,1:0|1:0,0:0:0:0:
256,256,167847,1,2,0:0:0:0:
256,256,167985,2,0,P|211:244|169:263,2,93.75,8|2|0,1:0|0:0|0:0,0:0:0:0:
224,336,168535,5,2,0:0:0:0:
200,160,168742,2,0,P|181:117|192:73,1,93.75,0|2,0:0|0:0,0:0:0:0:
284,112,169086,1,8,1:0:0:0:
96,128,169292,6,0,P|53:146|9:135,1,93.75,2|0,0:0|0:0,0:0:0:0:
44,40,169636,1,0,1:0:0:0:
112,280,169843,1,0,1:0:0:0:
284,112,170049,5,2,0:0:0:0:
284,112,170187,1,8,1:0:0:0:
112,280,170393,1,2,0:0:0:0:
44,40,170600,1,0,0:0:0:0:
44,40,170737,1,2,0:0:0:0:
288,116,170944,6,0,L|392:152,1,93.75,0|2,0:0|0:0,0:0:0:0:
412,272,171288,2,0,L|308:236,2,93.75,8|2|0,1:0|0:0|0:0,0:0:0:0:
368,34,171838,6,0,L|487:72,1,125,0|0,1:0|1:0,0:0:0:0:
272,108,172251,1,2,0:0:0:0:
272,108,172389,2,0,L|391:145,1,125,8|0,1:0|0:0,0:0:0:0:
176,196,172801,1,2,0:0:0:0:
176,196,172939,1,0,0:0:0:0:
176,196,173077,2,0,L|376:256,1,187.5,2|8,0:0|3:0,0:0:0:0:
355,249,173765,1,8,3:0:0:0:
112,120,174040,6,0,P|76:180|80:240,1,125,0|0,1:0|1:0,0:0:0:0:
144,332,174453,1,2,0:0:0:0:
112,120,174590,2,0,L|0:40,2,125,8|2|0,1:0|0:0|0:0,0:0:0:0:
400,120,175416,2,0,L|512:40,1,125,2|8,0:0|1:0,0:0:0:0:
256,208,175967,6,0,L|256:252,3,31.25,2|2|2|2,0:0|0:0|0:0|0:0,0:0:0:0:
304,316,176242,6,0,P|244:328|204:312,1,93.75,0|0,1:0|1:0,0:0:0:0:
88,192,176655,1,2,0:0:0:0:
208,68,176792,2,0,P|268:56|308:72,1,93.75,8|0,1:0|0:0,0:0:0:0:
424,192,177205,1,2,0:0:0:0:
304,316,177343,6,0,P|244:328|204:312,1,93.75,0|2,0:0|0:0,0:0:0:0:
88,192,177756,1,2,0:0:0:0:
88,192,177893,2,0,P|52:244|48:280,2,93.75,8|0|2,1:0|0:0|0:0,0:0:0:0:
424,192,178444,6,0,P|460:140|464:104,2,93.75,0|0|2,1:0|1:0|0:0,0:0:0:0:
256,72,178994,2,0,P|204:36|168:32,2,93.75,8|2|0,1:0|0:0|0:0,0:0:0:0:
256,312,179545,6,0,P|308:348|344:352,2,93.75,2|0|2,0:0|0:0|0:0,0:0:0:0:
88,192,180095,1,8,1:0:0:0:
256,72,180301,1,0,0:0:0:0:
424,192,180508,1,2,0:0:0:0:
424,192,180645,6,0,P|448:244|424:324,1,125,0|0,1:0|1:0,0:0:0:0:
328,260,181058,1,2,0:0:0:0:
203,275,181196,2,0,L|335:259,1,125,8|0,1:0|0:0,0:0:0:0:
192,148,181609,2,0,L|324:132,1,125,2|2,0:0|0:0,0:0:0:0:
192,148,182022,1,0,0:0:0:0:
24,216,182297,5,8,3:0:0:0:
24,216,182572,1,8,3:0:0:0:
464,164,182847,6,0,P|472:224|440:288,1,125,0|0,1:0|1:0,0:0:0:0:
392,80,183260,1,2,0:0:0:0:
392,80,183398,2,0,P|448:54|509:62,1,125,8|0,1:0|0:0,0:0:0:0:
280,104,183811,1,2,0:0:0:0:
280,104,183948,2,0,P|218:111|162:86,2,125,0|2|8,0:0|0:0|1:0,0:0:0:0:
76,40,184774,6,0,L|52:80,3,31.25,2|2|2|2,0:0|0:0|0:0|0:0,0:0:0:0:
32,136,185049,5,0,1:0:0:0:
92,252,185256,2,0,P|136:288|188:284,1,93.75,0|2,1:0|0:0,0:0:0:0:
32,136,185600,5,8,1:0:0:0:
176,200,185806,2,0,P|232:194|266:154,1,93.75,2|0,0:0|0:0,0:0:0:0:
32,136,186150,5,2,0:0:0:0:
176,104,186356,2,0,P|212:60|208:8,1,93.75,0|2,0:0|0:0,0:0:0:0:
32,136,186700,6,0,P|37:181|69:215,2,93.75,8|0|2,1:0|0:0|0:0,0:0:0:0:
64,308,187251,2,0,P|109:302|143:270,2,93.75,0|0|2,1:0|1:0|0:0,0:0:0:0:
236,276,187801,2,0,P|230:230|198:196,2,93.75,8|2|0,1:0|0:0|0:0,0:0:0:0:
180,344,188352,5,2,0:0:0:0:
124,124,188558,1,0,0:0:0:0:
344,212,188765,1,2,0:0:0:0:
344,212,188902,2,0,P|392:220|432:200,2,93.75,8|2|0,1:0|0:0|0:0,0:0:0:0:
376,128,189453,5,2,0:0:0:0:
232,168,189728,1,0,0:0:0:0:
232,168,189866,1,2,0:0:0:0:
232,168,190003,2,0,P|220:236|252:304,2,125,0|2|0,0:0|0:0|0:0,0:0:0:0:
76,44,191104,5,2,0:0:0:0:
76,44,191379,1,0,0:0:0:0:
44,196,191655,6,0,P|32:256|72:320,1,125,2|0,0:0|0:0,0:0:0:0:
124,348,192067,1,0,0:0:0:0:
184,300,192205,2,0,P|256:292|308:336,2,125,2|0|2,0:0|0:0|0:0,0:0:0:0:
112,100,193031,6,0,P|104:52|108:24,1,62.5,2|2,0:0|0:0,0:0:0:0:
124,220,193306,2,0,P|92:220|62:213,1,62.5,2|2,0:0|0:0,0:0:0:0:
256,200,193581,2,0,P|264:248|260:276,1,62.5,2|2,0:0|0:0,0:0:0:0:
240,80,193856,6,0,P|312:72|376:100,1,125,4|0,0:0|1:0,0:0:0:0:
320,340,194407,2,0,P|248:348|184:320,1,125,8|0,1:0|0:0,0:0:0:0:
392,272,194820,2,0,P|464:264|528:292,1,125,2|0,0:0|0:0,0:0:0:0:
392,168,195233,2,0,P|464:160|528:188,1,125,2|8,0:0|1:0,0:0:0:0:
460,36,195783,5,2,0:0:0:0:
384,24,195921,1,2,0:0:0:0:
460,36,196058,1,0,1:0:0:0:
256,12,196334,1,0,1:0:0:0:
52,36,196609,2,0,P|32:100|52:160,1,125,10|0,1:0|0:0,0:0:0:0:
156,304,197022,6,0,L|90:312,1,62.5,2|0,1:0|0:0,0:0:0:0:
254,227,197297,2,0,L|315:218,1,62.5,0|2,0:0|1:0,0:0:0:0:
416,36,197710,5,8,1:0:0:0:
492,192,197985,1,2,0:0:0:0:
484,272,198123,1,2,0:0:0:0:
436,336,198260,2,0,P|392:348|316:308,1,125,0|0,1:0|1:0,0:0:0:0:
144,148,198811,6,0,P|156:192|116:268,1,125,8|0,1:0|0:0,0:0:0:0:
100,76,199223,2,0,P|144:64|212:104,1,125,2|0,0:0|0:0,0:0:0:0:
32,120,199636,2,0,P|20:76|60:8,1,125,2|8,0:0|1:0,0:0:0:0:
256,196,200187,1,2,0:0:0:0:
256,196,200324,1,2,0:0:0:0:
256,196,200462,1,0,1:0:0:0:
480,120,200737,6,0,P|492:76|452:8,1,125,0|10,1:0|1:0,0:0:0:0:
256,80,201288,1,0,0:0:0:0:
192,132,201425,1,2,1:0:0:0:
216,208,201563,1,0,0:0:0:0:
296,208,201700,1,0,0:0:0:0:
320,132,201838,5,2,1:0:0:0:
400,156,201976,1,8,3:0:0:0:
428,80,202113,1,8,3:0:0:0:
216,208,202389,1,8,3:0:0:0:
136,184,202527,1,8,3:0:0:0:
124,264,202664,6,0,P|136:304|220:332,1,125,4|0,0:0|1:0,0:0:0:0:
388,120,203214,2,0,P|376:80|292:52,1,125,8|0,1:0|0:0,0:0:0:0:
396,196,203627,2,0,P|436:184|464:100,1,125,2|0,0:0|0:0,0:0:0:0:
316,200,204040,2,0,P|328:240|412:268,1,125,2|8,0:0|1:0,0:0:0:0:
256,32,204590,1,2,0:0:0:0:
256,32,204728,1,2,0:0:0:0:
256,32,204866,1,0,1:0:0:0:
40,60,205141,6,0,P|28:128|60:184,1,125,0|10,0:0|1:0,1:0:0:0:
352,320,205691,2,0,L|284:312,1,62.5,0|2,1:0|1:0,0:0:0:0:
152,248,205966,2,0,L|220:240,1,62.5
360,220,206241,1,2,1:0:0:0:
36,344,206517,6,8,L|104:336,1,62.5,8|8,3:0|3:0,3:0:0:0:
16,248,206792,2,0,L|8:180,1,62.5,8|0,3:0|0:0,0:0:0:0:
8,36,207067,6,0,P|56:56|120:28,1,125,0|0,1:0|1:0,0:0:0:0:
216,160,207618,2,0,P|236:112|208:48,1,125,8|0,1:0|0:0,0:0:0:0:
164,220,208031,2,0,P|221:239|275:212,1,125,2|0,0:0|0:0,0:0:0:0:
332,132,208444,5,2,0:0:0:0:
392,212,208581,1,2,0:0:0:0:
448,128,208719,2,0,L|472:60,1,62.5,8|0,3:0|0:0,0:0:0:0:
392,212,208994,2,0,L|368:272,1,62.5,2|2,0:0|0:0,0:0:0:0:
328,360,209269,1,0,1:0:0:0:
158,242,209545,6,0,L|180:184,1,62.5,2|0,1:0|0:0,0:0:0:0:
40,156,209820,2,0,L|43:218,1,62.5,2|0,1:0|0:0,0:0:0:0:
136,84,210095,2,0,P|200:56|264:80,1,125,2|0,1:0|0:0,0:0:0:0:
416,136,210645,5,2,1:0:0:0:
472,196,210783,1,0,0:0:0:0:
336,200,210921,1,2,1:0:0:0:
352,280,211058,1,0,0:0:0:0:
224,232,211196,2,0,L|204:296,1,62.5,2|0,1:0|0:0,0:0:0:0:
120,352,211471,6,0,P|48:336|32:276,1,125,4|0,0:0|1:0,0:0:0:0:
8,132,212022,1,8,1:0:0:0:
256,56,212297,1,0,0:0:0:0:
304,144,212434,2,0,P|328:208|312:260,1,125,2|0,0:0|0:0,0:0:0:0:
200,259,212847,2,0,P|184:199|208:143,1,125,2|8,0:0|1:0,0:0:0:0:
380,20,213398,1,2,0:0:0:0:
460,56,213535,1,2,0:0:0:0:
391,109,213673,6,0,B|384:140|408:168|408:168|400:212|414:227,1,125,0|0,1:0|1:0,0:0:0:0:
97,227,214223,2,0,B|112:212|104:168|104:168|128:140|120:108,1,125,10|0,1:0|0:0,0:0:0:0:
200,44,214636,1,2,1:0:0:0:
300,128,214774,1,0,0:0:0:0:
212,128,214911,1,0,0:0:0:0:
312,44,215049,5,2,1:0:0:0:
392,100,215187,1,2,0:0:0:0:
440,28,215324,1,8,3:0:0:0:
440,356,215600,1,2,0:0:0:0:
392,284,215737,1,2,0:0:0:0:
312,340,215875,6,0,B|248:352|248:352|176:340,1,125,0|0,1:0|1:0,0:0:0:0:
200,44,216425,2,0,B|264:32|264:32|336:44,1,125,8|0,1:0|0:0,0:0:0:0:
204,124,216838,2,0,B|213:183|213:183|201:247,1,125,2|0,0:0|0:0,0:0:0:0:
128,88,217251,2,0,B|68:97|68:97|4:85,1,125,2|8,0:0|1:0,0:0:0:0:
20,328,217801,2,0,L|96:344,1,62.5,2|2,0:0|0:0,0:0:0:0:
256,372,218077,6,0,P|332:344|396:352,1,125,0|0,1:0|1:0,0:0:0:0:
456,192,218627,1,8,1:0:0:0:
364,44,218902,2,0,L|288:56,1,62.5,0|2,0:0|1:0,0:0:0:0:
148,44,219178,2,0,L|224:56,1,62.5
364,120,219453,6,0,L|288:132,1,62.5,2|0,1:0|0:0,0:0:0:0:
208,144,219728,1,8,1:0:0:0:
368,328,220003,2,0,L|292:340,1,62.5,2|2,0:0|0:0,0:0:0:0:
160,360,220278,6,0,P|116:332|36:356,1,125,4|0,0:0|1:0,0:0:0:0:
47,38,220829,2,0,P|106:53|160:24,1,125,8|0,1:0|0:0,0:0:0:0:
324,88,221242,2,0,P|264:72|211:102,1,125,2|0,0:0|0:0,0:0:0:0:
140,194,221655,6,0,P|118:173|108:144,1,62.5,2|2,0:0|0:0,0:0:0:0:
216,240,221930,2,0,P|228:304|192:360,1,125,8|0,1:0|0:0,0:0:0:0:
140,284,222343,1,2,0:0:0:0:
196,136,222480,6,0,L|336:120,1,125,0|0,1:0|1:0,0:0:0:0:
508,104,223031,1,10,1:0:0:0:
196,136,223306,2,0,P|192:176|204:212,1,62.5,0|2,0:0|1:0,0:0:0:0:
100,104,223581,2,0,P|104:64|92:28,1,62.5
104,204,223856,5,2,1:0:0:0:
60,280,223994,1,0,0:0:0:0:
12,208,224132,1,8,1:0:0:0:
408,180,224407,1,2,0:0:0:0:
452,104,224545,1,2,0:0:0:0:
500,176,224682,6,0,B|492:216|492:216|504:308,1,125,0|0,1:0|1:0,0:0:0:0:
12,208,225233,2,0,B|20:168|20:168|8:76,1,125,8|0,1:0|0:0,0:0:0:0:
170,43,225645,2,0,L|184:168,1,125,2|0,0:0|0:0,0:0:0:0:
90,59,226058,2,0,L|104:184,1,125,2|8,0:0|3:0,0:0:0:0:
256,344,226609,1,8,3:0:0:0:
412,184,226884,1,8,3:0:0:0:
256,40,227159,6,0,L|193:45,1,62.5,2|0,1:0|0:0,0:0:0:0:
328,116,227434,2,0,L|265:121,1,62.5,2|0,1:0|0:0,0:0:0:0:
412,184,227710,2,2,L|276:200,1,125,2|0,1:0|1:0,1:0:0:0:
48,228,228260,5,2,1:0:0:0:
0,300,228398,1,0,0:0:0:0:
96,304,228535,1,2,1:0:0:0:
100,156,228673,1,0,0:0:0:0:
8,152,228811,2,2,B|0:100|0:100|4:28,1,125,2|4,1:0|0:0,1:0:0:0:
200,88,229361,5,0,1:0:0:0:
200,88,229636,2,0,B|284:148|284:148|344:84|424:96,1,250,8|0,1:0|0:0,0:0:0:0:
400,200,230324,1,0,0:0:0:0:
400,200,230462,2,0,L|484:212,1,62.5,2|2,0:0|0:0,0:0:0:0:
304,248,230737,2,0,L|220:260,1,62.5,8|0,3:0|0:0,0:0:0:0:
380,340,231012,2,0,L|512:328,2,125,8|0|0,3:0|1:0|1:0,0:0:0:0:
260,356,231700,1,2,0:0:0:0:
176,276,231838,6,0,L|104:260,1,62.5,8|2,1:0|0:0,0:0:0:0:
336,276,232113,2,0,L|408:260,1,62.5,0|2,0:0|0:0,0:0:0:0:
176,196,232389,2,0,L|104:180,1,62.5,0|2,0:0|0:0,0:0:0:0:
336,196,232664,2,0,L|408:180,1,62.5,0|2,0:0|0:0,0:0:0:0:
180,112,232939,2,0,L|108:96,1,62.5,8|0,3:0|0:0,0:0:0:0:
332,112,233214,5,8,3:0:0:0:
416,92,233352,1,8,3:0:0:0:
360,32,233489,1,0,1:0:0:0:
33,127,233765,5,0,1:0:0:0:
68,248,234040,2,0,L|32:124,1,125,8|0,1:0|0:0,0:0:0:0:
478,127,234590,2,0,L|444:248,1,125,2|2,0:0|0:0,0:0:0:0:
200,104,235141,6,0,P|255:81|312:104,1,125,8|0,1:0|0:0,0:0:0:0:
256,196,235554,1,2,0:0:0:0:
312,284,235691,2,0,P|257:307|200:284,1,125,0|0,1:0|1:0,0:0:0:0:
36,148,236242,6,0,L|24:344,2,187.5,8|2|8,1:0|0:0|3:0,0:0:0:0:
132,104,237205,1,8,3:0:0:0:
132,104,237343,2,0,L|140:36,1,62.5,8|0,3:0|0:0,0:0:0:0:
172,196,237618,2,0,L|164:264,1,62.5,8|8,3:0|3:0,0:0:0:0:
232,108,237893,6,0,P|256:76|352:80,1,125,4|0,0:0|1:0,0:0:0:0:
403,323,238444,2,0,B|399:279|335:235|335:235|359:231|359:231|303:195|303:135,1,250,8|2,1:0|0:0,0:0:0:0:
410,134,239132,1,2,0:0:0:0:
221,209,239269,2,0,P|173:213|149:197,1,62.5
250,297,239545,2,0,P|162:305|110:281,2,125,8|0|0,1:0|0:0|1:0,0:0:0:0:
48,208,240370,5,0,1:0:0:0:
48,208,240645,2,0,P|24:264|40:344,2,125,8|0|2,1:0|0:0|0:0,0:0:0:0:
120,128,241334,1,2,0:0:0:0:
120,128,241471,2,0,P|80:104|60:104,1,62.5,2|0,0:0|0:0,0:0:0:0:
180,192,241746,2,0,P|236:208|316:184,1,125,8|0,1:0|0:0,0:0:0:0:
472,72,242297,1,0,1:0:0:0:
496,284,242572,5,0,1:0:0:0:
404,336,242710,1,0,0:0:0:0:
404,336,242847,2,0,L|324:328,1,62.5,0|2,3:0|0:0,0:0:0:0:
424,172,243123,2,0,L|504:164,1,62.5,0|2,0:0|0:0,0:0:0:0:
348,248,243398,2,0,L|268:240,1,62.5,0|2,0:0|0:0,0:0:0:0:
392,64,243673,2,0,L|472:56,1,62.5,0|2,0:0|0:0,0:0:0:0:
288,132,243948,2,0,L|208:124,1,62.5,0|2,1:0|0:0,0:0:0:0:
312,16,244223,5,2,0:0:0:0:
392,64,244361,1,2,0:0:0:0:
468,116,244499,1,0,1:0:0:0:
256,192,244774,12,8,247251,1:0:0:0:
