osu file format v14

[General]
AudioFilename: audio.mp3
AudioLeadIn: 0
PreviewTime: 52251
Countdown: 0
SampleSet: Soft
StackLeniency: 0.7
Mode: 0
LetterboxInBreaks: 0
WidescreenStoryboard: 0

[Editor]
DistanceSpacing: 1.1
BeatDivisor: 4
GridSize: 4
TimelineZoom: 1.9

[Metadata]
Title:Free The Animal
TitleUnicode:Free The Animal
Artist:Sia
ArtistUnicode:Sia
Creator:Tony
Version:Hard
Source:
Tags:-M4x Mao 1000 forms of fear
BeatmapID:931576
BeatmapSetID:428841

[Difficulty]
HPDrainRate:6
CircleSize:4
OverallDifficulty:6
ApproachRate:8
SliderMultiplier:1.9
SliderTickRate:1

[Events]
//Background and Video events
0,0,"sia-541b4fce-hero.jpg",0,0
//Break Periods
2,70753,87418
//Storyboard Layer 0 (Background)
//Storyboard Layer 1 (Fail)
//Storyboard Layer 2 (Pass)
//Storyboard Layer 3 (Foreground)
//Storyboard Sound Samples

[TimingPoints]
19912,550.45871559633,4,2,0,55,1,0
105508,-80,4,2,0,55,0,0
105645,-100,4,2,0,55,0,0
193856,-100,4,2,0,55,0,1
211334,-100,4,2,0,55,0,0
211471,-100,4,2,0,55,0,1
229086,-100,4,2,0,55,0,0
244774,-100,4,2,0,25,0,0

[Colours]
Combo1 : 255,213,85
Combo2 : 255,174,94
Combo3 : 255,100,177
Combo4 : 242,24,57

[HitObjects]
60,96,17985,6,0,L|120:88,1,47.5,0|0,1:0|1:0,0:0:0:0:
124,160,18260,2,0,L|76:166,1,47.5,0|0,1:0|1:0,0:0:0:0:
4,152,18535,1,0,1:0:0:0:
4,152,18673,1,0,1:0:0:0:
460,44,19636,6,0,P|484:108|472:152,1,95,2|0,0:0|1:0,0:0:0:0:
436,228,20187,1,0,0:0:0:0:
348,172,20462,2,0,P|268:176|224:236,2,142.5,8|2|0,1:0|0:0|0:0,0:0:0:0:
392,200,21425,5,0,0:0:0:0:
436,228,21563,2,0,L|444:324,1,95,8|0,1:0|0:0,0:0:0:0:
396,340,21976,2,0,L|301:347,1,95,0|2,1:0|0:0,0:0:0:0:
248,352,22389,1,0,1:0:0:0:
144,360,22664,6,0,P|48:284|64:128,1,285,8|2,1:0|0:0,0:0:0:0:
96,96,23627,1,0,0:0:0:0:
80,48,23765,1,8,1:0:0:0:
144,180,24040,5,2,0:0:0:0:
196,196,24178,2,0,L|344:232,1,142.5,0|0,1:0|0:0,0:0:0:0:
440,252,24866,2,0,P|440:324|388:380,2,142.5,8|2|2,1:0|0:0|0:0,0:0:0:0:
420,204,25829,5,2,0:0:0:0:
388,160,25967,1,8,1:0:0:0:
472,100,26242,1,0,0:0:0:0:
456,52,26379,2,0,P|416:28|360:32,1,95,0|2,1:0|0:0,0:0:0:0:
328,68,26792,1,0,1:0:0:0:
232,28,27067,6,0,B|208:100|261:148|261:148|212:224|120:188,1,285,8|2,1:0|0:0,0:0:0:0:
80,172,28031,1,2,0:0:0:0:
48,132,28168,1,8,1:0:0:0:
52,356,28444,5,2,0:0:0:0:
52,356,28581,2,0,L|208:340,1,142.5,0|0,1:0|1:0,0:0:0:0:
136,252,29269,2,0,L|328:232,1,190,8|2,1:0|0:0,0:0:0:0:
428,220,30095,1,0,1:0:0:0:
408,116,30370,2,0,L|219:135,1,190,8|0,1:0|1:0,0:0:0:0:
116,152,31196,5,0,1:0:0:0:
12,164,31471,2,0,P|8:252|160:356,1,285,8|2,1:0|0:0,0:0:0:0:
208,348,32434,1,2,0:0:0:0:
252,324,32572,1,8,1:0:0:0:
408,188,32847,5,2,0:0:0:0:
380,144,32985,1,0,1:0:0:0:
352,100,33123,2,0,P|300:100|264:128,1,95,2|0,0:0|1:0,0:0:0:0:
228,160,33535,2,0,P|189:186|142:184,1,95,2|0,0:0|0:0,0:0:0:0:
104,152,33948,5,2,0:0:0:0:
52,164,34086,1,0,1:0:0:0:
32,212,34223,2,0,L|64:324,1,95,2|0,0:0|1:0,0:0:0:0:
84,348,34636,2,0,P|148:316|244:328,1,142.5,2|0,0:0|0:0,0:0:0:0:
320,344,35324,5,0,1:0:0:0:
364,248,35600,1,0,1:0:0:0:
400,152,35875,2,0,P|388:56|284:136,1,285,8|0,1:0|1:0,0:0:0:0:
308,180,36838,1,0,0:0:0:0:
288,228,36976,1,8,1:0:0:0:
168,344,37251,5,2,0:0:0:0:
124,316,37389,1,0,0:0:0:0:
80,288,37526,2,0,P|64:212|76:176,1,95,0|0,1:0|1:0,0:0:0:0:
8,112,38077,2,0,P|84:96|120:108,1,95,8|0,1:0|0:0,0:0:0:0:
184,40,38627,6,0,P|200:116|188:152,1,95,2|0,0:0|0:0,0:0:0:0:
176,180,39040,1,2,0:0:0:0:
196,228,39178,2,0,P|240:244|287:240,1,95,8|0,1:0|0:0,0:0:0:0:
340,232,39590,6,0,L|380:328,1,95,0|0,1:0|0:0,0:0:0:0:
404,364,40003,1,0,1:0:0:0:
488,304,40278,1,8,1:0:0:0:
488,304,40829,6,0,L|468:240,1,47.5,2|2,0:0|0:0,0:0:0:0:
448,192,41104,2,0,L|428:128,1,47.5,0|0,3:0|0:0,0:0:0:0:
412,76,41379,1,0,3:0:0:0:
256,128,41655,5,0,0:0:0:0:
256,128,41792,2,0,P|192:148|140:132,1,95,0|0,1:0|0:0,0:0:0:0:
116,124,42205,2,0,P|97:80|100:33,2,95,0|8|0,1:0|1:0|0:0,0:0:0:0:
156,224,43031,1,2,0:0:0:0:
132,324,43306,5,0,1:0:0:0:
80,332,43444,1,0,0:0:0:0:
28,336,43581,2,0,B|8:292|8:292|8:244,1,95,8|0,1:0|0:0,0:0:0:0:
4,192,43994,2,0,B|4:145|4:145|24:101,1,95,0|0,1:0|0:0,0:0:0:0:
56,60,44407,1,0,1:0:0:0:
148,112,44682,1,8,1:0:0:0:
148,112,45233,6,0,L|212:132,1,47.5,2|2,0:0|0:0,0:0:0:0:
196,196,45508,1,0,3:0:0:0:
188,248,45645,1,0,0:0:0:0:
180,300,45783,1,0,3:0:0:0:
352,348,46058,6,0,P|364:288|348:244,2,95,2|0|0,0:0|1:0|0:0,0:0:0:0:
256,300,46884,1,8,1:0:0:0:
164,352,47159,1,0,0:0:0:0:
164,352,47297,2,0,P|152:292|168:248,1,95,2|0,0:0|0:0,0:0:0:0:
184,212,47710,2,0,P|193:165|180:120,1,95,2|8,0:0|1:0,0:0:0:0:
124,32,48260,5,0,0:0:0:0:
124,32,48398,2,0,P|184:20|228:36,1,95,0|0,1:0|0:0,0:0:0:0:
264,52,48811,2,0,P|310:61|355:48,1,95,0|8,1:0|1:0,0:0:0:0:
384,240,49636,6,0,L|420:300,3,47.5,2|2|0|0,0:0|0:0|3:0|0:0,0:0:0:0:
448,344,50187,1,0,3:0:0:0:
432,148,50462,6,0,P|349:137|320:156,2,95,2|0|0,0:0|0:0|0:0,0:0:0:0:
384,240,51288,2,0,P|466:250|496:232,2,95,2|0|0,0:0|0:0|0:0,0:0:0:0:
288,196,52113,5,0,0:0:0:0:
192,152,52389,1,2,0:0:0:0:
100,104,52664,1,0,0:0:0:0:
32,280,52939,6,0,P|84:344|192:332,1,190,4|8,1:0|1:0,0:0:0:0:
232,244,53765,2,0,P|293:175|384:186,1,190,2|2,1:0|0:0,0:0:0:0:
432,212,54453,1,0,0:0:0:0:
456,256,54590,1,8,1:0:0:0:
448,96,54866,5,2,0:0:0:0:
448,96,55003,1,0,0:0:0:0:
448,96,55141,2,0,P|384:64|344:64,1,95,0|0,1:0|1:0,0:0:0:0:
256,72,55691,2,0,B|248:144|248:144|256:204|256:204|248:260,1,190,10|2,1:0|1:0,0:0:0:0:
164,324,56517,1,2,1:0:0:0:
120,292,56655,1,0,0:0:0:0:
76,268,56792,2,0,P|60:320|70:368,1,95,8|0,1:0|0:0,0:0:0:0:
164,324,57343,6,0,L|296:316,2,95,2|0|8,1:0|0:0|1:0,0:0:0:0:
312,220,58168,2,0,L|122:230,1,190,2|2,1:0|1:0,0:0:0:0:
16,232,58994,1,8,1:0:0:0:
52,132,59269,1,2,0:0:0:0:
52,132,59407,1,2,0:0:0:0:
52,132,59545,1,0,1:0:0:0:
124,56,59820,6,0,P|168:32|232:40,1,95,0|8,1:0|1:0,0:0:0:0:
292,100,60370,2,0,L|308:152,1,47.5,2|0,1:0|0:0,0:0:0:0:
376,128,60645,2,0,L|392:180,1,47.5,2|0,1:0|0:0,0:0:0:0:
464,212,60921,5,2,1:0:0:0:
464,212,61058,1,0,1:0:0:0:
464,212,61196,2,0,L|480:268,3,47.5,0|0|0|0,1:0|1:0|3:0|3:0,0:0:0:0:
496,328,61746,6,0,P|404:360|328:308,1,190,4|8,0:0|1:0,0:0:0:0:
260,236,62572,1,2,0:0:0:0:
260,236,62710,2,0,L|100:228,1,142.5,0|2,0:0|0:0,0:0:0:0:
56,144,63398,1,8,1:0:0:0:
120,64,63673,1,0,0:0:0:0:
120,64,63811,1,4,0:0:0:0:
120,64,63948,2,0,L|224:68,1,95,0|2,0:0|1:0,0:0:0:0:
320,72,64499,5,10,1:0:0:0:
408,132,64774,2,0,L|444:180,1,47.5,2|0,1:0|0:0,0:0:0:0:
392,228,65049,2,0,L|456:312,1,95,2|2,1:0|1:0,0:0:0:0:
364,364,65600,5,0,1:0:0:0:
300,280,65875,1,0,1:0:0:0:
268,240,66012,1,0,1:0:0:0:
232,200,66150,2,0,P|172:176|73:240,1,190,2|8,1:0|1:0,0:0:0:0:
16,152,66976,5,2,1:0:0:0:
16,152,67113,2,0,P|56:108|105:86,1,95,0|0,0:0|0:0,0:0:0:0:
140,80,67526,2,0,P|187:75|232:87,1,95,2|8,1:0|1:0,0:0:0:0:
312,156,68077,1,0,1:0:0:0:
312,156,68214,1,4,0:0:0:0:
312,156,68352,1,2,0:0:0:0:
296,260,68627,6,0,L|356:264,1,47.5,2|0,1:0|1:0,0:0:0:0:
372,328,68902,2,0,L|432:332,1,47.5,10|0,1:0|0:0,0:0:0:0:
492,336,69178,2,0,L|500:236,1,95,2|0,1:0|0:0,0:0:0:0:
464,56,69728,5,2,1:0:0:0:
464,56,69866,1,0,0:0:0:0:
464,56,70003,2,0,L|384:64,1,47.5,2|0,1:0|0:0,0:0:0:0:
428,132,70278,2,0,L|304:144,1,95,2|4,1:0|0:0,0:0:0:0:
256,192,88168,12,0,90370,1:0:0:0:
256,80,90645,5,0,1:0:0:0:
172,140,90921,2,0,P|144:196|144:256,1,95,8|0,1:0|0:0,0:0:0:0:
132,332,91471,1,2,0:0:0:0:
172,364,91609,1,0,0:0:0:0:
220,348,91746,2,0,P|264:368|320:356,1,95,2|8,0:0|1:0,0:0:0:0:
368,276,92297,1,0,0:0:0:0:
380,172,92572,6,0,L|476:184,1,95,0|0,1:0|1:0,0:0:0:0:
428,88,93123,2,0,B|358:79|358:79|292:84|292:84|232:76,1,190,8|0,1:0|0:0,0:0:0:0:
136,68,93948,1,2,0:0:0:0:
116,116,94086,1,0,0:0:0:0:
96,164,94223,2,0,P|84:220|96:260,1,95,8|2,1:0|0:0,0:0:0:0:
188,212,94774,5,0,1:0:0:0:
212,312,95049,1,0,1:0:0:0:
308,268,95324,2,0,P|402:247|476:320,1,190,8|0,1:0|0:0,0:0:0:0:
376,348,96150,1,2,0:0:0:0:
308,268,96425,2,0,L|220:128,1,142.5,8|0,1:0|1:0,0:0:0:0:
172,60,97113,1,0,0:0:0:0:
172,60,97251,1,0,1:0:0:0:
76,100,97526,6,0,P|56:180|96:292,1,190,8|2,1:0|0:0,0:0:0:0:
136,300,98214,1,2,0:0:0:0:
136,352,98352,1,0,3:0:0:0:
180,380,98489,1,0,3:0:0:0:
228,364,98627,1,0,3:0:0:0:
372,292,98902,6,0,L|472:268,1,95,0|0,3:0|1:0,0:0:0:0:
472,164,99453,1,0,1:0:0:0:
416,76,99728,2,0,L|240:112,1,142.5,8|2,1:0|0:0,0:0:0:0:
220,116,100278,5,0,0:0:0:0:
112,84,100554,1,2,0:0:0:0:
24,152,100829,2,0,P|12:220|52:300,1,142.5,8|0,1:0|0:0,0:0:0:0:
80,320,101379,5,0,1:0:0:0:
168,376,101655,1,0,1:0:0:0:
236,296,101930,2,0,P|304:256|376:288,1,142.5,8|2,1:0|0:0,0:0:0:0:
444,352,102618,1,0,0:0:0:0:
444,352,102756,1,0,3:0:0:0:
444,352,102893,2,0,L|480:300,1,47.5,0|0,0:0|3:0,0:0:0:0:
504,168,103306,5,2,0:0:0:0:
496,116,103444,1,0,1:0:0:0:
484,76,103581,2,0,L|360:64,1,95,2|0,0:0|0:0,0:0:0:0:
336,60,103994,2,0,L|241:50,1,95,2|0,0:0|0:0,0:0:0:0:
188,44,104407,5,2,0:0:0:0:
148,76,104545,1,0,1:0:0:0:
108,108,104682,2,0,P|88:164|96:212,1,95,2|2,0:0|0:0,0:0:0:0:
112,252,105095,2,0,L|228:268,1,95,2|0,0:0|0:0,0:0:0:0:
268,305,105508,6,0,P|276:245|272:233,1,59.375,2|0,1:0|0:0,0:0:0:0:
244,176,105783,5,0,1:0:0:0:
308,80,106058,1,0,1:0:0:0:
204,36,106334,2,0,P|120:48|88:120,1,142.5,8|2,1:0|0:0,0:0:0:0:
192,144,107022,1,2,0:0:0:0:
192,144,107159,2,0,P|208:192|200:224,2,47.5,0|0|0,1:0|3:0|3:0,0:0:0:0:
180,316,107710,5,6,0:0:0:0:
180,316,107847,1,0,1:0:0:0:
180,316,107985,2,0,P|252:308|296:324,2,95,0|0|8,1:0|1:0|1:0,0:0:0:0:
108,228,108811,1,0,0:0:0:0:
44,136,109086,1,2,0:0:0:0:
32,28,109361,5,0,0:0:0:0:
60,80,109499,1,2,0:0:0:0:
44,136,109636,2,0,P|36:212|60:248,1,95,8|0,1:0|0:0,0:0:0:0:
72,276,110049,5,0,1:0:0:0:
152,192,110324,1,0,0:0:0:0:
152,192,110462,1,0,1:0:0:0:
220,100,110737,1,8,1:0:0:0:
220,100,111288,6,0,L|288:104,1,47.5,2|2,0:0|0:0,0:0:0:0:
336,108,111563,1,0,3:0:0:0:
398,112,111700,1,0,0:0:0:0:
460,116,111838,1,0,3:0:0:0:
400,312,112113,5,0,0:0:0:0:
400,312,112251,2,0,P|336:332|292:312,1,95,0|0,1:0|0:0,0:0:0:0:
260,300,112664,2,0,P|213:292|171:312,2,95,0|8|0,1:0|1:0|0:0,0:0:0:0:
240,188,113489,6,0,P|197:207|151:200,1,95,2|0,0:0|1:0,0:0:0:0:
112,160,113902,1,0,0:0:0:0:
136,108,114040,2,0,P|178:88|224:95,1,95,8|0,1:0|0:0,0:0:0:0:
268,132,114453,6,0,L|372:144,1,95,0|0,1:0|0:0,0:0:0:0:
420,148,114866,2,0,L|408:252,1,95,0|8,1:0|1:0,0:0:0:0:
256,344,115691,5,2,0:0:0:0:
256,344,115829,1,2,0:0:0:0:
256,344,115967,1,0,3:0:0:0:
256,344,116104,1,0,0:0:0:0:
256,344,116242,1,0,3:0:0:0:
104,208,116517,5,2,0:0:0:0:
140,112,116792,2,0,L|40:84,2,95,0|0|8,1:0|0:0|1:0,0:0:0:0:
252,144,117618,1,0,0:0:0:0:
252,144,117756,2,0,L|352:172,1,95,2|0,0:0|0:0,0:0:0:0:
409,142,118168,6,0,P|415:172|379:231,1,95,2|8,0:0|1:0,0:0:0:0:
300,296,118719,1,0,0:0:0:0:
300,296,118857,2,0,L|200:268,1,95,0|0,1:0|0:0,0:0:0:0:
142,298,119269,2,0,P|136:268|172:209,1,95,0|8,1:0|1:0,0:0:0:0:
328,60,120095,5,2,0:0:0:0:
328,60,120233,1,2,0:0:0:0:
328,60,120370,2,0,L|384:72,2,47.5,0|0|0,3:0|0:0|3:0,0:0:0:0:
400,148,120921,6,0,P|411:231|392:260,2,95,2|0|0,0:0|0:0|0:0,0:0:0:0:
344,48,121747,2,0,P|426:38|456:56,2,95,2|0|0,0:0|0:0|0:0,0:0:0:0:
272,136,122572,5,2,0:0:0:0:
236,176,122710,1,2,0:0:0:0:
184,192,122847,2,0,L|128:196,1,47.5,2|2,0:0|0:0,0:0:0:0:
108,148,123123,2,0,L|52:152,1,47.5,2|2,0:0|0:0,0:0:0:0:
32,104,123398,6,0,P|84:40|192:52,1,190,4|8,0:0|1:0,0:0:0:0:
232,140,124224,2,0,P|293:209|384:198,1,190,0|2,0:0|0:0,0:0:0:0:
432,172,124912,1,0,0:0:0:0:
456,128,125049,1,8,1:0:0:0:
448,288,125325,5,2,0:0:0:0:
448,288,125462,1,2,0:0:0:0:
448,288,125600,2,0,P|384:320|344:320,1,95,0|2,1:0|1:0,0:0:0:0:
256,312,126150,2,0,B|248:240|248:240|256:180|256:180|248:124,1,190,10|2,1:0|1:0,0:0:0:0:
164,60,126976,1,2,1:0:0:0:
120,92,127114,1,0,0:0:0:0:
76,116,127251,6,0,P|60:64|70:16,1,95,8|0,1:0|1:0,0:0:0:0:
164,60,127802,2,0,L|296:68,2,95,2|2|8,1:0|1:0|1:0,0:0:0:0:
312,164,128627,2,0,L|122:154,1,190,2|2,1:0|1:0,0:0:0:0:
16,152,129453,1,8,1:0:0:0:
52,252,129728,1,0,0:0:0:0:
52,252,129866,1,2,0:0:0:0:
52,252,130004,1,0,1:0:0:0:
124,328,130279,6,0,P|168:352|232:344,1,95,2|10,1:0|1:0,0:0:0:0:
320,316,130829,2,0,L|268:300,1,47.5,2|2,1:0|1:0,0:0:0:0:
276,228,131104,2,0,L|328:244,1,47.5,2|0,1:0|0:0,0:0:0:0:
388,264,131380,5,2,1:0:0:0:
416,216,131517,1,0,0:0:0:0:
440,164,131655,1,0,1:0:0:0:
484,68,131930,1,0,1:0:0:0:
484,68,132067,1,0,1:0:0:0:
484,68,132205,6,0,P|392:36|316:88,1,190,6|10,0:0|1:0,0:0:0:0:
216,36,133031,1,0,0:0:0:0:
216,36,133169,2,0,L|56:44,1,142.5,2|2,1:0|1:0,0:0:0:0:
160,144,133857,1,10,1:0:0:0:
116,248,134132,5,0,0:0:0:0:
116,248,134270,1,0,0:0:0:0:
116,248,134407,2,0,L|220:244,1,95,2|2,1:0|1:0,0:0:0:0:
324,244,134958,1,10,1:0:0:0:
400,332,135233,2,0,L|436:284,1,47.5
468,232,135508,2,0,P|488:172|468:116,1,95,2|2,1:0|1:0,0:0:0:0:
392,40,136059,5,0,1:0:0:0:
360,84,136196,1,0,0:0:0:0:
324,128,136334,2,0,L|288:168,1,47.5,0|0,0:0|0:0,0:0:0:0:
256,200,136609,6,0,P|196:224|97:160,1,190,2|10,1:0|1:0,0:0:0:0:
60,56,137435,1,0,0:0:0:0:
60,56,137572,2,0,P|12:88|-6:145,1,95,2|0,0:0|0:0,0:0:0:0:
0,176,137985,2,0,P|26:214|30:261,1,95,2|2,0:0|1:0,0:0:0:0:
108,348,138536,1,2,0:0:0:0:
108,348,138673,1,2,0:0:0:0:
108,348,138811,1,0,1:0:0:0:
204,288,139086,6,0,L|264:284,1,47.5,2|0,1:0|0:0,0:0:0:0:
308,280,139361,2,0,L|368:276,1,47.5,2|0,1:0|0:0,0:0:0:0:
417,314,139637,2,0,P|426:266|404:224,1,95,2|0,1:0|0:0,0:0:0:0:
328,96,140187,5,2,1:0:0:0:
272,88,140325,1,0,0:0:0:0:
216,80,140462,2,0,L|136:72,1,47.5,2|0,1:0|0:0,0:0:0:0:
112,68,140737,2,0,L|32:60,1,47.5,2|0,1:0|0:0,0:0:0:0:
24,120,141012,6,0,P|9:205|84:286,1,190,4|8,0:0|1:0,0:0:0:0:
120,180,141838,1,0,0:0:0:0:
120,180,141976,2,0,L|240:188,1,95,2|0,0:0|0:0,0:0:0:0:
272,188,142389,2,0,L|366:181,1,95,2|0,0:0|1:0,0:0:0:0:
480,168,142939,1,2,0:0:0:0:
480,168,143077,1,2,0:0:0:0:
480,168,143214,1,0,1:0:0:0:
456,304,143489,5,0,1:0:0:0:
344,336,143765,1,10,1:0:0:0:
232,320,144040,2,0,L|180:312,1,47.5,2|0,1:0|0:0,0:0:0:0:
128,304,144315,2,0,L|76:296,1,47.5,2|0,1:0|0:0,0:0:0:0:
24,288,144590,5,2,1:0:0:0:
0,236,144728,1,0,0:0:0:0:
4,180,144866,1,2,1:0:0:0:
84,100,145141,1,2,0:0:0:0:
116,148,145278,1,2,0:0:0:0:
168,176,145416,6,0,P|232:184|300:88,1,190,0|8,1:0|1:0,0:0:0:0:
392,24,146242,2,0,P|400:136|360:220,1,190,0|2,0:0|0:0,0:0:0:0:
272,268,147067,1,0,1:0:0:0:
156,264,147343,1,2,0:0:0:0:
156,264,147480,1,2,0:0:0:0:
156,264,147618,1,0,1:0:0:0:
100,88,147893,6,0,L|4:96,2,95,0|10|2,1:0|1:0|1:0,0:0:0:0:
156,84,148581,1,0,0:0:0:0:
212,76,148719,2,0,L|284:68,1,47.5,2|0,1:0|0:0,0:0:0:0:
316,60,148994,2,0,L|336:104,1,47.5,2|0,1:0|0:0,0:0:0:0:
348,160,149269,5,8,1:0:0:0:
420,248,149545,1,0,0:0:0:0:
308,268,149820,2,0,P|296:324|400:360,1,190,0|8,1:0|1:0,0:0:0:0:
420,248,150645,2,0,B|432:148|432:148|404:112|416:52,1,190,2|2,0:0|0:0,0:0:0:0:
304,36,151471,6,0,P|304:96|324:152,1,95,8|0,1:0|0:0,0:0:0:0:
332,184,151884,1,0,0:0:0:0:
304,232,152022,2,0,P|240:248|184:224,1,95,0|0,1:0|1:0,0:0:0:0:
120,172,152572,5,2,1:0:0:0:
56,256,152847,1,2,1:0:0:0:
44,308,152985,1,0,0:0:0:0:
64,356,153123,2,0,L|168:364,1,95,2|2,1:0|1:0,0:0:0:0:
354,363,153673,5,8,1:0:0:0:
316,256,153948,1,0,0:0:0:0:
232,176,154223,2,0,P|264:124|380:160,1,190,0|8,1:0|1:0,0:0:0:0:
452,232,155049,2,0,P|480:156|436:52,1,190,2|2,0:0|0:0,0:0:0:0:
332,28,155875,5,0,1:0:0:0:
248,104,156150,2,0,P|216:96|192:76,1,47.5,0|0,1:0|0:0,0:0:0:0:
168,44,156425,1,0,1:0:0:0:
88,128,156700,6,0,P|76:152|72:188,1,47.5,2|2,1:0|0:0,0:0:0:0:
76,228,156976,2,0,P|81:251|92:272,1,47.5,2|0,1:0|0:0,0:0:0:0:
136,312,157251,1,2,1:0:0:0:
256,240,157526,1,0,0:0:0:0:
376,312,157801,5,2,1:0:0:0:
419,272,157939,2,0,P|430:251|436:228,1,47.5,0|2,0:0|1:0,0:0:0:0:
440,172,158215,2,0,P|434:148|424:128,1,47.5,2|2,0:0|1:0,0:0:0:0:
256,44,158627,6,0,L|164:48,1,71.25,0|0,1:0|1:0,0:0:0:0:
100,56,159040,1,2,0:0:0:0:
100,56,159178,2,0,P|72:96|76:128,1,71.25,8|2,1:0|0:0,0:0:0:0:
88,200,159590,1,0,0:0:0:0:
88,200,159728,2,0,P|40:200|8:172,2,71.25,2|0|2,0:0|0:0|0:0,0:0:0:0:
144,188,160278,6,0,P|192:188|224:216,1,71.25,8|2,1:0|0:0,0:0:0:0:
280,248,160691,1,0,0:0:0:0:
280,248,160829,2,0,P|292:200|284:164,1,71.25,0|0,1:0|1:0,0:0:0:0:
268,96,161242,1,2,0:0:0:0:
268,96,161379,2,0,L|356:88,2,71.25,8|2|0,1:0|0:0|0:0,0:0:0:0:
212,96,161930,6,0,L|124:88,1,71.25,2|0,0:0|0:0,0:0:0:0:
76,144,162297,1,2,0:0:0:0:
76,144,162480,2,0,P|62:189|74:229,2,63.3333333333333,8|2|0,1:0|0:0|0:0,0:0:0:0:
134,187,163031,6,0,L|234:204,1,95,0|0,1:0|1:0,0:0:0:0:
279,215,163444,1,2,0:0:0:0:
336,224,163581,2,0,P|344:280|320:328,2,95,8|0|0,1:0|0:0|0:0,0:0:0:0:
452,316,164682,5,8,3:0:0:0:
452,316,164957,1,8,3:0:0:0:
472,204,165233,6,0,L|496:104,1,95,0|0,1:0|1:0,0:0:0:0:
508,56,165645,1,2,0:0:0:0:
460,24,165783,2,0,P|384:20|352:40,1,95,8|0,1:0|0:0,0:0:0:0:
256,52,166334,1,0,0:0:0:0:
143,27,166609,2,0,P|97:13|52:24,2,95,2|8|2,0:0|1:0|0:0,0:0:0:0:
96,144,167434,6,0,L|92:224,1,71.25,0|0,1:0|0:0,0:0:0:0:
120,296,167847,1,2,0:0:0:0:
120,296,167985,2,0,P|148:328|184:332,1,71.25,8|2,1:0|0:0,0:0:0:0:
196,248,168398,1,0,0:0:0:0:
196,248,168535,2,0,P|228:220|232:184,2,71.25,2|0|2,0:0|0:0|0:0,0:0:0:0:
144,268,169086,6,0,P|116:289|106:322,1,71.25,8|2,1:0|0:0,0:0:0:0:
24,308,169499,1,0,0:0:0:0:
24,308,169636,2,0,P|28:360|52:384,2,71.25,0|0|2,1:0|1:0|0:0,0:0:0:0:
44,252,170187,2,0,P|52:216|44:168,1,71.25,8|2,1:0|0:0,0:0:0:0:
24,56,170600,5,0,0:0:0:0:
24,56,170737,2,0,L|104:44,1,71.25,2|0,0:0|0:0,0:0:0:0:
172,84,171150,1,2,0:0:0:0:
172,84,171287,2,0,L|252:72,2,71.25,8|2|0,1:0|0:0|0:0,0:0:0:0:
128,116,171838,6,0,P|108:160|120:220,1,95,0|0,1:0|1:0,0:0:0:0:
136,256,172251,1,2,0:0:0:0:
120,312,172389,2,0,P|72:336|20:320,2,95,8|0|0,1:0|0:0|0:0,0:0:0:0:
256,40,173489,5,8,3:0:0:0:
256,40,173765,1,8,3:0:0:0:
384,116,174040,6,0,P|404:160|392:220,1,95,0|0,1:0|1:0,0:0:0:0:
376,256,174453,1,2,0:0:0:0:
392,312,174590,2,0,P|440:336|492:320,2,95,8|2|0,1:0|0:0|0:0,0:0:0:0:
292,256,175416,1,2,0:0:0:0:
192,204,175691,2,0,P|144:180|92:196,1,95,8|2,1:0|0:0,0:0:0:0:
48,288,176242,6,0,B|48:332|48:332|40:368,2,71.25,0|0|2,1:0|1:0|0:0,0:0:0:0:
104,276,176792,2,0,B|135:307|135:307|154:338,2,71.25,8|0|2,1:0|0:0|0:0,0:0:0:0:
112,220,177343,2,0,B|156:220|156:220|192:228,2,71.25,0|2|2,0:0|0:0|0:0,0:0:0:0:
84,168,177893,2,0,B|115:136|115:136|146:117,2,71.25,8|0|2,1:0|0:0|0:0,0:0:0:0:
28,156,178444,6,0,B|28:112|28:112|36:76,1,71.25,0|0,1:0|1:0,0:0:0:0:
96,28,178856,1,2,0:0:0:0:
96,28,178994,2,0,P|152:48|184:44,1,71.25,8|2,1:0|0:0,0:0:0:0:
220,108,179407,1,0,0:0:0:0:
220,108,179545,2,0,P|164:128|132:124,2,71.25,2|0|2,0:0|0:0|0:0,0:0:0:0:
268,80,180095,2,0,P|324:60|356:64,2,71.25,8|0|2,1:0|0:0|0:0,0:0:0:0:
268,136,180645,6,0,B|276:184|276:184|264:240,1,95,0|0,1:0|1:0,0:0:0:0:
220,260,181058,1,2,0:0:0:0:
164,240,181196,2,0,P|112:236|68:268,2,95,8|0|0,1:0|0:0|0:0,0:0:0:0:
256,308,182022,1,0,0:0:0:0:
348,240,182297,2,0,P|400:236|444:268,1,95,8|8,3:0|3:0,0:0:0:0:
468,148,182847,6,0,P|416:152|372:120,1,95,0|0,1:0|1:0,0:0:0:0:
352,80,183260,1,2,0:0:0:0:
320,32,183398,2,0,L|216:24,1,95,8|0,1:0|0:0,0:0:0:0:
148,112,183948,2,0,L|44:104,2,95,0|2|8,0:0|0:0|1:0,0:0:0:0:
84,208,184774,1,2,0:0:0:0:
160,320,185049,6,0,P|192:360|216:368,1,71.25,0|0,1:0|1:0,0:0:0:0:
240,288,185462,1,2,0:0:0:0:
240,288,185600,2,0,P|290:293|313:282,1,71.25,8|2,1:0|0:0,0:0:0:0:
272,208,186012,1,0,0:0:0:0:
272,208,186150,2,0,P|312:176|320:152,2,71.25,2|0|2,0:0|0:0|0:0,0:0:0:0:
216,204,186700,2,0,P|184:164|160:156,2,71.25,8|0|2,1:0|0:0|0:0,0:0:0:0:
180,248,187251,6,0,P|148:264|130:294,2,71.25,0|0|2,1:0|1:0|0:0,0:0:0:0:
236,260,187801,2,0,P|252:292|282:310,1,71.25,8|2,1:0|0:0,0:0:0:0:
316,232,188214,1,0,0:0:0:0:
316,232,188352,2,0,P|349:243|383:234,1,71.25,2|0,0:0|0:0,0:0:0:0:
380,148,188765,1,2,0:0:0:0:
380,148,188903,2,0,P|346:136|312:145,1,71.25,8|2,1:0|0:0,0:0:0:0:
232,176,189315,1,0,0:0:0:0:
232,176,189453,6,0,L|128:168,1,95,2|0,0:0|0:0,0:0:0:0:
80,164,189866,1,2,0:0:0:0:
44,208,190003,2,0,P|40:244|80:300,1,95,0|2,0:0|0:0,0:0:0:0:
200,364,190554,2,0,P|292:332|380:364,1,190,0|2,0:0|0:0,0:0:0:0:
464,152,191655,6,0,L|360:160,1,95,2|0,0:0|0:0,0:0:0:0:
312,164,192068,1,0,0:0:0:0:
276,120,192205,2,0,P|272:84|312:28,2,95,2|0|2,0:0|0:0|0:0,0:0:0:0:
328,268,193031,6,0,L|272:284,1,47.5,2|2,0:0|0:0,0:0:0:0:
232,340,193306,2,0,L|186:353,1,47.5,2|2,0:0|0:0,0:0:0:0:
96,332,193581,1,2,0:0:0:0:
96,332,193719,1,0,0:0:0:0:
20,264,193856,6,0,P|8:200|24:156,1,95,4|0,0:0|1:0,0:0:0:0:
52,64,194407,2,0,L|212:44,1,142.5,8|2,1:0|0:0,0:0:0:0:
308,36,195095,1,0,0:0:0:0:
308,36,195233,1,2,0:0:0:0:
272,144,195508,2,0,L|130:161,1,142.5,8|2,1:0|0:0,0:0:0:0:
72,168,196058,5,0,1:0:0:0:
36,276,196334,1,0,1:0:0:0:
72,168,196609,1,10,1:0:0:0:
116,64,196884,2,0,L|168:56,1,47.5,0|2,0:0|1:0,0:0:0:0:
216,108,197159,2,0,L|262:115,1,47.5,0|0,0:0|0:0,0:0:0:0:
344,100,197434,1,2,1:0:0:0:
444,44,197710,6,0,P|464:92|448:148,1,95,8|2,1:0|0:0,0:0:0:0:
408,164,198123,1,2,0:0:0:0:
360,196,198260,2,0,P|344:248|356:292,1,95,0|0,1:0|1:0,0:0:0:0:
158,286,198811,2,0,P|167:240|152:196,1,95,8|0,1:0|0:0,0:0:0:0:
100,144,199223,6,0,L|-4:116,1,95,2|0,0:0|0:0,0:0:0:0:
76,60,199636,2,0,L|180:32,1,95,2|8,0:0|1:0,0:0:0:0:
260,104,200187,1,2,0:0:0:0:
260,104,200324,1,2,0:0:0:0:
260,104,200462,6,0,B|316:116|316:116|360:104,1,95,0|0,1:0|1:0,0:0:0:0:
456,60,201012,1,10,1:0:0:0:
464,172,201288,2,0,L|460:224,1,47.5,0|2,0:0|1:0,0:0:0:0:
388,200,201563,2,0,L|384:252,1,47.5,0|0,0:0|0:0,0:0:0:0:
312,228,201838,6,0,L|308:280,2,47.5,2|8|8,1:0|3:0|3:0,0:0:0:0:
200,156,202389,2,0,L|204:104,1,47.5,8|8,3:0|3:0,0:0:0:0:
136,72,202664,6,0,L|128:168,2,95,4|0|8,0:0|1:0|1:0,0:0:0:0:
36,124,203489,1,0,0:0:0:0:
36,124,203627,2,0,L|24:236,1,95,2|0,0:0|0:0,0:0:0:0:
56,268,204040,2,0,L|168:280,1,95,2|8,0:0|1:0,0:0:0:0:
264,296,204590,1,2,0:0:0:0:
264,296,204728,1,2,0:0:0:0:
264,296,204866,1,0,1:0:0:0:
372,256,205141,6,0,P|380:300|368:348,2,95,0|10|0,0:0|1:0|1:0,0:0:0:0:
352,204,205829,1,2,1:0:0:0:
380,156,205967,2,0,B|420:132|420:132|480:128,1,95,0|2,0:0|1:0,0:0:0:0:
420,28,206517,6,0,L|352:32,1,47.5,8|8,3:0|3:0,0:0:0:0:
320,52,206792,2,0,L|252:56,1,47.5,8|0,3:0|0:0,0:0:0:0:
224,84,207067,6,0,P|176:120|172:164,1,95,0|0,1:0|1:0,0:0:0:0:
88,232,207618,2,0,P|124:280|168:284,1,95,8|0,1:0|0:0,0:0:0:0:
212,280,208031,2,0,P|252:256|266:212,1,95,2|0,0:0|0:0,0:0:0:0:
256,156,208444,1,2,0:0:0:0:
336,76,208719,6,0,L|444:64,1,95,8|2,3:0|0:0,0:0:0:0:
484,84,209132,1,2,0:0:0:0:
508,136,209269,2,0,P|512:188|488:240,1,95,0|2,1:0|1:0,0:0:0:0:
448,252,209682,5,0,0:0:0:0:
448,252,209820,1,2,1:0:0:0:
400,280,209957,1,0,0:0:0:0:
400,284,210095,2,0,L|296:304,1,95,2|0,1:0|0:0,0:0:0:0:
168,352,210645,6,0,P|156:320|160:288,1,47.5,2|0,1:0|0:0,0:0:0:0:
168,252,210921,2,0,P|180:220|176:188,1,47.5,2|0,1:0|0:0,0:0:0:0:
160,152,211196,1,2,1:0:0:0:
148,96,211334,1,0,0:0:0:0:
180,48,211471,6,0,P|256:28|308:48,1,95,4|0,0:0|1:0,0:0:0:0:
372,84,212022,2,0,P|392:160|372:212,1,95,8|0,1:0|0:0,0:0:0:0:
352,216,212434,2,0,P|333:259|334:306,1,95,2|0,0:0|0:0,0:0:0:0:
364,356,212847,1,2,0:0:0:0:
252,340,213123,2,0,L|124:328,1,95,8|2,1:0|0:0,0:0:0:0:
100,324,213535,1,2,0:0:0:0:
100,324,213673,1,0,1:0:0:0:
72,160,213948,5,0,1:0:0:0:
104,52,214223,2,0,L|228:36,1,95,10|0,1:0|0:0,0:0:0:0:
256,36,214636,2,0,L|312:44,1,47.5,2|0,1:0|0:0,0:0:0:0:
348,80,214911,2,0,L|395:73,1,47.5,0|2,0:0|1:0,0:0:0:0:
440,212,215324,5,8,3:0:0:0:
380,308,215600,1,2,0:0:0:0:
380,308,215737,1,2,0:0:0:0:
380,308,215875,2,0,P|308:340|276:328,1,95,0|0,1:0|1:0,0:0:0:0:
256,232,216425,2,0,P|328:200|360:212,1,95,8|0,1:0|0:0,0:0:0:0:
392,228,216838,1,2,0:0:0:0:
428,80,217113,5,0,0:0:0:0:
428,80,217251,2,0,L|332:56,1,95,2|8,0:0|1:0,0:0:0:0:
224,32,217801,1,2,0:0:0:0:
224,32,217939,1,2,0:0:0:0:
224,32,218077,1,0,1:0:0:0:
80,72,218352,6,0,P|56:128|64:184,1,95,0|8,1:0|1:0,0:0:0:0:
84,272,218902,2,0,L|136:312,1,47.5,0|2,0:0|1:0,0:0:0:0:
180,292,219178,2,0,L|232:332,1,47.5,0|0,0:0|0:0,0:0:0:0:
268,296,219453,2,0,L|352:360,2,95,2|8|2,1:0|1:0|0:0,0:0:0:0:
280,240,220141,1,2,0:0:0:0:
256,188,220278,6,0,L|160:128,1,95,4|0,0:0|1:0,0:0:0:0:
68,100,220829,2,0,P|48:164|72:208,1,95,8|0,1:0|0:0,0:0:0:0:
92,232,221242,2,0,P|96:288|64:328,1,95,2|0,0:0|0:0,0:0:0:0:
24,340,221655,5,2,0:0:0:0:
24,340,221792,1,2,0:0:0:0:
24,340,221930,1,8,1:0:0:0:
136,364,222205,1,0,0:0:0:0:
192,348,222343,1,2,0:0:0:0:
244,332,222480,6,0,L|352:328,1,95,0|0,1:0|1:0,0:0:0:0:
424,252,223031,1,10,1:0:0:0:
384,144,223306,1,0,0:0:0:0:
384,144,223444,1,2,1:0:0:0:
352,96,223581,2,0,L|280:80,1,47.5,0|0,0:0|0:0,0:0:0:0:
248,76,223856,2,0,L|188:68,1,47.5,2|0,1:0|0:0,0:0:0:0:
144,68,224132,6,0,P|120:120|144:192,1,95,8|2,1:0|0:0,0:0:0:0:
176,256,224682,1,0,1:0:0:0:
112,348,224957,1,0,1:0:0:0:
40,256,225233,2,0,P|32:148|60:96,1,142.5,8|2,1:0|0:0,0:0:0:0:
132,48,225921,5,0,0:0:0:0:
132,48,226058,1,2,0:0:0:0:
216,128,226334,1,8,3:0:0:0:
292,44,226609,1,8,3:0:0:0:
376,120,226884,1,8,3:0:0:0:
428,284,227159,6,0,L|368:264,1,47.5,2|0,1:0|0:0,0:0:0:0:
312,260,227434,2,0,L|252:240,1,47.5,2|0,1:0|0:0,0:0:0:0:
196,220,227710,1,2,1:0:0:0:
428,284,228260,6,0,L|368:264,1,47.5,2|0,1:0|0:0,0:0:0:0:
312,260,228535,2,0,L|252:240,1,47.5,2|0,1:0|0:0,0:0:0:0:
196,220,228811,2,0,L|104:192,1,95,2|4,1:0|0:0,0:0:0:0:
208,44,229361,5,0,1:0:0:0:
320,68,229636,2,0,L|424:100,1,95,8|0,1:0|0:0,0:0:0:0:
460,200,230187,1,0,0:0:0:0:
420,240,230324,1,0,0:0:0:0:
364,232,230462,2,0,P|348:280|356:312,2,47.5,2|2|8,0:0|0:0|3:0,0:0:0:0:
148,152,231012,2,0,P|164:104|156:72,2,47.5,8|0|0,3:0|0:0|1:0,0:0:0:0:
44,108,231563,1,0,1:0:0:0:
28,220,231838,6,0,L|16:272,1,47.5,8|2,1:0|0:0,0:0:0:0:
88,268,232113,2,0,L|76:320,1,47.5,0|2,0:0|0:0,0:0:0:0:
152,312,232389,2,0,L|144:360,1,47.5,0|2,0:0|0:0,0:0:0:0:
224,344,232664,2,0,L|232:284,1,47.5,0|2,0:0|0:0,0:0:0:0:
236,224,232939,1,8,3:0:0:0:
236,224,233077,1,0,0:0:0:0:
236,224,233214,2,0,L|248:152,1,47.5,8|8,3:0|3:0,0:0:0:0:
252,100,233489,6,0,P|312:92|376:124,1,95,0|0,1:0|1:0,0:0:0:0:
456,72,234040,2,0,B|478:102|458:154|458:154|474:162|474:162|454:198|466:246,1,190,8|2,1:0|0:0,0:0:0:0:
508,352,234866,1,2,0:0:0:0:
396,328,235141,6,0,L|204:320,1,190,8|0,1:0|1:0,0:0:0:0:
92,320,235967,1,0,1:0:0:0:
28,228,236242,2,0,P|24:144|60:88,1,142.5,8|2,1:0|0:0,0:0:0:0:
320,44,237067,6,0,P|372:28|380:20,2,47.5,8|8|8,3:0|3:0|3:0,0:0:0:0:
204,44,237618,2,0,P|152:60|144:68,1,47.5,8|8,3:0|3:0,0:0:0:0:
132,104,237893,6,0,L|112:212,1,95,4|0,0:0|1:0,0:0:0:0:
108,312,238444,2,0,P|180:296|256:344,1,142.5,8|0,1:0|0:0,0:0:0:0:
288,352,238994,1,2,0:0:0:0:
360,264,239269,1,0,0:0:0:0:
424,360,239545,1,8,1:0:0:0:
492,268,239820,5,0,0:0:0:0:
492,268,239957,1,0,0:0:0:0:
492,268,240095,1,0,1:0:0:0:
476,156,240370,1,0,1:0:0:0:
456,44,240645,2,0,L|304:32,1,142.5,8|0,1:0|0:0,0:0:0:0:
256,28,241196,1,2,0:0:0:0:
168,100,241471,1,2,0:0:0:0:
60,68,241746,6,0,P|40:144|68:212,1,142.5,8|0,1:0|0:0,0:0:0:0:
100,244,242297,1,0,1:0:0:0:
196,308,242572,1,0,1:0:0:0:
276,228,242847,6,0,L|332:224,1,47.5,0|2,3:0|0:0,0:0:0:0:
380,220,243123,2,0,L|436:216,1,47.5,0|2,0:0|0:0,0:0:0:0:
420,148,243398,2,0,L|364:144,1,47.5,0|2,0:0|0:0,0:0:0:0:
316,140,243674,2,0,L|260:136,1,47.5,0|2,0:0|0:0,0:0:0:0:
196,132,243948,5,0,1:0:0:0:
196,132,244086,1,2,0:0:0:0:
196,132,244223,2,0,L|188:80,1,47.5,2|2,0:0|0:0,0:0:0:0:
132,40,244499,5,0,1:0:0:0:
256,192,244774,12,8,247251,1:0:0:0:
