osu file format v14

[General]
AudioFilename: Sia-Chandelier.mp3
AudioLeadIn: 0
PreviewTime: 34333
Countdown: 0
SampleSet: Normal
StackLeniency: 0.7
Mode: 0
LetterboxInBreaks: 0
WidescreenStoryboard: 0

[Editor]
DistanceSpacing: 1
BeatDivisor: 4
GridSize: 4
TimelineZoom: 0.8

[Metadata]
Title:Chandelier
TitleUnicode:Chandelier
Artist:Sia
ArtistUnicode:Sia
Creator:BoatKrab
Version:Normal
Source:
Tags:cut version Kate Isobelle Furler 1000 Forms of Fear electropop reggae
BeatmapID:710770
BeatmapSetID:319314

[Difficulty]
HPDrainRate:4
CircleSize:3
OverallDifficulty:4
ApproachRate:5
SliderMultiplier:0.9
SliderTickRate:1

[Events]
//Background and Video events
0,0,"BG.jpg",0,0
//Break Periods
//Storyboard Layer 0 (Background)
//Storyboard Layer 1 (Fail)
//Storyboard Layer 2 (Pass)
//Storyboard Layer 3 (Foreground)
//Storyboard Sound Samples

[TimingPoints]
1230,689.655172413793,4,2,1,60,1,0
1230,-50,4,2,1,60,0,0
25367,-50,4,1,0,60,0,0
25454,-50,4,2,1,60,0,0
28126,-50,4,1,0,60,0,0
28212,-50,4,2,1,60,0,0
30885,-50,4,1,0,60,0,0
30971,-50,4,2,1,60,0,0
33643,-50,4,1,1,60,0,0
34333,-50,4,1,1,70,0,1
78471,-50,4,1,1,60,0,0
100540,-71.4285714285714,4,2,1,60,0,0
122609,-50,4,2,1,60,0,0

[Colours]
Combo1 : 132,149,178
Combo2 : 198,163,132
Combo3 : 173,173,90
Combo4 : 138,171,132

[HitObjects]
276,304,1230,6,0,P|228:268|144:296,1,135
112,280,1919,2,0,P|100:236|116:192,1,90,8|0,0:0|0:0,0:0:0:0:
192,152,2609,2,0,P|205:109|193:67,2,90,0|0|8,0:0|0:0|0:0,0:0:0:0:
184,240,3643,1,0,0:0:0:0:
264,200,3988,6,0,B|340:216|340:216|396:196,1,135
432,172,4678,2,0,P|444:132|432:76,1,90,8|0,0:0|0:0,0:0:0:0:
352,52,5367,2,0,L|252:48,1,90
188,100,6057,2,0,L|98:104,1,90,8|0,0:0|0:0,0:0:0:0:
44,176,6747,6,0,P|92:220|164:212,1,135
204,216,7436,2,8,P|238:250|243:291,1,90,8|0,2:0|2:0,2:0:0:0:
312,348,8126,2,0,L|500:320,2,180,0|8|0,0:0|0:0|0:0,0:0:0:0:
176,344,10023,5,0,0:0:0:0:
140,320,10195,2,0,P|104:244|156:168,1,180,8|0,0:0|0:0,0:0:0:0:
244,176,11230,1,0,0:0:0:0:
200,96,11574,1,8,0:0:0:0:
312,236,12264,6,0,P|392:228|432:128,1,180,0|8,0:0|0:0,0:0:0:0:
344,148,13298,1,0,0:0:0:0:
268,100,13643,2,0,L|172:100,2,90,0|0|8,0:0|0:0|0:0,0:0:0:0:
344,148,14678,1,0,0:0:0:0:
312,236,15023,6,0,P|236:268|148:200,1,180,0|8,0:0|0:0,0:0:0:0:
164,132,16057,2,0,P|240:100|332:160,1,180
376,68,17092,2,0,L|465:64,1,90,8|0,0:0|0:0,0:0:0:0:
436,148,17781,6,0,P|384:200|388:272,2,135,0|8|0,0:0|0:0|0:0,0:0:0:0:
464,232,19161,2,0,P|460:304|400:344,2,135,0|8|0,0:0|0:0|0:0,0:0:0:0:
256,192,20540,12,12,23298,0:1:0:0:
200,288,24333,5,4,1:0:0:0:
284,324,24678,2,0,L|336:328,2,45,0|0|0,0:0|1:0|1:0,0:0:0:0:
200,288,25367,2,0,P|168:204|208:128,1,180,8|4,0:0|1:2,0:0:0:0:
304,36,26574,6,0,L|352:28,1,45,0|8,1:0|0:0,0:0:0:0:
332,116,27092,2,0,L|424:104,2,90,4|0|0,1:2|0:0|1:0,0:0:0:0:
252,160,28126,2,0,P|204:168|156:160,1,90,8|0,0:0|0:0,0:0:0:0:
140,248,28816,6,0,P|91:218|80:132,1,135,4|0,1:2|1:0,0:0:0:0:
88,104,29505,2,0,P|120:80|176:76,1,90,8|4,0:0|1:2,0:0:0:0:
256,96,30195,2,0,L|345:88,2,90,0|0|8,0:0|1:0|0:0,0:0:0:0:
224,272,31574,6,0,L|412:260,2,180
52,324,33643,1,8,1:0:0:0:
88,144,34333,6,0,P|128:168|220:140,1,135,4|0,0:0|0:0,0:0:0:0:
256,156,35023,2,0,L|268:248,1,90,8|0,0:0|0:0,0:0:0:0:
356,260,35712,2,0,L|344:170,1,90
316,84,36402,1,8,0:0:0:0:
232,56,36747,1,0,0:0:0:0:
172,124,37092,6,0,P|132:176|60:172,1,135,4|0,0:0|0:0,0:0:0:0:
28,156,37781,2,0,L|20:256,2,90,8|0|0,0:0|0:0|0:0,0:0:0:0:
92,92,38816,1,0,0:0:0:0:
172,124,39161,2,0,B|224:140|224:140|304:124,1,135,8|0,0:0|0:0,0:0:0:0:
348,116,39850,6,0,P|376:168|348:236,1,135,4|0,0:0|0:0,0:0:0:0:
312,260,40540,2,0,L|232:312,1,90,8|0,0:0|0:0,0:0:0:0:
164,256,41229,2,0,L|239:206,2,90,0|0|8,0:0|0:0|0:0,0:0:0:0:
120,336,42264,1,0,0:0:0:0:
64,264,42609,6,0,P|44:224|68:140,1,135,4|0,0:0|0:0,0:0:0:0:
108,120,43298,2,0,B|212:160|212:160|324:128|284:37|284:37|200:56,1,360,8|8,0:0|0:3,0:0:0:0:
120,28,45023,1,4,0:3:0:0:
108,120,45367,6,0,P|132:184|108:248,1,135,4|0,0:0|0:0,0:0:0:0:
76,272,46057,2,0,P|88:308|128:344,1,90,8|0,0:0|0:0,0:0:0:0:
208,304,46747,2,0,L|304:296,1,90
356,364,47436,2,0,P|384:308|332:212,1,180,8|4,0:0|0:0,0:0:0:0:
300,80,48643,5,0,0:0:0:0:
300,80,48816,2,0,B|256:92|256:92|212:80,1,90,8|0,0:0|0:0,0:0:0:0:
132,116,49505,2,0,P|160:168|132:236,1,135
100,268,50195,2,0,P|128:328|200:340,1,135,8|0,0:0|0:0,0:0:0:0:
232,324,50885,6,0,L|252:184,1,135,4|0,0:0|0:0,0:0:0:0:
288,164,51574,2,0,L|300:72,2,90,8|0|0,0:0|0:0|0:0,0:0:0:0:
348,232,52609,1,0,0:0:0:0:
400,156,52954,2,0,P|432:236|376:324,1,180,8|4,0:0|0:0,0:0:0:0:
300,308,53988,5,0,0:0:0:0:
348,232,54333,1,8,0:0:0:0:
260,228,54678,2,0,P|200:256|132:208,1,135
116,192,55367,2,0,L|112:292,2,90,0|8|4,0:0|0:3|0:3,0:0:0:0:
204,172,56402,5,4,0:0:0:0:
104,80,56919,1,0,0:0:0:0:
104,80,57092,2,0,L|100:184,1,90,8|0,0:0|0:0,0:0:0:0:
32,228,57781,2,0,P|96:260|184:192,1,180,0|8,0:0|0:0,0:0:0:0:
256,160,58816,1,0,0:0:0:0:
284,244,59161,6,0,L|420:248,1,135,4|0,0:0|0:0,0:0:0:0:
444,212,59850,2,0,P|400:140|452:60,2,180,8|0|8,0:0|0:0|0:0,0:0:0:0:
308,332,61919,6,0,P|248:332|196:220,1,180,4|8,0:0|0:0,0:0:0:0:
284,244,62954,2,0,L|287:64,1,180
368,28,63988,1,8,0:0:0:0:
440,80,64333,1,0,0:0:0:0:
356,116,64678,6,0,P|275:148|204:96,2,180,4|8|0,0:0|0:0|0:0,0:0:0:0:
440,80,66402,1,0,0:0:0:0:
424,168,66747,2,0,L|428:228,1,45,8|0,0:3|0:0,0:0:0:0:
424,256,67092,2,0,L|420:316,1,45,4|0,0:3|0:0,0:0:0:0:
416,344,67436,6,0,P|376:364|292:324,1,135,4|0,0:0|0:0,0:0:0:0:
268,296,68126,2,0,P|244:252|200:236,1,90,8|0,0:0|0:0,0:0:0:0:
184,324,68816,1,0,0:0:0:0:
124,256,69161,2,0,P|124:212|148:172,1,90,0|8,0:0|0:0,0:0:0:0:
216,116,69850,1,0,0:0:0:0:
260,196,70195,6,0,B|300:180|308:136|308:136|372:164,1,135,4|0,0:0|0:0,0:0:0:0:
400,176,70885,2,0,P|412:220|396:268,2,90,8|0|0,0:0|0:0|0:0,0:0:0:0:
460,108,71919,1,0,0:0:0:0:
392,48,72264,2,0,L|256:60,1,135,8|0,0:0|0:0,0:0:0:0:
220,88,72954,6,0,P|168:132|100:120,1,135,4|0,0:0|0:0,0:0:0:0:
72,96,73643,1,8,0:0:0:0:
20,168,73988,2,0,L|24:356,1,180
112,372,75023,2,0,L|292:352,1,180,8|4,0:0|0:0,0:0:0:0:
332,272,76057,5,0,0:0:0:0:
280,200,76402,1,8,0:0:0:0:
196,228,76747,2,0,L|203:362,2,135,0|0|8,0:0|0:0|0:0,0:0:0:0:
36,144,78471,5,4,0:2:0:0:
124,44,78988,1,0,0:0:0:0:
124,44,79161,2,0,P|168:28|212:40,1,90,8|0,0:0|0:0,0:0:0:0:
296,60,79850,2,0,L|476:88,2,180,0|8|4,0:0|0:0|0:0,0:0:0:0:
172,116,81747,5,0,0:0:0:0:
172,116,81919,2,0,L|164:216,1,90,8|0,0:0|0:0,0:0:0:0:
244,244,82609,2,0,L|424:272,2,180,0|8|4,0:0|0:0|0:0,0:0:0:0:
188,368,84505,5,0,0:0:0:0:
188,368,84678,2,0,P|144:340|124:304,1,90,8|0,0:0|0:0,0:0:0:0:
40,332,85367,2,0,P|36:284|96:220,1,135
136,216,86057,2,0,L|100:96,1,90,8|0,0:0|0:0,0:0:0:0:
176,68,86747,5,4,0:0:0:0:
264,64,87092,2,0,L|312:52,2,45,0|0|8,0:0|0:0|0:0,0:0:0:0:
236,148,87781,1,0,0:0:0:0:
320,184,88126,2,0,L|327:273,1,90
243,237,88816,2,0,L|235:147,1,90,8|0,0:0|0:0,0:0:0:0:
172,84,89505,6,0,P|144:52|48:48,1,135,4|0,0:0|0:0,0:0:0:0:
40,88,90195,2,0,P|52:132|40:176,1,90,8|0,0:0|0:0,0:0:0:0:
116,224,90885,2,0,P|105:267|117:310,1,90
196,264,91574,2,0,P|248:212|352:208,1,180,8|4,0:0|0:0,0:0:0:0:
348,68,92781,5,0,0:0:0:0:
348,68,92954,2,0,P|312:44|252:44,2,90,8|0|0,0:0|0:0|0:0,0:0:0:0:
284,132,93988,1,0,0:0:0:0:
244,212,94333,2,0,P|224:256|176:276,1,90,8|0,0:0|0:0,0:0:0:0:
156,188,95023,6,0,L|148:44,1,135,4|0,0:0|0:0,0:0:0:0:
148,8,95712,1,8,0:0:0:0:
232,44,96057,2,0,B|292:32|292:32|316:100|392:84,1,180
436,8,97092,2,0,P|480:80|432:160,1,180,8|4,0:0|0:0,0:0:0:0:
424,244,98126,6,0,L|472:236,2,45,0|0|8,0:0|0:0|0:0,0:0:0:0:
356,300,98816,1,0,0:0:0:0:
280,248,99161,2,0,L|272:156,1,90,4|0,0:0|0:0,0:0:0:0:
312,136,99678,2,0,L|308:76,1,45
188,124,100540,6,0,P|124:220|176:340,1,251.999992309571,4|0,0:0|0:0,0:0:0:0:
248,236,102609,1,0,0:0:0:0:
323,337,103298,2,0,P|372:226|308:124,1,251.999992309571,4|0,0:0|0:0,0:0:0:0:
248,236,105367,1,0,0:0:0:0:
144,164,106057,6,0,B|72:152|72:152|20:164,3,125.999996154785,4|0|2|0,0:0|0:0|0:0|0:0,0:0:0:0:
96,264,108816,2,0,B|148:276|148:276|220:264,3,125.999996154785,4|0|2|0,0:0|0:0|0:0|0:0,0:0:0:0:
304,360,111574,6,0,P|476:320|436:144,1,377.999988464356,2|0,0:0|0:0,0:0:0:0:
392,44,114333,2,0,B|272:36|272:36|144:84|144:84|12:76,1,377.999988464356,4|0,0:0|0:0,0:0:0:0:
60,196,117092,6,0,B|144:216|172:340|172:340|192:284|268:244|320:284|320:284|384:328|460:280,2,503.999984619141,4|4|0,0:0|0:0|0:0,0:0:0:0:
