osu file format v14

[General]
AudioFilename: audio.mp3
AudioLeadIn: 0
PreviewTime: -1
Countdown: 1
SampleSet: None
StackLeniency: 0.7
Mode: 0
LetterboxInBreaks: 0
WidescreenStoryboard: 0

[Editor]
DistanceSpacing: 1
BeatDivisor: 4
GridSize: 8
TimelineZoom: 1

[Metadata]
Title:Broken Glass
TitleUnicode:Broken Glass
Artist:Sia
ArtistUnicode:Sia
Creator:despicablealex
Version:Normal
Source:
Tags:
BeatmapID:925781
BeatmapSetID:429039

[Difficulty]
HPDrainRate:5
CircleSize:5
OverallDifficulty:5
ApproachRate:5
SliderMultiplier:1.4
SliderTickRate:1

[Events]
//Background and Video events
0,0,"gallery-sia-this-is-acting-1.jpg",0,0
//Break Periods
//Storyboard Layer 0 (Background)
//Storyboard Layer 1 (Fail)
//Storyboard Layer 2 (Pass)
//Storyboard Layer 3 (Foreground)
//Storyboard Sound Samples

[TimingPoints]
0,272.727272727273,4,1,0,100,1,0

[HitObjects]
192,96,136,5,0,0:0:0:0:
192,96,477,1,0,0:0:0:0:
192,96,818,1,0,0:0:0:0:
192,96,1090,1,0,0:0:0:0:
192,96,1295,1,0,0:0:0:0:
72,224,1636,1,0,0:0:0:0:
184,104,1977,1,0,0:0:0:0:
80,216,2318,1,0,0:0:0:0:
160,136,2522,1,0,0:0:0:0:
264,64,2795,1,0,0:0:0:0:
176,120,3000,1,0,0:0:0:0:
176,120,3409,1,0,0:0:0:0:
288,288,3818,1,0,0:0:0:0:
184,136,4159,1,0,0:0:0:0:
184,136,4568,1,0,0:0:0:0:
184,136,4977,1,0,0:0:0:0:
184,136,5250,1,0,0:0:0:0:
288,168,5454,1,0,0:0:0:0:
136,128,5795,1,0,0:0:0:0:
264,160,6068,1,0,0:0:0:0:
208,144,6750,1,0,0:0:0:0:
208,144,7022,1,0,0:0:0:0:
208,144,7295,1,0,0:0:0:0:
208,144,7500,1,0,0:0:0:0:
136,312,7840,1,0,0:0:0:0:
208,144,8181,1,0,0:0:0:0:
152,288,8522,1,0,0:0:0:0:
192,176,8795,1,0,0:0:0:0:
192,176,9000,1,0,0:0:0:0:
192,176,9272,1,0,0:0:0:0:
192,176,9613,1,0,0:0:0:0:
192,176,10022,1,0,0:0:0:0:
192,176,10295,1,0,0:0:0:0:
192,176,10636,1,0,0:0:0:0:
296,80,10909,1,0,0:0:0:0:
112,248,11386,1,0,0:0:0:0:
272,104,11795,1,0,0:0:0:0:
184,184,12068,1,0,0:0:0:0:
248,120,12272,1,0,0:0:0:0:
192,184,12477,1,0,0:0:0:0:
208,160,12954,1,0,0:0:0:0:
272,160,13772,1,0,0:0:0:0:
224,184,14659,1,0,0:0:0:0:
224,184,15000,1,0,0:0:0:0:
208,168,15545,1,0,0:0:0:0:
224,160,16295,1,0,0:0:0:0:
224,160,16636,1,0,0:0:0:0:
224,160,17045,1,0,0:0:0:0:
200,128,17659,1,0,0:0:0:0:
200,128,18068,1,0,0:0:0:0:
200,128,18204,1,0,0:0:0:0:
200,128,18477,1,0,0:0:0:0:
200,128,18750,1,0,0:0:0:0:
248,104,19840,1,0,0:0:0:0:
248,104,20113,1,0,0:0:0:0:
200,120,20795,1,0,0:0:0:0:
200,120,21204,1,0,0:0:0:0:
200,120,21613,1,0,0:0:0:0:
240,112,22772,1,0,0:0:0:0:
240,112,23045,1,0,0:0:0:0:
208,128,23727,1,0,0:0:0:0:
208,128,23931,1,0,0:0:0:0:
208,128,24204,1,0,0:0:0:0:
208,128,24681,1,0,0:0:0:0:
240,120,25636,1,0,0:0:0:0:
240,120,25977,1,0,0:0:0:0:
240,120,26250,1,0,0:0:0:0:
192,128,27068,1,0,0:0:0:0:
192,128,27272,1,0,0:0:0:0:
192,128,27613,1,0,0:0:0:0:
192,128,27818,1,0,0:0:0:0:
192,128,28568,1,0,0:0:0:0:
192,128,28772,1,0,0:0:0:0:
400,72,29181,1,0,0:0:0:0:
224,120,29522,1,0,0:0:0:0:
192,136,30136,1,0,0:0:0:0:
192,136,30613,1,0,0:0:0:0:
192,136,30818,1,0,0:0:0:0:
192,136,31090,1,0,0:0:0:0:
224,128,31772,1,0,0:0:0:0:
224,128,32250,1,0,0:0:0:0:
224,128,32659,1,0,0:0:0:0:
200,136,33272,1,0,0:0:0:0:
200,136,33750,1,0,0:0:0:0:
200,136,34022,1,0,0:0:0:0:
200,136,34295,1,0,0:0:0:0:
200,136,34704,1,0,0:0:0:0:
200,136,34977,1,0,0:0:0:0:
232,120,36068,1,0,0:0:0:0:
232,120,36272,1,0,0:0:0:0:
232,120,36545,1,0,0:0:0:0:
208,128,37363,1,0,0:0:0:0:
208,128,38045,1,0,0:0:0:0:
208,128,38386,1,0,0:0:0:0:
208,128,38863,1,0,0:0:0:0:
208,128,39136,1,0,0:0:0:0:
240,104,39886,1,0,0:0:0:0:
24,256,40431,1,0,0:0:0:0:
192,136,40840,1,0,0:0:0:0:
192,136,41250,1,0,0:0:0:0:
192,136,41727,1,0,0:0:0:0:
376,48,42136,1,0,0:0:0:0:
128,176,42681,1,0,0:0:0:0:
336,72,43159,1,0,0:0:0:0:
128,168,43636,1,0,0:0:0:0:
208,144,44454,1,0,0:0:0:0:
208,144,44795,1,0,0:0:0:0:
208,144,45204,1,0,0:0:0:0:
184,144,45681,1,0,0:0:0:0:
184,144,46159,1,0,0:0:0:0:
184,144,46431,1,0,0:0:0:0:
184,144,47045,1,0,0:0:0:0:
208,128,47795,1,0,0:0:0:0:
208,128,48068,1,0,0:0:0:0:
208,128,48613,1,0,0:0:0:0:
208,128,48886,1,0,0:0:0:0:
208,128,49363,1,0,0:0:0:0:
208,128,49636,1,0,0:0:0:0:
208,128,49909,1,0,0:0:0:0:
176,112,50931,2,0,L|160:144,464,35
416,208,83113,1,0,0:0:0:0:
288,152,83386,1,0,0:0:0:0:
80,104,83795,1,0,0:0:0:0:
208,144,84750,1,0,0:0:0:0:
208,144,85159,1,0,0:0:0:0:
144,352,85568,1,0,0:0:0:0:
240,16,86250,1,0,0:0:0:0:
184,224,86659,1,0,0:0:0:0:
216,104,86931,1,0,0:0:0:0:
168,264,87272,1,0,0:0:0:0:
208,144,87886,1,0,0:0:0:0:
208,144,88295,1,0,0:0:0:0:
208,144,88704,1,0,0:0:0:0:
208,144,89250,1,0,0:0:0:0:
208,144,89727,1,0,0:0:0:0:
208,144,89931,1,0,0:0:0:0:
208,144,90409,1,0,0:0:0:0:
184,152,91227,1,0,0:0:0:0:
184,152,91568,1,0,0:0:0:0:
224,128,92522,1,0,0:0:0:0:
224,128,92863,1,0,0:0:0:0:
224,128,93272,1,0,0:0:0:0:
168,136,94090,1,0,0:0:0:0:
168,136,94363,1,0,0:0:0:0:
168,136,94840,1,0,0:0:0:0:
504,32,95522,1,0,0:0:0:0:
224,120,96068,1,0,0:0:0:0:
224,120,96545,1,0,0:0:0:0:
192,144,97363,1,0,0:0:0:0:
192,144,97704,1,0,0:0:0:0:
216,128,98659,1,0,0:0:0:0:
216,128,99068,1,0,0:0:0:0:
216,128,99272,1,0,0:0:0:0:
216,128,99613,1,0,0:0:0:0:
200,144,100568,1,0,0:0:0:0:
200,144,100840,1,0,0:0:0:0:
200,144,101250,1,0,0:0:0:0:
200,144,101931,1,0,0:0:0:0:
200,144,102340,1,0,0:0:0:0:
200,144,102545,1,0,0:0:0:0:
200,144,102818,1,0,0:0:0:0:
224,120,103909,1,0,0:0:0:0:
224,120,104181,1,0,0:0:0:0:
224,120,104863,1,0,0:0:0:0:
224,120,105272,1,0,0:0:0:0:
224,120,105613,1,0,0:0:0:0:
200,136,107318,1,0,0:0:0:0:
200,136,107727,1,0,0:0:0:0:
200,136,108204,1,0,0:0:0:0:
200,136,108954,1,0,0:0:0:0:
200,136,109431,1,0,0:0:0:0:
200,136,109772,1,0,0:0:0:0:
200,136,110045,1,0,0:0:0:0:
200,160,111136,1,0,0:0:0:0:
224,120,112840,1,0,0:0:0:0:
224,120,113181,1,0,0:0:0:0:
200,152,114204,1,0,0:0:0:0:
200,152,114681,1,0,0:0:0:0:
200,152,114954,1,0,0:0:0:0:
200,120,116454,1,0,0:0:0:0:
200,120,116863,1,0,0:0:0:0:
200,120,117136,1,0,0:0:0:0:
200,120,117409,1,0,0:0:0:0:
200,120,117613,1,0,0:0:0:0:
200,120,117886,1,0,0:0:0:0:
200,120,118090,1,0,0:0:0:0:
216,144,119181,1,0,0:0:0:0:
216,144,119386,1,0,0:0:0:0:
216,144,119590,1,0,0:0:0:0:
216,144,119863,1,0,0:0:0:0:
256,192,120477,12,0,162750,0:0:0:0:
208,160,163090,5,0,0:0:0:0:
88,256,163363,1,0,0:0:0:0:
192,176,163636,1,0,0:0:0:0:
192,176,163977,1,0,0:0:0:0:
224,144,164522,1,0,0:0:0:0:
224,144,164931,1,0,0:0:0:0:
96,336,165409,1,0,0:0:0:0:
224,152,165886,1,0,0:0:0:0:
120,328,166295,1,0,0:0:0:0:
224,152,166704,1,0,0:0:0:0:
80,352,167181,1,0,0:0:0:0:
200,176,167590,1,0,0:0:0:0:
200,176,167795,1,0,0:0:0:0:
240,144,168340,1,0,0:0:0:0:
216,160,168954,1,0,0:0:0:0:
216,160,169363,1,0,0:0:0:0:
216,160,169840,1,0,0:0:0:0:
200,192,170386,1,0,0:0:0:0:
200,192,170795,1,0,0:0:0:0:
200,192,171000,1,0,0:0:0:0:
200,160,171477,1,0,0:0:0:0:
200,160,172022,1,0,0:0:0:0:
200,160,172431,1,0,0:0:0:0:
80,336,172840,1,0,0:0:0:0:
240,112,173386,1,0,0:0:0:0:
128,264,173795,1,0,0:0:0:0:
184,192,174000,1,0,0:0:0:0:
184,192,174204,1,0,0:0:0:0:
184,192,174477,1,0,0:0:0:0:
200,136,175159,1,0,0:0:0:0:
200,136,175636,1,0,0:0:0:0:
200,136,175977,1,0,0:0:0:0:
200,160,176659,1,0,0:0:0:0:
200,160,177068,1,0,0:0:0:0:
200,160,177409,1,0,0:0:0:0:
224,136,178363,1,0,0:0:0:0:
224,136,178636,1,0,0:0:0:0:
224,136,179045,1,0,0:0:0:0:
200,160,180000,1,0,0:0:0:0:
200,160,180272,1,0,0:0:0:0:
200,160,180477,1,0,0:0:0:0:
200,160,180818,1,0,0:0:0:0:
216,144,181568,1,0,0:0:0:0:
216,144,181840,1,0,0:0:0:0:
216,144,182250,1,0,0:0:0:0:
192,168,182931,1,0,0:0:0:0:
192,168,183340,1,0,0:0:0:0:
192,168,183545,1,0,0:0:0:0:
208,144,184636,1,0,0:0:0:0:
208,144,184977,1,0,0:0:0:0:
208,144,185318,1,0,0:0:0:0:
200,160,186068,1,0,0:0:0:0:
200,160,186340,1,0,0:0:0:0:
200,160,186613,1,0,0:0:0:0:
200,160,187090,1,0,0:0:0:0:
208,128,187704,1,0,0:0:0:0:
208,128,188113,1,0,0:0:0:0:
208,128,188454,1,0,0:0:0:0:
208,128,189068,1,0,0:0:0:0:
208,128,189409,1,0,0:0:0:0:
208,128,189681,1,0,0:0:0:0:
200,176,190772,1,0,0:0:0:0:
200,176,191113,1,0,0:0:0:0:
192,128,192068,1,0,0:0:0:0:
192,128,192409,1,0,0:0:0:0:
192,128,192681,1,0,0:0:0:0:
192,128,193090,1,0,0:0:0:0:
200,176,194113,1,0,0:0:0:0:
200,176,194454,1,0,0:0:0:0:
200,176,195477,1,0,0:0:0:0:
200,176,195750,1,0,0:0:0:0:
200,176,196022,1,0,0:0:0:0:
200,176,196227,1,0,0:0:0:0:
208,136,196977,1,0,0:0:0:0:
208,136,197386,1,0,0:0:0:0:
208,136,198477,1,0,0:0:0:0:
208,136,198954,1,0,0:0:0:0:
208,136,199159,1,0,0:0:0:0:
192,176,199840,1,0,0:0:0:0:
192,136,200931,1,0,0:0:0:0:
192,136,201477,1,0,0:0:0:0:
192,136,201886,1,0,0:0:0:0:
192,136,202090,1,0,0:0:0:0:
184,168,202772,1,0,0:0:0:0:
192,144,203386,1,0,0:0:0:0:
192,144,203659,1,0,0:0:0:0:
192,144,204068,1,0,0:0:0:0:
192,168,204818,1,0,0:0:0:0:
192,168,205159,1,0,0:0:0:0:
192,168,205431,1,0,0:0:0:0:
192,168,205977,1,0,0:0:0:0:
184,136,206522,1,0,0:0:0:0:
184,136,206795,1,0,0:0:0:0:
184,136,207136,1,0,0:0:0:0:
184,136,207681,1,0,0:0:0:0:
184,136,208090,1,0,0:0:0:0:
184,136,208363,1,0,0:0:0:0:
184,136,208568,1,0,0:0:0:0:
176,168,209454,1,0,0:0:0:0:
176,168,209863,1,0,0:0:0:0:
176,168,210204,1,0,0:0:0:0:
168,128,211159,1,0,0:0:0:0:
168,128,211363,1,0,0:0:0:0:
168,128,211636,1,0,0:0:0:0:
168,128,212113,1,0,0:0:0:0:
160,168,212727,1,0,0:0:0:0:
160,168,213000,1,0,0:0:0:0:
160,144,213886,1,0,0:0:0:0:
160,144,214159,1,0,0:0:0:0:
160,144,214431,1,0,0:0:0:0:
160,144,215113,1,0,0:0:0:0:
160,144,215863,1,0,0:0:0:0:
160,144,216136,1,0,0:0:0:0:
168,184,217159,1,0,0:0:0:0:
168,184,217363,1,0,0:0:0:0:
168,184,217840,1,0,0:0:0:0:
176,144,218795,1,0,0:0:0:0:
176,144,219204,1,0,0:0:0:0:
192,184,220431,1,0,0:0:0:0:
192,184,220704,1,0,0:0:0:0:
192,184,221386,1,0,0:0:0:0:
184,152,221931,1,0,0:0:0:0:
184,152,222272,1,0,0:0:0:0:
184,152,222545,1,0,0:0:0:0:
184,152,222750,1,0,0:0:0:0:
184,152,223022,1,0,0:0:0:0:
176,176,223568,1,0,0:0:0:0:
176,176,224250,1,0,0:0:0:0:
192,144,225068,1,0,0:0:0:0:
192,144,225409,1,0,0:0:0:0:
192,144,225954,1,0,0:0:0:0:
192,144,226636,1,0,0:0:0:0:
192,144,226909,1,0,0:0:0:0:
192,144,227386,1,0,0:0:0:0:
192,144,227727,1,0,0:0:0:0:
184,192,228340,1,0,0:0:0:0:
184,192,228613,1,0,0:0:0:0:
200,152,229636,1,0,0:0:0:0:
200,152,229909,1,0,0:0:0:0:
200,152,230113,1,0,0:0:0:0:
200,152,230590,1,0,0:0:0:0:
200,152,231409,1,0,0:0:0:0:
200,152,231750,1,0,0:0:0:0:
200,192,232909,1,0,0:0:0:0:
200,192,233250,1,0,0:0:0:0:
200,192,233590,1,0,0:0:0:0:
200,192,234545,1,0,0:0:0:0:
192,216,234954,1,0,0:0:0:0:
192,216,235363,1,0,0:0:0:0:
192,192,236250,1,0,0:0:0:0:
192,192,236659,1,0,0:0:0:0:
192,192,237000,1,0,0:0:0:0:
192,192,237818,1,0,0:0:0:0:
192,192,238295,1,0,0:0:0:0:
200,152,239113,1,0,0:0:0:0:
200,152,239454,1,0,0:0:0:0:
200,152,239863,1,0,0:0:0:0:
192,176,240750,1,0,0:0:0:0:
192,176,241022,1,0,0:0:0:0:
192,200,242386,1,0,0:0:0:0:
192,200,242659,1,0,0:0:0:0:
192,200,242931,1,0,0:0:0:0:
192,160,244090,1,0,0:0:0:0:
192,160,244568,1,0,0:0:0:0:
200,136,245386,1,0,0:0:0:0:
200,136,245659,1,0,0:0:0:0:
168,160,246272,1,0,0:0:0:0:
168,184,246886,1,0,0:0:0:0:
168,184,247363,1,0,0:0:0:0:
168,184,247636,1,0,0:0:0:0:
168,184,248386,1,0,0:0:0:0:
440,56,249000,1,0,0:0:0:0:
176,208,250363,1,0,0:0:0:0:
176,208,250772,1,0,0:0:0:0:
176,208,251386,1,0,0:0:0:0:
176,208,251863,1,0,0:0:0:0:
176,208,252136,1,0,0:0:0:0:
176,208,252545,1,0,0:0:0:0:
176,208,253227,1,0,0:0:0:0:
176,208,253500,1,0,0:0:0:0:
176,208,253977,1,0,0:0:0:0:
176,208,254659,1,0,0:0:0:0:
176,208,254931,1,0,0:0:0:0:
256,192,255886,12,0,265363,0:0:0:0:
