osu file format v14

[General]
AudioFilename: audio.mp3
AudioLeadIn: 0
PreviewTime: 59348
Countdown: 0
SampleSet: Soft
StackLeniency: 0.7
Mode: 0
LetterboxInBreaks: 0
WidescreenStoryboard: 1

[Editor]
Bookmarks: 74067
DistanceSpacing: 1.3
BeatDivisor: 4
GridSize: 32
TimelineZoom: 3

[Metadata]
Title:UNDER THE TREE
TitleUnicode:UNDER THE TREE
Artist:SiM
ArtistUnicode:SiM
Creator:Stixy
Version:MAOT'S HARD
Source:「進撃の巨人」The Final Season完結編(前編)
Tags:attack on titan part 3 Season 完結編 前編 Kanketsu-hen shingeki no kyojin silence iz is mine japanese english rock jrock j-rock maot muya- rosiie ending ed anime rumbling final chapters
BeatmapID:4039646
BeatmapSetID:1950809

[Difficulty]
HPDrainRate:4.5
CircleSize:3.8
OverallDifficulty:7
ApproachRate:8
SliderMultiplier:1.42
SliderTickRate:1

[Events]
//Background and Video events
0,0,"bg.jpg",0,0
Video,-141,"video.mp4"
//Break Periods
//Storyboard Layer 0 (Background)
//Storyboard Layer 1 (Fail)
//Storyboard Layer 2 (Pass)
//Storyboard Layer 3 (Foreground)
//Storyboard Layer 4 (Overlay)
//Storyboard Sound Samples

[TimingPoints]
618,405.405405405405,4,2,1,50,1,0
618,-125,4,2,1,50,0,0
7104,-111.111111111111,4,2,1,50,0,0
13590,-100,4,2,1,60,0,0
16023,-100,4,2,2,60,0,0
16428,-100,4,2,1,60,0,0
19266,-100,4,2,2,60,0,0
19672,-100,4,2,1,60,0,0
22509,-100,4,2,2,60,0,0
22915,-100,4,2,1,60,0,0
23725,-100,4,2,1,50,0,0
24942,375,4,2,3,60,1,0
25692,-100,4,2,1,60,0,0
26442,-100,4,2,2,70,0,0
26817,-100,4,2,1,70,0,0
27004,-100,4,2,4,70,0,0
27942,-100,4,2,2,70,0,0
28317,-100,4,2,1,70,0,0
28504,-100,4,2,3,70,0,0
28692,-100,4,2,4,70,0,0
28879,-100,4,2,1,70,0,0
29067,-100,4,2,4,70,0,0
29442,-100,4,2,2,70,0,0
29817,-100,4,2,1,70,0,0
30004,-100,4,2,5,70,0,0
30567,-100,4,2,4,70,0,0
32067,-100,4,2,2,70,0,0
32817,-100,4,2,4,70,0,0
33004,-100,4,2,3,70,0,0
33192,-100,4,2,4,70,0,0
34504,-100,4,2,5,70,0,0
35067,-100,4,2,4,70,0,0
36567,-100,4,2,3,70,0,0
36754,-100,4,2,4,70,0,0
37129,-100,4,2,3,70,0,0
37692,-100,4,2,4,70,0,0
37879,-100,4,2,1,70,0,0
38067,-100,4,2,6,70,0,0
38442,-100,4,2,3,70,0,0
38817,-100,4,2,1,70,0,0
39004,-100,4,2,4,70,0,0
39942,-100,4,2,2,70,0,0
40317,-100,4,2,1,70,0,0
40504,-100,4,2,4,70,0,0
41442,-100,4,2,2,70,0,0
41817,-100,4,2,1,70,0,0
42004,-100,4,2,5,70,0,0
42567,-100,4,2,4,70,0,0
44067,-100,4,2,2,70,0,0
44817,-100,4,2,1,70,0,0
45004,-100,4,2,4,70,0,0
48567,-100,4,2,3,70,0,0
48754,-100,4,2,4,70,0,0
49129,-100,4,2,3,70,0,0
49317,-100,4,2,1,70,0,0
49504,-100,4,2,2,70,0,0
49692,-100,4,2,1,70,0,0
49879,-100,4,2,4,70,0,0
50254,-100,4,2,2,70,0,0
50442,-100,4,2,4,50,0,0
50817,-100,4,2,1,50,0,0
53442,-100,4,2,1,60,0,0
53817,-100,4,2,4,60,0,0
54192,-100,4,2,2,60,0,0
54567,-100,4,2,4,60,0,0
54942,-100,4,2,1,70,0,0
55317,-100,4,2,4,70,0,0
55692,-100,4,2,2,70,0,0
56067,-100,4,2,4,70,0,0
56442,-100,4,2,1,80,0,0
56817,-100,4,2,1,60,0,0
57192,-100,4,2,3,60,0,0
57942,-100,4,2,5,70,0,0
58692,-100,4,2,6,80,0,0
59442,-100,4,2,7,85,0,0
59817,-100,4,2,5,85,0,0
60192,-100,4,2,4,85,0,0
60567,-100,4,2,5,85,0,0
60942,-100,4,2,8,85,0,0
61317,-100,4,2,7,85,0,0
61692,-100,4,2,4,85,0,0
62067,-100,4,2,7,85,0,0
62442,-100,4,2,4,85,0,0
62817,-100,4,2,5,85,0,0
63192,-100,4,2,4,85,0,0
63567,-100,4,2,5,85,0,0
63942,-100,4,2,7,85,0,0
64316,-100,4,2,5,85,0,0
64692,-100,4,2,4,85,0,0
65067,-100,4,2,5,85,0,0
65442,-100,4,2,4,85,0,0
65817,-100,4,2,7,85,0,0
66192,-100,4,2,4,85,0,0
66567,-100,4,2,7,85,0,0
66942,-100,4,2,4,85,0,0
67317,-100,4,2,5,85,0,0
68067,-100,4,2,9,85,0,0
68442,-100,4,2,2,85,0,0
68817,-100,4,2,5,85,0,0
69942,-100,4,2,8,85,0,0
70129,-100,4,2,1,85,0,0
70317,-100,4,2,4,85,0,0
70504,-100,4,2,1,85,0,0
70879,-100,4,2,3,85,0,0
71348,-100,4,2,1,85,0,0
71442,-100,4,2,7,85,0,0
71817,-100,4,2,5,85,0,0
72192,-100,4,2,4,85,0,0
72567,-100,4,2,5,85,0,0
72942,-100,4,2,8,85,0,0
73317,-100,4,2,5,85,0,0
73692,-100,4,2,9,85,0,0
74067,-100,4,2,10,85,0,0
74442,-100,4,2,4,85,0,0
74817,-100,4,2,5,85,0,0
75192,-100,4,2,4,85,0,0
75567,-100,4,2,5,85,0,0
75942,-100,4,2,7,85,0,0
76129,-100,4,2,5,85,0,0
77442,-100,4,2,5,80,0,0
78192,-100,4,2,1,80,0,0
78942,-100,4,2,6,80,0,0
79692,-100,4,2,1,80,0,0
80067,-100,4,2,1,80,0,0
80442,-100,4,2,3,80,0,0
81192,-100,4,2,5,80,0,0
81754,-100,4,2,1,80,0,0
81942,-100,4,2,4,80,0,0
82317,-100,4,2,2,80,0,0
82504,-100,4,2,1,80,0,0
83442,-100,4,2,4,85,0,0
83817,-100,4,2,5,85,0,0
84192,-100,4,2,4,85,0,0
84567,-100,4,2,5,85,0,0
84942,-100,4,2,11,85,0,0
85317,-100,4,2,5,85,0,0
85692,-100,4,2,4,85,0,0
86067,-100,4,2,7,85,0,0
86442,-100,4,2,4,85,0,0
86817,-100,4,2,5,85,0,0
87004,-100,4,2,1,85,0,0
87192,-100,4,2,4,85,0,0
87567,-100,4,2,5,85,0,0
87942,-100,4,2,11,85,0,0
88317,-100,4,2,5,85,0,0
88692,-100,4,2,10,85,0,0
89067,-100,4,2,7,85,0,0
89442,-100,4,2,4,85,0,0
89817,-100,4,2,5,85,0,0
90004,-100,4,2,1,85,0,0
90192,-100,4,2,4,85,0,0
90567,-100,4,2,5,85,0,0
90942,-100,4,2,4,85,0,0
91317,-100,4,2,7,85,0,0
91692,-100,4,2,10,85,0,0
92067,-100,4,2,5,85,0,0
92254,-100,4,2,1,85,0,0
92442,-100,4,2,7,85,0,0
92817,-100,4,2,5,85,0,0
93942,-100,4,2,4,85,0,0
94317,-100,4,2,7,85,0,0
94692,-100,4,2,10,85,0,0
95067,-100,4,2,4,85,0,0
95442,-100,4,2,12,85,0,0
96942,-100,4,2,13,85,0,0
98442,-100,4,2,12,85,0,0
99942,-100,4,2,13,85,0,0
101442,-100,4,2,12,85,0,0
102942,-100,4,2,13,85,0,0
103692,-100,4,2,14,85,0,0
104067,-100,4,2,15,85,0,0
104442,-100,4,2,14,85,0,0
104817,-100,4,2,15,85,0,0
105192,-100,4,2,12,85,0,0
105942,-100,4,2,13,85,0,0
106692,-100,4,2,12,85,0,0
106879,-100,4,2,13,85,0,0
107067,-100,4,2,14,85,0,0
107254,-100,4,2,15,85,0,0
107442,-100,4,2,7,80,0,0
107629,-100,4,2,3,80,0,0
107817,-100,4,2,4,80,0,0
108004,-100,4,2,5,80,0,0
108567,-100,4,2,1,80,0,0
108754,-100,4,2,3,80,0,0
108941,-100,4,2,1,80,0,0
109129,-100,4,2,3,80,0,0
109317,-100,4,2,4,80,0,0
109692,-100,4,2,6,80,0,0
110067,-100,4,2,4,80,0,0
110629,-100,4,2,3,80,0,0
110817,-100,4,2,4,80,0,0
111004,-100,4,2,5,80,0,0
111567,-100,4,2,1,80,0,0
111754,-100,4,2,3,80,0,0
111942,-100,4,2,1,80,0,0
112035,-100,4,2,1,80,0,0
112129,-100,4,2,3,80,0,0
112317,-100,4,2,4,80,0,0
112567,-100,4,2,2,80,0,0
112629,-100,4,2,4,80,0,0
113067,-100,4,2,3,80,0,0
113442,-100,4,2,7,80,0,0
113629,-100,4,2,3,80,0,0
113817,-100,4,2,4,80,0,0
114004,-100,4,2,5,80,0,0
114567,-100,4,2,1,80,0,0
114754,-100,4,2,3,80,0,0
114942,-100,4,2,1,80,0,0
115129,-100,4,2,3,80,0,0
115317,-100,4,2,4,80,0,0
115692,-100,4,2,10,80,0,0
116254,-100,4,2,1,80,0,0
116442,-100,4,2,4,80,0,0
116629,-100,4,2,3,80,0,0
116817,-100,4,2,4,80,0,0
117004,-100,4,2,5,80,0,0
117754,-100,4,2,4,80,0,0
118129,-100,4,2,1,80,0,0

[Colours]
Combo1 : 255,231,157
Combo2 : 255,155,106
Combo3 : 255,85,85
Combo4 : 166,83,0

[HitObjects]
41,338,618,6,0,P|96:328|152:314,1,113.6,8|0,2:1|0:0,0:0:0:0:
224,268,1226,1,0,0:0:0:0:
224,268,1428,2,0,P|213:223|148:197,1,113.6,2|2,2:2|2:2,0:0:0:0:
234,62,2239,6,0,P|265:43|311:42,1,56.8,8|0,2:1|0:0,0:0:0:0:
307,119,2645,2,0,P|334:125|357:141,1,56.8,8|0,2:1|0:0,0:0:0:0:
426,92,3050,2,0,P|416:158|415:216,1,113.6,2|2,2:2|2:2,0:0:0:0:
274,301,3861,1,8,2:1:0:0:
274,301,5077,6,0,L|289:225,1,56.8,2|0,2:2|0:0,0:0:0:0:
233,180,5482,2,0,P|197:156|121:186,1,113.6,10|10,2:1|2:1,0:0:0:0:
25,73,6293,2,0,P|104:56|208:16,1,170.4,2|0,2:2|0:0,0:0:0:0:
263,81,7104,6,0,P|297:91|333:106,2,63.9000000000001,8|0|0,2:1|0:0|0:0,0:0:0:0:
205,150,7712,1,0,0:0:0:0:
205,150,7915,2,0,P|193:201|243:287,1,127.8,2|2,2:2|2:2,0:0:0:0:
379,377,8726,6,0,P|391:326|402:286,1,63.9000000000001,10|0,2:1|0:0,0:0:0:0:
317,274,9131,2,0,P|305:223|294:183,1,63.9000000000001,10|0,2:1|0:0,0:0:0:0:
363,154,9536,1,2,2:2:0:0:
209,83,9942,1,2,2:2:0:0:
356,7,10347,6,0,L|336:158,1,127.8,10|2,2:1|2:2,0:0:0:0:
194,209,11158,2,0,L|210:335,1,127.8,2|2,2:2|2:2,0:0:0:0:
210,335,11969,6,0,L|227:244,1,63.9000000000001,10|0,2:1|0:0,0:0:0:0:
109,221,12374,2,0,L|97:158,1,63.9000000000001,8|0,2:1|0:0,0:0:0:0:
97,158,13590,6,0,P|43:152|4:72,1,142,12|0,2:1|0:0,0:0:0:0:
72,18,14199,1,0,0:0:0:0:
72,18,14401,2,0,P|128:29|165:32,1,71,10|0,2:2|0:0,0:0:0:0:
195,96,14807,2,0,P|251:85|288:82,1,71,2|0,2:2|0:0,0:0:0:0:
321,138,15212,5,8,2:1:0:0:
228,280,15617,1,10,2:1:0:0:
343,364,16023,2,0,P|360:371|411:370,2,47.3333333333333,10|0|8,2:2|0:0|2:2,0:0:0:0:
320,344,16428,2,0,P|325:304|336:268,1,71,10|0,2:2|0:0,0:0:0:0:
269,192,16834,6,0,P|199:183|132:230,1,142,8|0,2:1|0:0,0:0:0:0:
51,253,17442,1,0,0:0:0:0:
51,253,17645,2,0,P|24:234|28:187,1,71,8|0,2:2|0:0,0:0:0:0:
129,300,18050,2,0,P|115:358|113:388,1,71,2|0,2:2|0:0,0:0:0:0:
246,257,18455,5,10,2:1:0:0:
141,122,18861,1,10,2:1:0:0:
295,10,19266,2,0,B|295:59|264:56|275:117,1,94.6666666666667,10|8,2:2|2:2,0:0:0:0:
284,117,19672,2,0,P|324:131|357:142,1,71,8|0,2:2|0:0,0:0:0:0:
425,103,20077,5,8,2:1:0:0:
316,231,20482,2,0,P|332:284|337:322,1,71,2|0,2:2|0:0,0:0:0:0:
412,359,20888,2,0,P|446:366|480:377,1,71,10|0,2:2|0:0,0:0:0:0:
343,309,21293,2,0,P|308:316|274:327,1,71,2|0,2:2|0:0,0:0:0:0:
203,274,21699,5,10,2:1:0:0:
300,117,22104,1,10,2:1:0:0:
122,67,22509,2,0,P|135:111|139:137,1,71,10|0,2:2|0:0,0:0:0:0:
216,184,22915,2,0,P|205:217|199:252,1,71,10|0,2:2|0:0,0:0:0:0:
132,309,23320,2,0,P|44:295|1:240,1,142,14|2,2:1|2:2,0:0:0:0:
290,226,24131,2,0,P|378:240|421:295,1,142,2|2,2:2|2:2,0:0:0:0:
173,106,24942,5,10,2:2:0:0:
353,21,25317,1,10,2:2:0:0:
264,144,25692,5,10,2:2:0:0:
264,144,25879,1,8,2:2:0:0:
342,185,26067,1,10,2:2:0:0:
342,185,26254,1,8,2:2:0:0:
264,232,26442,6,0,P|222:245|165:245,1,71,12|0,2:1|0:0,0:0:0:0:
112,295,26817,2,0,P|125:337|125:394,1,71,2|8,2:3|2:1,0:0:0:0:
118,204,27192,2,0,P|90:122|-1:96,1,142,10|2,2:2|2:2,0:0:0:0:
253,6,27942,6,0,P|239:47|229:98,1,71,10|0,2:1|0:0,0:0:0:0:
296,150,28317,1,2,2:3:0:0:
296,150,28504,1,10,2:1:0:0:
380,114,28692,2,0,P|421:128|472:138,1,71,10|2,2:2|2:2,0:0:0:0:
434,221,29067,2,0,P|480:245|482:330,1,142,2|10,2:2|2:1,0:0:0:0:
397,312,29629,5,0,0:0:0:0:
312,292,29817,2,0,L|296:372,1,71,2|8,2:3|2:1,0:0:0:0:
213,275,30192,1,10,2:2:0:0:
213,275,30567,6,0,P|170:263|134:259,1,71,2|0,2:2|0:0,0:0:0:0:
122,178,30942,1,10,2:1:0:0:
122,178,31129,1,0,0:0:0:0:
96,88,31317,2,0,P|49:91|21:110,1,71,2|8,2:2|2:1,0:0:0:0:
170,37,31692,2,0,P|229:32|326:2,1,142,10|2,2:2|2:3,0:0:0:0:
385,199,32442,6,0,P|345:183|309:174,1,71,10|2,2:1|2:2,0:0:0:0:
261,242,32817,1,2,2:2:0:0:
261,242,33004,1,10,2:1:0:0:
198,170,33192,2,0,P|192:111|182:73,1,71,10|0,2:2|0:0,0:0:0:0:
103,38,33567,2,0,P|96:72|94:108,1,71,2|0,2:2|0:0,0:0:0:0:
8,133,33942,6,0,P|97:168|105:212,1,142,10|2,2:1|2:2,0:0:0:0:
183,238,34504,1,10,2:1:0:0:
264,273,34692,2,0,P|253:306|245:350,1,71,10|0,2:2|0:0,0:0:0:0:
359,275,35067,2,0,P|348:242|340:198,1,71,2|0,2:2|0:0,0:0:0:0:
307,120,35442,6,0,P|273:107|239:97,1,71,10|0,2:1|0:0,0:0:0:0:
362,48,35817,2,0,P|395:35|429:25,1,71,2|8,2:2|2:1,0:0:0:0:
437,109,36192,1,10,2:2:0:0:
283,28,36567,1,6,2:3:0:0:
283,28,36754,1,4,2:3:0:0:
232,101,36942,6,0,P|220:134|215:169,1,71,10|10,2:2|2:1,0:0:0:0:
203,256,37317,1,0,0:0:0:0:
203,256,37504,1,8,2:1:0:0:
189,347,37692,2,0,P|151:341|120:329,1,71,10|2,2:2|2:2,0:0:0:0:
276,314,38067,1,2,2:2:0:0:
276,314,38442,6,0,L|284:389,1,71,14|0,2:1|0:0,0:0:0:0:
367,323,38817,2,0,L|374:253,1,71,2|8,2:3|2:1,0:0:0:0:
438,193,39192,2,0,B|473:207|473:207|522:195,1,71,10|0,2:2|0:0,0:0:0:0:
414,106,39567,6,0,P|347:118|258:121,1,142,2|10,2:2|2:1,0:0:0:0:
203,169,40129,1,0,0:0:0:0:
203,169,40317,2,0,P|177:127|194:97,1,71,2|8,2:3|2:1,0:0:0:0:
104,197,40692,2,0,P|62:187|20:185,1,71,10|0,2:2|0:0,0:0:0:0:
149,278,41067,2,0,P|218:264|289:260,1,142,2|10,2:2|2:1,0:0:0:0:
381,283,41629,5,0,0:0:0:0:
381,283,41817,2,0,P|376:240|351:200,1,71,2|8,2:3|2:1,0:0:0:0:
437,161,42192,2,0,P|446:126|465:96,1,71,10|0,2:2|0:0,0:0:0:0:
387,39,42567,1,2,2:2:0:0:
298,156,42942,6,0,P|264:168|230:176,1,71,10|0,2:1|0:0,0:0:0:0:
142,205,43317,1,2,2:2:0:0:
142,205,43504,1,8,2:1:0:0:
44,223,43692,2,0,P|0:171|25:108,1,142,10|2,2:2|2:3,0:0:0:0:
199,41,44442,6,0,P|233:48|268:56,1,71,10|0,2:1|0:0,0:0:0:0:
300,136,44817,2,0,P|334:128|369:120,1,71,2|8,2:3|2:1,0:0:0:0:
453,177,45192,2,0,P|396:214|395:283,1,142,10|2,2:2|2:2,0:0:0:0:
205,361,45942,6,0,P|190:328|181:294,1,71,10|0,2:1|0:0,0:0:0:0:
109,252,46317,2,0,P|128:205|134:178,1,71,2|8,2:2|2:1,0:0:0:0:
216,146,46692,2,0,P|160:70|96:65,1,142,10|2,2:2|2:2,0:0:0:0:
330,21,47442,6,0,P|321:76|321:109,1,71,10|0,2:1|0:0,0:0:0:0:
403,135,47817,2,0,P|405:170|412:205,1,71,2|8,2:2|2:1,0:0:0:0:
494,250,48192,1,10,2:2:0:0:
354,309,48567,1,6,2:3:0:0:
213,371,48942,6,0,P|207:335|200:301,1,71,10|10,2:2|2:1,0:0:0:0:
273,242,49317,1,2,2:3:0:0:
273,242,49504,1,8,2:1:0:0:
193,184,49692,1,10,2:2:0:0:
193,184,49879,1,10,2:3:0:0:
276,127,50067,2,0,P|282:91|289:57,1,71,6|2,2:3|2:3,0:0:0:0:
196,5,50442,5,12,2:1:0:0:
240,285,53442,6,0,P|249:210|253:193,1,71,10|0,2:2|0:0,0:0:0:0:
166,158,53817,2,0,P|163:193|157:228,1,71,10|0,2:3|0:0,0:0:0:0:
252,123,54192,6,0,P|327:114|344:110,1,71,4|0,2:3|0:0,0:0:0:0:
382,32,54567,2,0,P|346:29|311:23,1,71,6|0,2:3|0:0,0:0:0:0:
411,116,54942,6,0,P|416:151|419:186,1,71,10|0,2:2|0:0,0:0:0:0:
502,248,55317,2,0,P|504:212|510:177,1,71,10|0,2:3|0:0,0:0:0:0:
419,285,55692,6,0,P|383:287|348:293,1,71,4|0,2:3|0:0,0:0:0:0:
312,210,56067,2,0,P|276:207|241:201,1,71,6|0,2:3|0:0,0:0:0:0:
180,256,56442,1,10,2:2:0:0:
180,256,57192,6,0,P|162:167|301:105,1,248.5,14|0,2:1|0:0,0:0:0:0:
290,105,57942,2,0,L|243:369,1,248.5,14|0,2:1|0:0,0:0:0:0:
265,338,58692,2,0,P|285:236|200:176,1,213,14|0,2:1|0:0,0:0:0:0:
94,146,59442,6,0,P|15:183|0:236,1,142,14|2,2:1|2:3,0:0:0:0:
71,313,60004,1,8,2:1:0:0:
71,313,60192,2,0,P|125:292|212:271,1,142,10|2,2:2|2:3,0:0:0:0:
406,225,60942,6,0,P|405:252|420:326,1,71,14|8,2:1|2:1,0:0:0:0:
309,354,61317,2,0,P|309:318|304:283,1,71,2|8,2:2|2:1,0:0:0:0:
223,226,61692,2,0,P|169:218|136:243,1,71,14|0,2:2|0:0,0:0:0:0:
288,158,62067,2,0,P|296:104|306:77,1,71,2|0,2:2|0:0,0:0:0:0:
213,43,62442,6,0,B|135:20|154:72|75:51,1,142,14|2,2:1|2:3,0:0:0:0:
176,131,63004,1,8,2:1:0:0:
176,131,63192,2,0,L|314:99,1,142,10|2,2:2|2:3,0:0:0:0:
472,243,63942,5,14,2:1:0:0:
472,243,64129,2,0,P|434:239|388:223,1,71,8|2,2:1|2:3,0:0:0:0:
358,317,64504,1,8,2:1:0:0:
358,317,64598,1,8,2:1:0:0:
358,317,64692,1,10,2:2:0:0:
271,269,64879,2,0,P|176:293|106:298,1,142
37,248,65442,6,0,P|37:207|71:175,1,71,14|0,2:1|0:0,0:0:0:0:
44,91,65817,2,0,P|85:91|117:125,1,71,2|0,2:2|0:0,0:0:0:0:
170,177,66192,2,0,P|243:182|292:118,1,142,10|2,2:2|2:2,0:0:0:0:
465,207,66942,6,0,P|493:291|514:370,1,142,14|2,2:1|2:3,0:0:0:0:
435,382,67504,1,10,2:1:0:0:
371,319,67692,2,0,L|287:349,1,71,14|0,2:2|0:0,0:0:0:0:
252,272,68067,2,0,P|200:265|159:206,1,106.5,10|0,2:1|0:0,0:0:0:0:
158,212,68442,6,0,P|199:71|210:-9,1,213,14|8,2:1|2:1,0:0:0:0:
125,21,69192,1,10,2:2:0:0:
273,159,69567,1,2,2:3:0:0:
357,119,69754,5,8,2:1:0:0:
357,119,69848,1,8,2:1:0:0:
357,119,69942,2,0,P|413:138|446:146,1,71,14|10,2:2|2:2,0:0:0:0:
478,205,70317,1,6,2:3:0:0:
397,254,70504,2,0,P|412:295|412:375,1,106.5,6|0,2:2|0:0,0:0:0:0:
391,372,70879,1,14,2:1:0:0:
258,237,71254,5,4,2:3:0:0:
258,237,71348,1,4,2:3:0:0:
258,237,71442,2,0,P|193:250|157:333,1,142,14|2,2:1|2:3,0:0:0:0:
308,314,72004,1,8,2:1:0:0:
308,314,72192,2,0,P|312:234|321:163,1,142,10|2,2:2|2:3,0:0:0:0:
159,45,72942,6,0,P|126:69|134:124,1,71,14|8,2:1|2:1,0:0:0:0:
40,116,73317,2,0,P|48:149|78:167,1,71,2|8,2:3|2:1,0:0:0:0:
166,194,73692,6,0,P|216:182|249:172,1,71,14|0,2:2|0:0,0:0:0:0:
268,259,74067,2,0,P|318:271|351:281,1,71,10|0,2:1|0:0,0:0:0:0:
392,202,74442,6,0,P|477:216|522:278,1,142,14|2,2:1|2:3,0:0:0:0:
473,165,75004,1,8,2:1:0:0:
443,82,75192,2,0,P|362:101|303:109,1,142,10|2,2:2|2:3,0:0:0:0:
109,168,75942,5,14,2:1:0:0:
182,213,76129,2,0,P|215:202|256:196,1,71,10|2,2:1|2:3,0:0:0:0:
334,245,76504,1,8,2:1:0:0:
334,245,76598,1,8,2:1:0:0:
334,245,76692,1,10,2:2:0:0:
411,291,76879,2,0,P|430:223|442:134,1,142
498,83,77442,5,12,2:1:0:0:
268,28,77817,1,12,2:1:0:0:
268,28,78942,6,0,B|267:115|322:76|315:167,1,142,14|14,2:1|2:1,0:0:0:0:
246,323,79692,1,2,2:2:0:0:
246,323,80067,2,0,P|285:319|324:320,1,71,10|0,2:2|0:0,0:0:0:0:
150,317,80442,6,0,P|125:253|58:238,1,142,14|0,2:1|0:0,0:0:0:0:
86,151,81004,1,10,2:1:0:0:
117,70,81192,2,0,L|103:-22,1,71,8|10,2:2|2:1,0:0:0:0:
199,29,81567,1,8,2:2:0:0:
291,56,81754,5,10,2:2:0:0:
291,56,81848,1,0,0:0:0:0:
291,56,81942,2,0,L|378:33,1,71,8|10,2:1|2:3,0:0:0:0:
414,105,82317,2,0,L|501:128,1,71,4|4,2:3|2:3,0:0:0:0:
456,209,82692,1,10,2:2:0:0:
421,298,82879,1,8,2:2:0:0:
421,298,82973,1,8,2:2:0:0:
421,298,83067,2,0,L|427:362,3,35.5,10|8|8|8,2:2|2:2|2:2|2:2,0:0:0:0:
340,328,83442,6,0,P|307:312|197:360,1,142,14|2,2:1|2:3,0:0:0:0:
31,212,84192,2,0,P|93:242|159:224,1,142,14|2,2:2|2:3,0:0:0:0:
242,67,84942,5,14,2:1:0:0:
301,142,85129,2,0,P|370:128|440:115,1,142,8|0,2:1|0:0,0:0:0:0:
503,221,85692,2,0,P|468:214|433:207,1,71,14|0,2:2|0:0,0:0:0:0:
368,278,86067,2,0,P|333:285|299:293,1,71,2|0,2:2|0:0,0:0:0:0:
228,358,86442,6,0,P|151:296|172:184,1,213,14|2,2:1|2:2,0:0:0:0:
255,148,87192,2,0,P|329:132|394:110,1,142,14|2,2:2|2:3,0:0:0:0:
206,33,87942,5,14,2:1:0:0:
143,91,88129,2,0,P|105:80|49:-8,1,142,8|0,2:1|0:0,0:0:0:0:
58,101,88692,2,0,P|50:136|41:170,1,71,14|0,2:2|0:0,0:0:0:0:
135,208,89067,2,0,P|143:242|152:276,1,71,2|0,2:2|0:0,0:0:0:0:
232,160,89442,6,0,B|318:147|290:202|378:188,1,142,14|2,2:1|2:3,0:0:0:0:
425,265,90004,1,2,2:2:0:0:
480,340,90192,2,0,P|383:310|316:384,1,213,14|0,2:2|0:0,0:0:0:0:
229,353,90942,6,0,P|225:317|219:282,1,71,14|8,2:1|2:1,0:0:0:0:
133,242,91317,2,0,P|97:238|62:232,1,71,2|0,2:2|0:0,0:0:0:0:
204,179,91692,2,0,P|199:110|252:68,1,142,14|2,2:2|2:3,0:0:0:0:
339,141,92254,5,2,2:2:0:0:
339,141,92348,1,0,0:0:0:0:
339,141,92442,2,0,P|402:128|401:294,1,284,14|10,2:1|2:2,0:0:0:0:
156,83,93942,6,0,L|146:153,1,71,14|8,2:1|2:1,0:0:0:0:
244,137,94317,2,0,L|253:207,1,71,2|8,2:2|2:1,0:0:0:0:
329,90,94692,1,14,2:2:0:0:
358,76,95067,1,6,2:3:0:0:
386,77,95442,6,0,P|403:130|423:235,1,142,14|0,2:1|0:0,0:0:0:0:
272,344,96192,2,0,P|255:291|235:186,1,142,14|0,2:2|0:0,0:0:0:0:
50,153,96942,5,14,2:1:0:0:
125,115,97129,2,0,P|188:140|210:205,1,142,8|8,2:1|2:1,0:0:0:0:
301,152,97692,1,10,2:2:0:0:
301,152,97879,1,0,0:0:0:0:
388,194,98067,2,0,L|407:262,1,71,0|8,0:0|2:1,0:0:0:0:
482,173,98442,6,0,B|513:108|513:108|487:11,1,142,14|0,2:1|0:0,0:0:0:0:
324,0,99192,2,0,B|293:65|293:65|319:162,1,142,14|0,2:2|0:0,0:0:0:0:
247,290,99942,5,14,2:1:0:0:
206,367,100129,2,0,L|187:227,1,142,8|8,2:1|2:1,0:0:0:0:
103,269,100692,1,10,2:2:0:0:
103,269,100879,1,8,2:1:0:0:
18,313,101067,2,0,B|1:284|1:284|8:247,1,71,0|8,0:0|2:1,0:0:0:0:
78,172,101442,6,0,P|142:156|169:69,1,142,14|0,2:1|0:0,0:0:0:0:
393,88,102192,2,0,P|326:70|298:7,1,142,14|0,2:2|0:0,0:0:0:0:
209,232,102942,5,14,2:1:0:0:
240,161,103129,2,0,P|254:231|257:302,1,142,8|8,2:1|2:1,0:0:0:0:
356,321,103692,2,0,P|390:327|424:337,1,71,14|0,2:2|0:0,0:0:0:0:
433,245,104067,2,0,P|467:238|502:227,1,71,2|8,2:2|2:1,0:0:0:0:
400,153,104442,6,0,P|335:138|311:43,1,142,14|2,2:1|2:2,0:0:0:0:
219,22,105004,1,10,2:1:0:0:
219,22,105192,2,0,P|215:57|218:104,1,71,10|0,2:2|0:0,0:0:0:0:
126,141,105567,2,0,B|113:108|113:108|125:59,1,71,0|8,0:0|2:1,0:0:0:0:
129,80,105848,5,8,2:1:0:0:
129,80,105942,2,0,P|56:92|26:157,1,142,10|0,2:2|0:0,0:0:0:0:
89,236,106504,1,0,0:0:0:0:
89,236,106598,1,0,0:0:0:0:
89,236,106692,2,0,B|184:213,1,71,10|8,2:3|2:3,0:0:0:0:
241,272,107067,1,14,2:3:0:0:
241,272,107254,1,12,2:3:0:0:
312,323,107442,6,0,P|346:328|382:333,1,71,14|10,2:1|2:1,0:0:0:0:
376,247,107817,1,10,2:1:0:0:
376,247,108004,1,10,2:1:0:0:
356,161,108192,2,0,B|339:122|339:122|364:60|364:60|379:55|379:55|394:42,1,142,10|2,2:2|2:3,0:0:0:0:
306,79,108754,2,0,B|282:75|282:75|270:79|270:79|218:52,1,71,10|2,2:1|2:3,0:0:0:0:
180,130,109129,1,10,2:1:0:0:
180,130,109317,2,0,B|194:161|194:161|187:172|187:172|190:203,1,71,10|0,2:1|0:0,0:0:0:0:
104,215,109692,2,0,B|98:240|98:240|92:252|92:252|94:285,1,71,14|0,2:3|0:0,0:0:0:0:
164,352,110067,1,2,2:2:0:0:
164,352,110442,6,0,L|254:372,1,71,14|10,2:1|2:1,0:0:0:0:
290,307,110817,2,0,L|380:287,1,71,10|10,2:1|2:1,0:0:0:0:
237,239,111192,2,0,B|251:207|251:207|251:178|251:178|255:167|255:167|247:131|247:131|260:102,1,142,10|2,2:2|2:3,0:0:0:0:
236,18,111754,5,10,2:1:0:0:
236,18,111942,2,0,L|320:29,1,71,2|10,2:3|2:1,0:0:0:0:
362,104,112317,2,0,L|446:93,1,71,10|8,2:1|2:3,0:0:0:0:
421,191,112692,1,10,2:2:0:0:
421,191,112879,1,8,2:1:0:0:
392,280,113067,1,10,2:3:0:0:
392,280,113442,6,0,P|357:286|322:293,1,71,14|10,2:1|2:1,0:0:0:0:
229,328,113817,1,10,2:1:0:0:
229,328,114004,1,10,2:1:0:0:
128,354,114192,2,0,P|138:320|137:272,1,71,10|10,2:2|2:1,0:0:0:0:
52,242,114567,1,2,2:3:0:0:
112,165,114754,6,0,P|182:176|252:192,1,142,10|10,2:1|2:1,0:0:0:0:
345,177,115317,2,0,P|351:142|356:106,1,71,10|0,2:1|0:0,0:0:0:0:
446,43,115692,2,0,P|451:77|456:113,1,71,14|8,2:2|2:1,0:0:0:0:
369,21,116067,1,10,2:2:0:0:
369,21,116254,1,10,2:2:0:0:
284,56,116442,6,0,P|248:50|213:48,1,71,14|10,2:1|2:1,0:0:0:0:
159,123,116817,2,0,P|123:125|88:130,1,71,14|10,2:1|2:1,0:0:0:0:
34,223,117192,1,10,2:2:0:0:
34,223,117379,2,0,P|69:215|103:224,1,71,10|0,2:1|0:0,0:0:0:0:
162,291,117754,2,0,P|234:272|246:186,1,142,14|10,2:2|2:2,0:0:0:0:
337,146,118317,5,10,2:2:0:0:
