osu file format v14

[General]
AudioFilename: audio.mp3
AudioLeadIn: 0
PreviewTime: 59348
Countdown: 0
SampleSet: Soft
StackLeniency: 0.4
Mode: 0
LetterboxInBreaks: 0
WidescreenStoryboard: 1

[Editor]
Bookmarks: 59472
DistanceSpacing: 1.1
BeatDivisor: 4
GridSize: 32
TimelineZoom: 0.9999998

[Metadata]
Title:UNDER THE TREE
TitleUnicode:UNDER THE TREE
Artist:SiM
ArtistUnicode:SiM
Creator:Stixy
Version:MUYA-'S INSANE
Source:「進撃の巨人」The Final Season完結編(前編)
Tags:attack on titan part 3 Season 完結編 前編 Kanketsu-hen shingeki no kyojin silence iz is mine japanese english rock jrock j-rock maot muya- rosiie ending ed anime rumbling final chapters
BeatmapID:4040656
BeatmapSetID:1950809

[Difficulty]
HPDrainRate:5
CircleSize:4.4
OverallDifficulty:8
ApproachRate:9
SliderMultiplier:1.8
SliderTickRate:1

[Events]
//Background and Video events
0,0,"bg.jpg",0,0
Video,-141,"video.mp4"
//Break Periods
//Storyboard Layer 0 (Background)
//Storyboard Layer 1 (Fail)
//Storyboard Layer 2 (Pass)
//Storyboard Layer 3 (Foreground)
//Storyboard Layer 4 (Overlay)
//Storyboard Sound Samples

[TimingPoints]
618,405.405405405405,4,2,1,50,1,0
618,-250,4,2,1,50,0,0
13590,-125,4,2,1,60,0,0
16023,-125,4,2,2,60,0,0
16428,-125,4,2,1,60,0,0
19266,-125,4,2,2,60,0,0
19672,-125,4,2,1,60,0,0
22509,-125,4,2,2,60,0,0
22915,-125,4,2,1,60,0,0
23726,-125,4,2,1,50,0,0
24942,375,4,2,3,60,1,0
25692,-100,4,2,1,60,0,0
26442,-100,4,2,2,70,0,0
26817,-100,4,2,1,70,0,0
27004,-100,4,2,4,70,0,0
27473,-100,4,2,4,5,0,0
27567,-100,4,2,4,70,0,0
27942,-100,4,2,2,70,0,0
28317,-100,4,2,1,70,0,0
28504,-100,4,2,3,70,0,0
28692,-100,4,2,4,70,0,0
28879,-100,4,2,1,70,0,0
29067,-100,4,2,4,70,0,0
29442,-100,4,2,2,70,0,0
29817,-100,4,2,1,70,0,0
30004,-100,4,2,5,70,0,0
30567,-100,4,2,4,70,0,0
32067,-100,4,2,2,70,0,0
32817,-100,4,2,4,70,0,0
33004,-100,4,2,3,70,0,0
33192,-100,4,2,4,70,0,0
34504,-100,4,2,5,70,0,0
35067,-100,4,2,4,70,0,0
36192,-125,4,2,4,70,0,0
36567,-125,4,2,3,70,0,0
36754,-125,4,2,4,70,0,0
37129,-125,4,2,3,70,0,0
37692,-125,4,2,4,70,0,0
37879,-125,4,2,1,70,0,0
38067,-125,4,2,6,70,0,0
38442,-100,4,2,3,70,0,0
38817,-100,4,2,1,70,0,0
39004,-100,4,2,4,70,0,0
39473,-100,4,2,4,5,0,0
39567,-100,4,2,4,70,0,0
39942,-100,4,2,2,70,0,0
40317,-100,4,2,1,70,0,0
40504,-100,4,2,4,70,0,0
41442,-100,4,2,2,70,0,0
41817,-100,4,2,1,70,0,0
42004,-100,4,2,5,70,0,0
42473,-100,4,2,5,5,0,0
42567,-100,4,2,4,70,0,0
44067,-100,4,2,2,70,0,0
44817,-100,4,2,1,70,0,0
45004,-100,4,2,4,70,0,0
45473,-100,4,2,4,5,0,0
45567,-100,4,2,4,70,0,0
46973,-100,4,2,4,5,0,0
47067,-100,4,2,4,70,0,0
48192,-125,4,2,4,70,0,0
48567,-125,4,2,3,70,0,0
48754,-125,4,2,4,70,0,0
48942,-100,4,2,4,70,0,0
49129,-100,4,2,3,70,0,0
49317,-100,4,2,1,70,0,0
49504,-100,4,2,2,70,0,0
49692,-100,4,2,1,70,0,0
49879,-100,4,2,4,70,0,0
50254,-100,4,2,2,70,0,0
50442,-100,4,2,4,50,0,0
50817,-100,4,2,1,50,0,0
53442,-100,4,2,1,60,0,0
53817,-100,4,2,4,60,0,0
54192,-100,4,2,2,60,0,0
54567,-100,4,2,4,60,0,0
54942,-125,4,2,1,70,0,0
55223,-125,4,2,1,5,0,0
55317,-100,4,2,4,70,0,0
55598,-100,4,2,4,5,0,0
55692,-83.3333333333333,4,2,2,70,0,0
55879,-83.3333333333333,4,2,2,5,0,0
56067,-83.3333333333333,4,2,4,70,0,0
56254,-83.3333333333333,4,2,4,5,0,0
56442,-83.3333333333333,4,2,1,80,0,0
56817,-83.3333333333333,4,2,1,60,0,0
57192,-166.666666666667,4,2,3,60,0,0
57754,-166.666666666667,4,2,3,5,0,0
57942,-166.666666666667,4,2,5,70,0,0
58504,-166.666666666667,4,2,5,5,0,0
58692,-100,4,2,6,80,0,0
59442,-90.9090909090909,4,2,7,85,0,1
59817,-90.9090909090909,4,2,5,85,0,1
60192,-90.9090909090909,4,2,4,85,0,1
60567,-90.9090909090909,4,2,5,85,0,1
60942,-90.9090909090909,4,2,8,85,0,1
61317,-90.9090909090909,4,2,7,85,0,1
61692,-90.9090909090909,4,2,4,85,0,1
62067,-90.9090909090909,4,2,7,85,0,1
62442,-90.9090909090909,4,2,4,85,0,1
62817,-90.9090909090909,4,2,5,85,0,1
63192,-90.9090909090909,4,2,4,85,0,1
63567,-90.9090909090909,4,2,5,85,0,1
63942,-90.9090909090909,4,2,7,85,0,1
64317,-90.9090909090909,4,2,5,85,0,1
64692,-142.857142857143,4,2,4,85,0,1
64879,-142.857142857143,4,2,4,85,0,0
65067,-142.857142857143,4,2,5,85,0,0
65348,-142.857142857143,4,2,5,5,0,0
65442,-90.909090909091,4,2,4,85,0,1
65817,-90.909090909091,4,2,7,85,0,1
66192,-90.909090909091,4,2,4,85,0,1
66567,-90.909090909091,4,2,7,85,0,1
66942,-90.909090909091,4,2,4,85,0,1
67317,-90.909090909091,4,2,5,85,0,1
68067,-90.909090909091,4,2,9,85,0,1
68442,-90.909090909091,4,2,2,85,0,1
68723,-90.909090909091,4,2,2,5,0,1
68817,-90.909090909091,4,2,5,85,0,1
69942,-90.909090909091,4,2,8,85,0,1
70129,-90.909090909091,4,2,1,85,0,1
70317,-90.909090909091,4,2,4,85,0,1
70504,-111.111111111111,4,2,1,85,0,1
70879,-111.111111111111,4,2,3,85,0,0
71348,-111.111111111111,4,2,1,85,0,0
71442,-90.9090909090908,4,2,7,85,0,1
71817,-90.9090909090908,4,2,5,85,0,1
72192,-90.9090909090908,4,2,4,85,0,1
72567,-90.9090909090908,4,2,5,85,0,1
72942,-90.9090909090908,4,2,8,85,0,1
73317,-90.9090909090908,4,2,5,85,0,1
73692,-90.9090909090908,4,2,9,85,0,1
74067,-90.9090909090908,4,2,10,85,0,1
74442,-90.9090909090908,4,2,4,85,0,1
74817,-90.9090909090908,4,2,5,85,0,1
75192,-90.9090909090908,4,2,4,85,0,1
75473,-90.9090909090908,4,2,4,5,0,1
75567,-90.9090909090908,4,2,5,85,0,1
75942,-90.9090909090908,4,2,7,85,0,1
76129,-90.9090909090908,4,2,5,85,0,1
76692,-142.857142857143,4,2,5,85,0,1
76879,-142.857142857143,4,2,5,85,0,0
77348,-142.857142857143,4,2,5,5,0,0
77442,-90.9090909090908,4,2,5,80,0,1
77817,-90.9090909090908,4,2,5,80,0,0
78192,-90.9090909090908,4,2,1,80,0,0
78942,-90.9090909090908,4,2,6,80,0,1
79317,-90.9090909090908,4,2,6,80,0,0
79692,-90.9090909090908,4,2,1,80,0,0
80442,-90.9090909090908,4,2,3,80,0,1
81192,-90.9090909090908,4,2,5,80,0,1
81754,-90.9090909090908,4,2,1,80,0,1
81942,-90.9090909090908,4,2,4,80,0,1
82317,-90.9090909090908,4,2,2,80,0,1
82504,-90.9090909090908,4,2,1,80,0,1
83254,-90.9090909090908,4,2,1,80,0,0
83442,-90.9090909090908,4,2,4,85,0,1
83817,-90.9090909090908,4,2,5,85,0,1
84192,-125,4,2,4,85,0,1
84567,-125,4,2,5,85,0,1
84942,-90.9090909090909,4,2,11,85,0,1
85317,-90.9090909090909,4,2,5,85,0,1
85692,-90.9090909090909,4,2,4,85,0,1
86067,-90.9090909090909,4,2,7,85,0,1
86442,-125,4,2,4,85,0,1
86817,-125,4,2,5,85,0,1
87004,-125,4,2,1,85,0,1
87192,-125,4,2,4,85,0,1
87567,-125,4,2,5,85,0,1
87942,-90.9090909090909,4,2,11,85,0,1
88317,-90.9090909090909,4,2,5,85,0,1
88692,-90.9090909090909,4,2,10,85,0,1
89067,-90.9090909090909,4,2,7,85,0,1
89442,-125,4,2,4,85,0,1
89817,-125,4,2,5,85,0,1
90004,-125,4,2,1,85,0,1
90192,-125,4,2,4,85,0,1
90567,-125,4,2,5,85,0,1
90942,-90.9090909090909,4,2,4,85,0,1
91317,-90.9090909090909,4,2,7,85,0,1
91692,-90.9090909090909,4,2,10,85,0,1
92067,-90.9090909090909,4,2,5,85,0,1
92254,-90.9090909090909,4,2,1,85,0,1
92442,-125,4,2,7,85,0,1
92817,-125,4,2,5,85,0,1
93942,-90.9090909090909,4,2,4,85,0,1
94317,-90.9090909090909,4,2,7,85,0,1
94692,-111.111111111111,4,2,10,85,0,1
94973,-111.111111111111,4,2,10,5,0,1
95067,-111.111111111111,4,2,4,85,0,0
95442,-99.9999999999999,4,2,12,85,0,1
96192,-99.9999999999999,4,2,12,85,0,1
96942,-99.9999999999999,4,2,13,85,0,1
97692,-99.9999999999999,4,2,13,85,0,1
98442,-99.9999999999999,4,2,12,85,0,1
99192,-99.9999999999999,4,2,12,85,0,1
99942,-99.9999999999999,4,2,13,85,0,1
100692,-99.9999999999999,4,2,13,85,0,1
101442,-99.9999999999999,4,2,12,85,0,1
102192,-99.9999999999999,4,2,12,85,0,1
102942,-99.9999999999999,4,2,13,85,0,1
103692,-99.9999999999999,4,2,14,85,0,1
104067,-99.9999999999999,4,2,15,85,0,1
104442,-99.9999999999999,4,2,14,85,0,1
104817,-99.9999999999999,4,2,15,85,0,1
105192,-125,4,2,12,85,0,1
105942,-125,4,2,13,85,0,0
106692,-125,4,2,12,85,0,0
106879,-125,4,2,13,85,0,0
107067,-125,4,2,14,85,0,0
107254,-125,4,2,15,85,0,0
107442,-90.9090909090909,4,2,7,80,0,0
107629,-90.9090909090909,4,2,3,80,0,0
107817,-90.9090909090909,4,2,4,80,0,0
108004,-90.9090909090909,4,2,5,80,0,0
108567,-90.9090909090909,4,2,1,80,0,0
108754,-90.9090909090909,4,2,3,80,0,0
108942,-90.9090909090909,4,2,1,80,0,0
109129,-90.9090909090909,4,2,3,80,0,0
109317,-90.9090909090909,4,2,4,80,0,0
109692,-111.111111111111,4,2,6,80,0,0
110067,-111.111111111111,4,2,4,80,0,0
110442,-90.9090909090908,4,2,4,80,0,0
110629,-90.9090909090908,4,2,3,80,0,0
110817,-90.9090909090908,4,2,4,80,0,0
111004,-90.9090909090908,4,2,5,80,0,0
111567,-90.9090909090908,4,2,1,80,0,0
111754,-90.9090909090908,4,2,3,80,0,0
111942,-90.9090909090908,4,2,1,80,0,0
112035,-90.9090909090908,4,2,1,5,0,0
112129,-90.9090909090908,4,2,3,80,0,0
112317,-90.9090909090908,4,2,4,80,0,0
112567,-90.9090909090908,4,2,2,80,0,0
112629,-90.9090909090908,4,2,4,80,0,0
112692,-111.111111111111,4,2,4,80,0,0
113067,-111.111111111111,4,2,3,80,0,0
113254,-111.111111111111,4,2,3,80,0,0
113442,-90.9090909090908,4,2,7,80,0,0
113629,-90.9090909090908,4,2,3,80,0,0
113817,-90.9090909090908,4,2,4,80,0,0
114004,-90.9090909090908,4,2,5,80,0,0
114567,-90.9090909090908,4,2,1,80,0,0
114754,-90.9090909090908,4,2,3,80,0,0
114942,-90.9090909090908,4,2,1,80,0,0
115035,-90.9090909090908,4,2,1,5,0,0
115129,-90.9090909090908,4,2,3,80,0,0
115317,-90.9090909090908,4,2,4,80,0,0
115692,-90.9090909090908,4,2,10,80,0,0
116254,-90.9090909090908,4,2,1,80,0,0
116442,-90.9090909090908,4,2,4,80,0,0
116629,-90.9090909090908,4,2,3,80,0,0
116817,-90.9090909090908,4,2,4,80,0,0
117004,-90.9090909090908,4,2,5,80,0,0
117660,-90.9090909090908,4,2,5,5,0,0
117754,-76.9230769230769,4,2,4,80,0,0
117848,-76.9230769230769,4,2,4,5,0,0
117942,-76.9230769230769,4,2,4,80,0,0
118129,-76.9230769230769,4,2,1,80,0,0

[Colours]
Combo1 : 255,231,157
Combo2 : 255,155,106
Combo3 : 255,85,85
Combo4 : 166,83,0

[HitObjects]
132,77,618,5,8,2:1:0:0:
154,145,1428,2,0,P|145:110|132:76,1,72,2|2,2:2|2:2,0:0:0:0:
338,138,2239,5,8,2:1:0:0:
338,138,2645,1,8,2:1:0:0:
315,206,3049,2,0,P|323:171|337:137,1,72,2|2,2:2|2:2,0:0:0:0:
220,360,3861,6,0,P|193:245|148:144,1,216,8|2,2:1|2:2,0:0:0:0:
16,24,5482,1,10,2:1:0:0:
16,24,5888,1,10,2:1:0:0:
0,159,6293,2,0,B|45:139|30:113|96:92,1,108,2|0,2:2|0:0,0:0:0:0:
256,85,7104,5,8,2:1:0:0:
256,85,7915,2,0,L|242:163,1,72,2|2,2:2|2:2,0:0:0:0:
295,220,8726,5,10,2:1:0:0:
190,42,9131,1,10,2:1:0:0:
405,38,10347,6,0,P|441:50|453:92,1,72,10|2,2:1|2:2,0:0:0:0:
507,174,11158,2,0,P|486:204|453:211,1,72,2|2,2:2|2:2,0:0:0:0:
308,123,11969,5,10,2:1:0:0:
394,282,12374,1,8,2:1:0:0:
279,384,13590,6,0,B|269:297|240:331|218:252,1,144,12|0,2:1|0:0,0:0:0:0:
225,173,14199,1,0,0:0:0:0:
370,215,14401,2,0,P|338:228|306:247,1,72,10|0,2:2|0:0,0:0:0:0:
170,344,14807,1,2,2:2:0:0:
318,146,15212,5,8,2:1:0:0:
160,117,15617,1,10,2:1:0:0:
4,88,16023,2,0,L|26:203,1,96,10|8,2:2|2:2,0:0:0:0:
32,194,16428,1,10,2:2:0:0:
267,79,16834,6,0,P|320:29|384:50,1,144,8|0,2:1|0:0,0:0:0:0:
448,91,17442,1,0,0:0:0:0:
400,189,17645,2,0,P|362:159|369:122,1,72,8|0,2:2|0:0,0:0:0:0:
459,12,18050,1,2,2:2:0:0:
502,244,18455,5,10,2:1:0:0:
333,186,18861,1,10,2:1:0:0:
181,193,19266,2,0,P|144:238|174:287,1,96,10|8,2:2|2:2,0:0:0:0:
166,277,19672,1,8,2:2:0:0:
389,353,20077,5,8,2:1:0:0:
389,353,20482,1,2,2:2:0:0:
319,271,20888,1,10,2:2:0:0:
216,291,21293,1,2,2:2:0:0:
88,384,21699,6,0,P|123:371|167:357,1,72,10|0,2:1|0:0,0:0:0:0:
216,291,22104,2,0,P|188:266|153:236,1,72,10|0,2:1|0:0,0:0:0:0:
51,194,22509,2,0,P|42:236|32:289,1,96,10|8,2:2|2:2,0:0:0:0:
21,311,22915,1,10,2:2:0:0:
256,192,23320,5,14,2:1:0:0:
325,137,23726,1,2,2:2:0:0:
301,58,24131,1,2,2:2:0:0:
227,111,24536,1,2,2:2:0:0:
413,202,24942,5,10,2:2:0:0:
114,308,25317,1,10,2:2:0:0:
364,285,25692,5,10,2:2:0:0:
161,238,25879,1,8,2:2:0:0:
318,223,26067,5,10,2:2:0:0:
213,299,26254,1,8,2:2:0:0:
39,201,26442,6,0,P|80:188|131:169,1,90,12|0,2:1|0:0,0:0:0:0:
279,138,26817,2,0,P|237:125|187:106,1,90,2|8,2:3|2:1,0:0:0:0:
71,0,27192,2,0,P|11:11|7:87,1,135,10|0,2:2|0:0,0:0:0:0:
53,123,27567,1,2,2:2:0:0:
338,85,27942,6,0,P|352:40|374:3,1,90,10|0,2:1|0:0,0:0:0:0:
183,37,28317,2,0,P|205:75|218:118,1,90,2|10,2:3|2:1,0:0:0:0:
288,266,28692,1,10,2:2:0:0:
288,266,28879,1,2,2:2:0:0:
417,231,29067,2,0,P|395:192|350:182,1,90,2|0,2:2|0:0,0:0:0:0:
158,198,29442,6,0,P|193:292|215:383,1,180,10|2,2:1|2:3,0:0:0:0:
212,369,30004,1,8,2:1:0:0:
97,325,30192,2,0,P|103:285|154:266,1,90,10|0,2:2|0:0,0:0:0:0:
309,350,30567,1,2,2:2:0:0:
309,350,30942,6,0,P|318:311|346:259,1,90,10|0,2:1|0:0,0:0:0:0:
207,176,31317,1,2,2:2:0:0:
253,254,31504,1,8,2:1:0:0:
425,257,31692,2,0,P|416:180|322:180,1,180,10|2,2:2|2:3,0:0:0:0:
33,56,32442,5,10,2:1:0:0:
54,132,32629,1,2,2:2:0:0:
133,110,32817,1,2,2:2:0:0:
111,38,33004,1,10,2:1:0:0:
48,141,33192,2,0,P|83:236|108:321,1,180,10|2,2:2|2:2,0:0:0:0:
341,235,33942,6,0,P|382:202|376:157,1,90,10|0,2:1|0:0,0:0:0:0:
299,76,34317,1,2,2:2:0:0:
299,76,34504,1,10,2:1:0:0:
210,223,34692,2,0,P|275:196|384:167,1,180,10|2,2:2|2:2,0:0:0:0:
463,155,35254,1,0,0:0:0:0:
460,319,35442,6,0,P|405:305|398:267,1,90,10|0,2:1|0:0,0:0:0:0:
284,258,35817,2,0,P|283:201|318:184,1,90,2|8,2:2|2:1,0:0:0:0:
482,85,36192,6,0,P|471:116|462:162,1,72,10|0,2:2|0:0,0:0:0:0:
394,55,36567,2,0,P|386:90|374:124,1,72,6|4,2:3|2:3,0:0:0:0:
265,336,36942,6,0,B|200:302|225:272|123:241,1,144,10|0,2:2|0:0,0:0:0:0:
58,240,37504,1,8,2:1:0:0:
128,350,37692,1,10,2:2:0:0:
128,350,37879,1,2,2:2:0:0:
290,257,38067,2,0,P|278:222|258:169,1,72,2|0,2:2|0:0,0:0:0:0:
114,20,38442,6,0,P|66:39|69:84,1,90,14|0,2:1|0:0,0:0:0:0:
0,183,38817,2,0,P|45:167|106:151,1,90,2|8,2:3|2:1,0:0:0:0:
307,100,39192,2,0,P|234:78|164:54,1,135,10|0,2:2|0:0,0:0:0:0:
114,20,39567,1,2,2:2:0:0:
219,287,39942,5,10,2:1:0:0:
305,261,40129,1,0,0:0:0:0:
280,173,40317,1,2,2:3:0:0:
191,200,40504,1,8,2:1:0:0:
315,269,40692,2,0,P|355:259|410:248,1,90,10|0,2:2|0:0,0:0:0:0:
259,366,41067,2,0,P|221:342|224:276,1,90,2|0,2:2|0:0,0:0:0:0:
314,146,41442,5,10,2:1:0:0:
314,146,41629,1,0,0:0:0:0:
398,243,41817,2,0,P|353:251|310:262,1,90,2|8,2:3|2:1,0:0:0:0:
70,126,42192,2,0,P|114:134|203:178,1,135,10|0,2:2|0:0,0:0:0:0:
247,223,42567,1,2,2:2:0:0:
24,384,42942,6,0,P|14:337|-10:289,1,90,10|0,2:1|0:0,0:0:0:0:
129,348,43317,2,0,P|110:307|101:263,1,90,2|8,2:2|2:1,0:0:0:0:
0,88,43692,2,0,P|18:163|129:159,1,180,10|2,2:2|2:3,0:0:0:0:
344,15,44442,5,10,2:1:0:0:
424,68,44629,1,0,0:0:0:0:
383,158,44817,2,0,P|340:145|288:133,1,90,2|8,2:3|2:1,0:0:0:0:
336,298,45192,2,0,P|408:277|400:216,1,135,10|0,2:2|0:0,0:0:0:0:
383,158,45567,2,0,P|340:145|288:133,1,90,2|0,2:2|0:0,0:0:0:0:
118,259,45942,6,0,P|139:305|147:356,1,90,10|0,2:1|0:0,0:0:0:0:
33,384,46317,2,0,P|13:343|4:299,1,90,2|8,2:2|2:1,0:0:0:0:
137,175,46692,2,0,B|202:203|177:230|236:264,1,135,10|0,2:2|0:0,0:0:0:0:
312,271,47067,1,2,2:2:0:0:
512,75,47442,6,0,P|468:86|415:114,1,90,10|0,2:1|0:0,0:0:0:0:
258,34,47817,2,0,P|302:45|351:82,1,90,2|8,2:2|2:1,0:0:0:0:
371,211,48192,6,0,P|336:171|350:132,1,72,10|0,2:2|0:0,0:0:0:0:
427,105,48567,2,0,P|455:125|461:160,1,72,6|4,2:3|2:3,0:0:0:0:
358,351,48942,5,10,2:2:0:0:
223,225,49129,2,0,P|134:240|138:323,1,180,10|8,2:1|2:1,0:0:0:0:
283,384,49692,5,10,2:2:0:0:
356,263,49879,1,10,2:3:0:0:
292,158,50067,1,6,2:3:0:0:
203,108,50254,1,2,2:3:0:0:
198,18,50442,1,12,2:1:0:0:
436,370,53442,5,10,2:2:0:0:
253,307,53817,1,10,2:3:0:0:
316,124,54192,1,4,2:3:0:0:
498,187,54567,1,6,2:3:0:0:
372,281,54942,6,0,B|322:259|339:233|270:211,1,108,10|0,2:2|0:0,0:0:0:0:
232,155,55317,6,0,P|175:166|169:243,1,135,10|0,2:3|0:0,0:0:0:0:
249,318,55692,6,0,P|268:261|295:197,1,107.999996704102,4|0,2:3|0:0,0:0:0:0:
28,146,56067,2,0,P|48:196|65:247,1,107.999996704102,6|0,2:3|0:0,0:0:0:0:
324,129,56442,6,0,P|329:113|337:93,1,26.9999991760254,10|0,2:2|0:0,0:0:0:0:
218,4,57192,6,0,P|261:79|280:153,1,161.999995056153,14|0,2:1|0:0,0:0:0:0:
419,63,57942,6,0,P|376:138|357:212,1,161.999995056153,14|0,2:1|0:0,0:0:0:0:
172,169,58692,6,0,P|221:255|243:340,1,180,14|0,2:1|0:0,0:0:0:0:
242,332,59254,1,0,0:0:0:0:
469,365,59442,6,0,P|501:312|395:314,1,198.000006042481,14|2,2:1|2:3,0:0:0:0:
374,370,60004,1,8,2:1:0:0:
176,326,60192,2,0,P|179:251|284:271,1,198.000006042481,10|2,2:2|2:3,0:0:0:0:
287,352,60754,1,0,0:0:0:0:
101,223,60942,5,14,2:1:0:0:
26,288,61129,1,8,2:1:0:0:
90,363,61317,1,2,2:2:0:0:
165,298,61504,1,8,2:1:0:0:
93,133,61692,6,0,P|46:149|-15:170,1,99.0000030212403,14|0,2:2|0:0,0:0:0:0:
234,221,62067,2,0,P|280:237|342:258,1,99.0000030212403,2|0,2:2|0:0,0:0:0:0:
491,90,62442,6,0,P|501:14|412:47,1,198.000006042481,14|2,2:1|2:3,0:0:0:0:
408,135,63004,1,8,2:1:0:0:
221,101,63192,2,0,P|262:56|316:79,1,99.0000030212403,10|0,2:2|0:0,0:0:0:0:
413,226,63567,2,0,P|349:213|336:163,1,99.0000030212403,2|0,2:3|0:0,0:0:0:0:
352,0,63942,5,14,2:1:0:0:
505,94,64129,2,0,P|459:112|403:138,1,99.0000030212403,8|2,2:1|2:3,0:0:0:0:
185,259,64504,5,8,2:1:0:0:
175,305,64598,1,8,2:1:0:0:
212,329,64692,1,10,2:2:0:0:
401,361,64879,2,0,B|328:325|361:297|276:253,1,157.499995193482
233,189,65442,6,0,P|189:205|183:255,1,99.0000030212403,14|0,2:1|0:0,0:0:0:0:
102,384,65817,2,0,P|151:366|216:349,1,99.0000030212403,2|0,2:2|0:0,0:0:0:0:
344,149,66192,2,0,P|426:175|420:276,1,198.000006042481,10|2,2:2|2:2,0:0:0:0:
313,276,66754,1,0,0:0:0:0:
174,116,66942,6,0,P|90:106|130:188,1,198.000006042481,14|2,2:1|2:3,0:0:0:0:
281,184,67504,1,10,2:1:0:0:
358,61,67692,2,0,P|306:64|268:113,1,99.0000030212403,14|0,2:2|0:0,0:0:0:0:
94,70,68067,2,0,P|140:78|176:123,1,99.0000030212403,10|0,2:1|0:0,0:0:0:0:
90,360,68442,6,0,P|24:353|60:284,1,148.50000453186,14|0,2:1|0:0,0:0:0:0:
62,217,68817,2,0,P|116:214|141:257,1,99.0000030212403,2|8,2:3|2:1,0:0:0:0:
317,384,69192,2,0,P|270:325|254:194,1,198.000006042481,10|2,2:2|2:3,0:0:0:0:
405,2,69754,5,8,2:1:0:0:
454,23,69848,1,8,2:1:0:0:
448,63,69942,1,14,2:2:0:0:
294,127,70129,1,10,2:2:0:0:
475,190,70317,1,6,2:3:0:0:
352,308,70504,6,0,P|322:276|328:220,1,80.9999975280763,6|0,2:2|0:0,0:0:0:0:
512,122,70879,2,0,P|495:191|478:288,1,161.999995056153,14|4,2:1|2:3,0:0:0:0:
462,371,71348,1,4,2:3:0:0:
462,371,71442,6,0,B|377:327|422:281|313:238,1,198.000006042481,14|2,2:1|2:3,0:0:0:0:
242,174,72004,1,8,2:1:0:0:
150,366,72192,2,0,P|192:347|257:334,1,99.0000030212403,10|0,2:2|0:0,0:0:0:0:
103,272,72567,2,0,P|151:261|196:241,1,99.0000030212403,2|0,2:3|0:0,0:0:0:0:
404,79,72942,5,14,2:1:0:0:
327,2,73129,1,8,2:1:0:0:
249,79,73317,1,2,2:3:0:0:
327,157,73504,1,8,2:1:0:0:
503,113,73692,2,0,P|457:101|397:77,1,99.0000030212403,14|0,2:2|0:0,0:0:0:0:
495,226,74067,2,0,P|448:208|400:195,1,99.0000030212403,10|0,2:1|0:0,0:0:0:0:
157,113,74442,6,0,P|123:48|213:71,1,198.000006042481,14|2,2:1|2:3,0:0:0:0:
256,141,75004,1,8,2:1:0:0:
122,218,75192,2,0,P|50:258|74:328,1,148.50000453186,10|0,2:2|0:0,0:0:0:0:
91,384,75567,2,0,P|136:377|157:321,1,99.0000030212403,2|0,2:3|0:0,0:0:0:0:
84,139,75942,5,14,2:1:0:0:
28,249,76129,2,0,P|69:234|133:214,1,99.0000030212403,10|2,2:1|2:3,0:0:0:0:
370,87,76504,5,8,2:1:0:0:
405,103,76598,1,8,2:1:0:0:
409,135,76692,1,10,2:2:0:0:
333,224,76879,2,0,B|263:184|291:159|215:119,1,157.499995193482
136,111,77442,5,12,2:1:0:0:
453,249,77817,1,12,2:1:0:0:
64,255,78942,5,14,2:1:0:0:
397,169,79317,1,14,2:1:0:0:
169,18,80067,5,10,2:2:0:0:
184,352,80442,6,0,P|251:352|234:224,1,198.000006042481,14|0,2:1|0:0,0:0:0:0:
115,164,81004,2,0,P|68:184|3:205,1,99.0000030212403,10|8,2:1|2:2,0:0:0:0:
266,242,81379,1,10,2:1:0:0:
296,255,81472,1,8,2:1:0:0:
327,266,81566,1,8,2:2:0:0:
167,364,81754,6,0,P|126:330|148:269,1,99.0000030212403,10|8,2:2|2:1,0:0:0:0:
243,145,82129,1,10,2:3:0:0:
340,170,82317,1,4,2:3:0:0:
440,197,82504,1,4,2:3:0:0:
269,273,82692,6,0,L|210:293,1,49.5000015106202,10|0,2:2|0:0,0:0:0:0:
427,384,82879,1,8,2:2:0:0:
462,366,82973,1,8,2:2:0:0:
475,328,83067,1,10,2:2:0:0:
456,293,83160,1,8,2:2:0:0:
422,271,83254,1,8,2:2:0:0:
383,280,83348,1,8,2:2:0:0:
360,311,83442,6,0,P|445:272|418:163,1,198.000006042481,14|2,2:1|2:3,0:0:0:0:
351,133,84004,1,0,0:0:0:0:
222,288,84192,6,0,P|156:310|181:207,1,216,14|0,2:2|0:0,0:0:0:0:
351,133,84942,1,14,2:1:0:0:
437,251,85129,2,0,P|398:236|330:219,1,99.0000030212403,8|2,2:1|2:3,0:0:0:0:
107,141,85504,5,8,2:1:0:0:
107,141,85598,1,8,2:1:0:0:
107,141,85692,1,14,2:2:0:0:
158,43,85879,2,0,P|223:28|208:128,1,198.000006042481
58,267,86442,6,0,P|7:311|105:328,1,216,14|2,2:1|2:2,0:0:0:0:
259,214,87192,2,0,P|194:228|209:306,1,144,14|2,2:2|2:3,0:0:0:0:
272,367,87754,1,0,0:0:0:0:
446,238,87942,5,14,2:1:0:0:
497,342,88129,2,0,P|455:327|396:309,1,99.0000030212403,8|2,2:1|2:3,0:0:0:0:
185,255,88504,5,8,2:1:0:0:
185,255,88598,1,8,2:1:0:0:
185,255,88692,1,14,2:2:0:0:
306,192,88879,2,0,P|280:287|257:390,1,198.000006042481
61,198,89442,6,0,P|15:160|115:148,1,216,14|2,2:1|2:2,0:0:0:0:
309,98,90192,2,0,P|244:108|225:194,1,144,14|2,2:2|2:3,0:0:0:0:
288,255,90754,1,0,0:0:0:0:
498,176,90942,6,0,P|453:162|392:137,1,99.0000030212403,14|8,2:1|2:1,0:0:0:0:
147,145,91317,2,0,P|192:131|253:106,1,99.0000030212403,2|0,2:2|0:0,0:0:0:0:
360,0,91692,2,0,P|328:136|314:209,1,198.000006042481,14|2,2:2|2:3,0:0:0:0:
301,274,92254,1,2,2:2:0:0:
488,373,92442,6,0,P|516:326|408:322,1,216,14|0,2:1|0:0,0:0:0:0:
199,384,93192,2,0,P|280:370|303:250,1,216,10|0,2:2|0:0,0:0:0:0:
120,112,93942,6,0,P|76:131|18:152,1,99.0000030212403,14|8,2:1|2:1,0:0:0:0:
267,150,94317,2,0,P|310:169|369:190,1,99.0000030212403,2|8,2:2|2:1,0:0:0:0:
123,324,94692,2,0,P|134:275|160:196,1,121.499996292114,14|0,2:2|0:0,0:0:0:0:
195,127,95067,1,6,2:3:0:0:
488,230,95442,5,14,2:1:0:0:
453,312,95629,1,0,0:0:0:0:
363,301,95817,2,0,P|374:256|392:205,1,90
245,38,96192,5,14,2:2:0:0:
169,85,96379,1,0,0:0:0:0:
193,170,96567,2,0,P|230:150|288:129,1,90
498,34,96942,5,14,2:1:0:0:
492,149,97129,2,0,B|412:101|453:64|348:23,1,180,8|8,2:1|2:1,0:0:0:0:
154,8,97692,6,0,P|171:58|189:115,1,90,10|0,2:2|0:0,0:0:0:0:
375,204,98067,2,0,P|360:161|346:118,1,90,0|8,0:0|2:1,0:0:0:0:
128,212,98442,5,14,2:1:0:0:
107,299,98629,1,0,0:0:0:0:
194,321,98817,1,0,0:0:0:0:
218,236,99004,1,0,0:0:0:0:
122,203,99192,5,14,2:2:0:0:
98,304,99379,1,0,0:0:0:0:
199,329,99567,1,0,0:0:0:0:
226,231,99754,1,0,0:0:0:0:
39,107,99942,5,14,2:1:0:0:
2,209,100129,2,0,P|85:175|179:144,1,180,8|8,2:1|2:1,0:0:0:0:
360,17,100692,6,0,P|412:43|408:88,1,90,10|8,2:2|2:1,0:0:0:0:
466,182,101067,2,0,P|428:165|375:146,1,90,0|8,0:0|2:1,0:0:0:0:
161,44,101442,5,14,2:1:0:0:
84,105,101629,1,0,0:0:0:0:
109,200,101817,2,0,P|153:184|168:147,1,90
328,0,102192,5,14,2:2:0:0:
405,61,102379,1,0,0:0:0:0:
380,156,102567,2,0,P|336:140|321:103,1,90
155,43,102942,5,14,2:1:0:0:
78,104,103129,1,8,2:1:0:0:
103,199,103317,2,0,P|147:183|162:146,1,90,0|8,0:0|2:1,0:0:0:0:
9,0,103692,5,14,2:2:0:0:
315,108,104067,1,2,2:2:0:0:
211,176,104254,1,8,2:1:0:0:
331,110,104442,6,0,P|411:128|391:226,1,180,14|2,2:1|2:2,0:0:0:0:
408,212,105004,1,10,2:1:0:0:
283,378,105192,6,0,P|258:286|205:164,1,216,10|8,2:2|2:1,0:0:0:0:
149,93,105848,1,8,2:1:0:0:
149,93,105942,6,0,P|81:89|119:188,1,216,10|0,2:2|0:0,0:0:0:0:
323,181,106692,5,10,2:3:0:0:
156,266,106879,1,8,2:3:0:0:
366,252,107067,5,14,2:3:0:0:
200,187,107254,1,12,2:3:0:0:
250,384,107442,6,0,P|263:333|279:281,1,99.0000030212403,14|10,2:1|2:1,0:0:0:0:
139,90,107817,2,0,P|125:140|110:193,1,99.0000030212403,10|10,2:1|2:1,0:0:0:0:
43,384,108192,6,0,P|-4:352|11:301,1,99.0000030212403,10|10,2:2|2:1,0:0:0:0:
112,185,108567,1,2,2:3:0:0:
195,339,108754,2,0,P|150:324|96:307,1,99.0000030212403,10|2,2:1|2:3,0:0:0:0:
336,262,109129,1,10,2:1:0:0:
336,262,109317,2,0,P|380:247|435:230,1,99.0000030212403,10|0,2:1|0:0,0:0:0:0:
293,384,109692,6,0,P|272:317|231:201,1,161.999995056153,14|2,2:3|2:2,0:0:0:0:
70,13,110442,5,14,2:1:0:0:
0,70,110629,1,10,2:1:0:0:
31,151,110817,1,10,2:1:0:0:
190,143,111004,2,0,P|159:108|95:103,1,99.0000030212403,10|10,2:1|2:2,0:0:0:0:
11,250,111379,2,0,P|50:232|104:216,1,99.0000030212403,10|2,2:1|2:3,0:0:0:0:
308,203,111754,6,0,P|379:217|363:293,1,148.50000453186,10|0,2:1|0:0,0:0:0:0:
346,351,112129,1,10,2:1:0:0:
198,262,112317,1,10,2:1:0:0:
182,361,112504,2,0,P|200:352|233:340,2,33.0000010070801,8|4|4,2:3|2:3|2:3,0:0:0:0:
104,346,112692,6,0,P|77:273|41:188,1,161.999995056153,10|10,2:2|2:3,0:0:0:0:
288,26,113442,5,14,2:1:0:0:
321,108,113629,1,10,2:1:0:0:
238,142,113817,1,10,2:1:0:0:
204,58,114004,1,10,2:1:0:0:
336,115,114192,5,10,2:2:0:0:
336,115,114379,2,0,P|324:153|309:210,1,99.0000030212403,10|2,2:1|2:3,0:0:0:0:
214,367,114754,2,0,P|152:332|176:263,1,148.50000453186,10|0,2:1|0:0,0:0:0:0:
230,219,115129,1,10,2:1:0:0:
350,331,115317,2,0,P|299:318|285:267,1,99.0000030212403,10|0,2:1|0:0,0:0:0:0:
336,115,115692,5,14,2:2:0:0:
336,115,115879,1,8,2:1:0:0:
415,177,116067,5,10,2:2:0:0:
243,104,116254,1,10,2:2:0:0:
446,0,116442,5,14,2:1:0:0:
446,0,116629,2,0,P|434:41|420:102,1,99.0000030212403,10|14,2:1|2:1,0:0:0:0:
450,259,117004,2,0,P|493:244|496:193,1,99.0000030212403,10|10,2:1|2:2,0:0:0:0:
286,200,117379,2,0,B|212:223|237:262|152:292,1,148.50000453186,10|0,2:1|0:0,0:0:0:0:
90,183,117754,6,0,P|118:192|155:208,1,58.4999973220826,14|0,2:2|0:0,0:0:0:0:
332,280,118129,5,10,2:2:0:0:
121,384,118317,1,10,2:2:0:0:
