osu file format v14

[General]
AudioFilename: audio.mp3
AudioLeadIn: 0
PreviewTime:56639
Countdown: 0
SampleSet: None
StackLeniency: 0.7
Mode: 1
LetterboxInBreaks: 0
WidescreenStoryboard: 1

[Editor]
DistanceSpacing: 0.9
BeatDivisor: 4
GridSize: 32
TimelineZoom: 0.9

[Metadata]
Title:The Rumbling (TV Size)
TitleUnicode:The Rumbling (TV Size)
Artist:SiM
ArtistUnicode:SiM
Creator:Hivie
Version:Futsuu
Source:Attack on Titan The Final Season Part 2
Tags:進撃の巨人 nokashi radar aot alternative metal english anime shingeki no kyojin snk opening op MAH show-hate sin godri シン ゴリ マー ショウヘイト PONY CANYON INC season 4 four
BeatmapID:3431705
BeatmapSetID:1679783

[Difficulty]
HPDrainRate:7
CircleSize:2
OverallDifficulty:4
ApproachRate:9
SliderMultiplier:1.4
SliderTickRate:1

[Events]
//Background and Video events
0,0,"itscoming.jpg",0,0
Video,450,"output.mp4"
//Break Periods
//Storyboard Layer 0 (Background)
//Storyboard Layer 1 (Fail)
//Storyboard Layer 2 (Pass)
//Storyboard Layer 3 (Foreground)
//Storyboard Layer 4 (Overlay)
//Storyboard Sound Samples

[TimingPoints]
829,413.793103448276,4,1,0,100,1,0
57104,-100,4,1,0,100,0,1
83587,-100,4,1,0,100,0,0

[HitObjects]
256,96,829,5,4,0:0:0:0:
256,192,3725,1,8,0:0:0:0:
256,96,4139,1,4,0:0:0:0:
256,96,4553,1,4,0:0:0:0:
256,96,5794,1,12,0:0:0:0:
256,192,7035,1,0,0:0:0:0:
256,96,7449,1,12,0:0:0:0:
256,192,7863,1,0,0:0:0:0:
256,192,8277,1,8,0:0:0:0:
256,192,8484,1,0,0:0:0:0:
256,192,9104,1,8,0:0:0:0:
256,192,9518,1,0,0:0:0:0:
256,192,9932,1,8,0:0:0:0:
256,192,10139,1,0,0:0:0:0:
256,192,10346,1,0,0:0:0:0:
256,192,10760,1,8,0:0:0:0:
256,192,11173,1,0,0:0:0:0:
256,192,11587,1,8,0:0:0:0:
256,192,11794,1,0,0:0:0:0:
256,192,12415,1,8,0:0:0:0:
256,192,12622,1,0,0:0:0:0:
256,192,12829,1,0,0:0:0:0:
256,192,13242,1,8,0:0:0:0:
256,192,13553,1,8,0:0:0:0:
256,192,13863,1,0,0:0:0:0:
256,96,14070,1,12,0:0:0:0:
256,192,14898,1,8,0:0:0:0:
256,192,15105,1,0,0:0:0:0:
256,192,15725,1,8,0:0:0:0:
256,192,15932,1,0,0:0:0:0:
256,192,16139,1,0,0:0:0:0:
256,192,16553,1,8,0:0:0:0:
256,192,16967,1,0,0:0:0:0:
256,192,17380,1,8,0:0:0:0:
256,192,17587,1,8,0:0:0:0:
256,192,17794,1,0,0:0:0:0:
256,192,18208,1,8,0:0:0:0:
256,192,18415,1,0,0:0:0:0:
256,192,19035,1,8,0:0:0:0:
256,192,19242,1,8,0:0:0:0:
256,96,19863,1,12,0:0:0:0:
256,192,20277,1,0,0:0:0:0:
256,192,20484,1,0,0:0:0:0:
256,96,20691,1,12,0:0:0:0:
256,192,21518,1,8,0:0:0:0:
256,192,21932,1,0,0:0:0:0:
256,192,22139,1,8,0:0:0:0:
256,192,22553,1,0,0:0:0:0:
256,192,22760,1,0,0:0:0:0:
256,192,23173,1,8,0:0:0:0:
256,192,23587,1,8,0:0:0:0:
256,192,23794,1,8,0:0:0:0:
256,192,24001,1,0,0:0:0:0:
256,192,24414,1,8,0:0:0:0:
256,192,24828,1,0,0:0:0:0:
256,192,25242,1,8,0:0:0:0:
256,192,25449,1,0,0:0:0:0:
256,192,26070,1,8,0:0:0:0:
256,192,26483,1,0,0:0:0:0:
256,96,26897,1,12,0:0:0:0:
256,96,27311,1,4,0:0:0:0:
256,192,27932,1,8,0:0:0:0:
256,192,28346,1,0,0:0:0:0:
256,192,28553,1,8,0:0:0:0:
256,192,28760,1,0,0:0:0:0:
256,192,28966,1,12,0:0:0:0:
256,192,29588,1,8,0:0:0:0:
256,96,30001,1,12,0:0:0:0:
256,96,30622,1,4,0:0:0:0:
256,192,31449,1,0,0:0:0:0:
256,192,31863,1,0,0:0:0:0:
256,192,32070,1,8,0:0:0:0:
256,192,32484,1,0,0:0:0:0:
256,192,32691,1,8,0:0:0:0:
256,192,33104,1,8,0:0:0:0:
256,192,33518,1,0,0:0:0:0:
256,192,33725,1,8,0:0:0:0:
256,192,33932,1,0,0:0:0:0:
256,192,34345,1,8,0:0:0:0:
256,192,34760,1,0,0:0:0:0:
256,192,35173,1,0,0:0:0:0:
256,192,35380,1,8,0:0:0:0:
256,192,36001,1,0,0:0:0:0:
256,192,36414,1,8,0:0:0:0:
256,96,36828,1,12,0:0:0:0:
256,96,37242,1,4,0:0:0:0:
256,192,37863,1,8,0:0:0:0:
256,192,38277,1,8,0:0:0:0:
256,192,38484,1,0,0:0:0:0:
256,192,38691,1,0,0:0:0:0:
256,192,38897,1,12,0:0:0:0:
256,192,39519,1,0,0:0:0:0:
256,192,39725,1,8,0:0:0:0:
256,192,39932,1,8,0:0:0:0:
256,192,40139,1,8,0:0:0:0:
256,192,40346,1,8,0:0:0:0:
256,96,40553,1,4,0:0:0:0:
256,192,41380,1,8,0:0:0:0:
256,192,41587,1,0,0:0:0:0:
256,192,42208,1,8,0:0:0:0:
256,192,42415,1,0,0:0:0:0:
256,192,42622,1,0,0:0:0:0:
256,192,43036,1,8,0:0:0:0:
256,192,43450,1,0,0:0:0:0:
256,192,43864,1,8,0:0:0:0:
256,192,44070,1,8,0:0:0:0:
256,192,44277,1,0,0:0:0:0:
256,192,44691,1,8,0:0:0:0:
256,192,44898,1,0,0:0:0:0:
256,192,45518,1,8,0:0:0:0:
256,192,45726,1,8,0:0:0:0:
256,192,46346,1,8,0:0:0:0:
256,192,46553,1,8,0:0:0:0:
256,96,47173,1,4,0:0:0:0:
256,192,48001,1,8,0:0:0:0:
256,192,48208,1,0,0:0:0:0:
256,192,48828,1,8,0:0:0:0:
256,192,49035,1,0,0:0:0:0:
256,192,49242,1,8,0:0:0:0:
256,192,49656,1,8,0:0:0:0:
256,192,50070,1,0,0:0:0:0:
256,192,50484,1,8,0:0:0:0:
256,192,50690,1,8,0:0:0:0:
256,192,50897,1,0,0:0:0:0:
256,192,51311,1,8,0:0:0:0:
256,192,51518,1,0,0:0:0:0:
256,192,52139,1,8,0:0:0:0:
256,192,52346,1,8,0:0:0:0:
256,96,52966,1,12,0:0:0:0:
256,192,53380,1,0,0:0:0:0:
256,192,53587,1,0,0:0:0:0:
256,96,53794,1,12,0:0:0:0:
256,192,54208,1,0,0:0:0:0:
256,192,54622,1,0,0:0:0:0:
256,192,55035,1,0,0:0:0:0:
256,192,55449,1,8,0:0:0:0:
256,192,55863,1,8,0:0:0:0:
256,192,56070,1,8,0:0:0:0:
256,96,57104,1,12,0:0:0:0:
256,192,57932,1,0,0:0:0:0:
256,192,58346,1,8,0:0:0:0:
256,192,58760,1,0,0:0:0:0:
256,192,59380,1,8,0:0:0:0:
256,192,59587,1,8,0:0:0:0:
256,192,60001,1,0,0:0:0:0:
256,96,60415,1,12,0:0:0:0:
256,192,60829,1,8,0:0:0:0:
256,192,61242,1,0,0:0:0:0:
256,192,61449,1,0,0:0:0:0:
256,192,61656,1,8,0:0:0:0:
256,192,62070,1,0,0:0:0:0:
256,192,62277,1,8,0:0:0:0:
256,192,62691,1,0,0:0:0:0:
256,192,62897,1,8,0:0:0:0:
256,192,63311,1,0,0:0:0:0:
256,96,63725,1,12,0:0:0:0:
256,192,64553,1,8,0:0:0:0:
256,192,64967,1,0,0:0:0:0:
256,192,65381,1,8,0:0:0:0:
256,192,66001,1,8,0:0:0:0:
256,192,66208,1,0,0:0:0:0:
256,192,66622,1,0,0:0:0:0:
256,96,67035,1,12,0:0:0:0:
256,192,67863,1,8,0:0:0:0:
256,192,68484,1,0,0:0:0:0:
256,192,68691,1,0,0:0:0:0:
256,192,69104,1,0,0:0:0:0:
256,192,69518,1,8,0:0:0:0:
256,192,69725,1,0,0:0:0:0:
256,192,69932,1,8,0:0:0:0:
256,192,70139,1,8,0:0:0:0:
256,96,70346,1,4,0:0:0:0:
256,192,71173,1,8,0:0:0:0:
256,192,71587,1,0,0:0:0:0:
256,192,72001,1,8,0:0:0:0:
256,192,72621,1,8,0:0:0:0:
256,192,72829,1,0,0:0:0:0:
256,192,73242,1,0,0:0:0:0:
256,96,73656,1,12,0:0:0:0:
256,192,74276,1,8,0:0:0:0:
256,192,74484,1,8,0:0:0:0:
256,192,74690,1,0,0:0:0:0:
256,192,74897,1,8,0:0:0:0:
256,192,75311,1,0,0:0:0:0:
256,192,75518,1,8,0:0:0:0:
256,192,75932,1,0,0:0:0:0:
256,192,76138,1,8,0:0:0:0:
256,192,76552,1,0,0:0:0:0:
256,96,76966,1,12,0:0:0:0:
256,192,77794,1,8,0:0:0:0:
256,192,78208,1,0,0:0:0:0:
256,192,78415,1,0,0:0:0:0:
256,192,79035,1,8,0:0:0:0:
256,192,79449,1,0,0:0:0:0:
256,192,79863,1,8,0:0:0:0:
256,96,80277,1,12,0:0:0:0:
256,192,80897,1,0,0:0:0:0:
256,192,81104,1,8,0:0:0:0:
256,192,81518,1,8,0:0:0:0:
256,96,81932,1,12,0:0:0:0:
256,96,82242,1,12,0:0:0:0:
256,96,82553,1,12,0:0:0:0:
256,192,83173,1,0,0:0:0:0:
256,96,83587,1,12,0:0:0:0:
256,192,84415,1,8,0:0:0:0:
256,192,84622,1,0,0:0:0:0:
256,192,85242,1,8,0:0:0:0:
256,192,85449,1,0,0:0:0:0:
256,192,85656,1,0,0:0:0:0:
256,192,86070,1,8,0:0:0:0:
256,192,86484,1,0,0:0:0:0:
256,192,86898,1,8,0:0:0:0:
256,192,87104,1,8,0:0:0:0:
256,192,87311,1,0,0:0:0:0:
256,192,87725,1,8,0:0:0:0:
256,192,87932,1,0,0:0:0:0:
256,192,88553,1,8,0:0:0:0:
256,192,88760,1,8,0:0:0:0:
256,192,88966,1,8,0:0:0:0:
