osu file format v14

[General]
AudioFilename: audio.mp3
AudioLeadIn: 0
PreviewTime: 56587
Countdown: 0
SampleSet: Soft
StackLeniency: 0.7
Mode: 0
LetterboxInBreaks: 0
WidescreenStoryboard: 1

[Editor]
Bookmarks: 20691,40553,57104,70346,83587
DistanceSpacing: 1
BeatDivisor: 4
GridSize: 32
TimelineZoom: 1

[Metadata]
Title:The Rumbling (TV Size)
TitleUnicode:The Rumbling (TV Size)
Artist:SiM
ArtistUnicode:SiM
Creator:Blitzifyyy
Version:BLITZPACHI'S NORMAL
Source:「進撃の巨人」The Final Season Part 2
Tags:washedup player [-evil-] wanpachi cycopton aot alternative metal english anime attack on titan shingeki no kyojin snk opening op MAH show-hate sin godri シン ゴリ マー ショウヘイト PONY CANYON INC
BeatmapID:3414551
BeatmapSetID:1670899

[Difficulty]
HPDrainRate:4
CircleSize:3.2
OverallDifficulty:4.5
ApproachRate:6
SliderMultiplier:1.2
SliderTickRate:1

[Events]
//Background and Video events
0,0,"itscoming.jpg",0,0
Video,450,"rumble.mp4"
//Break Periods
//Storyboard Layer 0 (Background)
//Storyboard Layer 1 (Fail)
//Storyboard Layer 2 (Pass)
//Storyboard Layer 3 (Foreground)
//Storyboard Layer 4 (Overlay)
//Storyboard Sound Samples

[TimingPoints]
829,413.793103448276,4,2,1,55,1,0
829,-111.111111111111,4,2,1,55,0,0
7449,-100,4,2,1,75,0,0
20691,-111.111111111111,4,2,1,55,0,0
26897,-111.111111111111,4,2,1,65,0,0
27311,-100,4,2,1,75,0,0
30622,-111.111111111111,4,2,1,55,0,0
36829,-111.111111111111,4,2,1,65,0,0
37242,-100,4,2,1,75,0,0
40553,-100,4,2,1,65,0,0
57104,-90.9090909090909,4,2,1,85,0,1
70242,-90.9090909090909,4,2,1,85,0,0
70346,-90.9090909090909,4,2,1,85,0,1
83587,-100,4,2,1,75,0,0

[Colours]
Combo1 : 192,192,192
Combo2 : 98,98,98
Combo3 : 0,164,0
Combo4 : 23,130,204

[HitObjects]
48,92,829,5,6,1:2:0:0:
256,32,3725,5,2,0:0:0:0:
320,131,4139,1,10,3:2:0:0:
320,131,4346,1,8,3:2:0:0:
320,131,4553,1,10,3:2:0:0:
256,352,5794,6,0,L|248:232,1,107.999996704102,6|0,1:2|0:0,0:0:0:0:
161,179,6622,2,0,B|144:129|192:99|192:99|206:103,1,107.999996704102,0|10,0:0|3:2,0:0:0:0:
317,148,7449,5,6,1:2:0:0:
376,141,7656,1,4,1:2:0:0:
435,134,7863,1,6,1:2:0:0:
486,242,8277,1,10,0:0:0:0:
468,299,8484,2,0,P|403:313|381:265,1,120,0|0,1:2|1:2,0:0:0:0:
337,232,9104,6,0,L|264:243,1,60,2|0,1:2|1:2,0:0:0:0:
217,249,9518,1,2,1:2:0:0:
106,202,9932,2,0,B|96:173|96:173|106:134,1,60,10|0,0:0|1:2,0:0:0:0:
127,89,10346,1,2,1:2:0:0:
232,31,10760,5,6,1:2:0:0:
279,66,10966,1,4,1:2:0:0:
299,122,11173,1,6,1:2:0:0:
216,209,11587,1,10,0:0:0:0:
191,263,11794,2,0,B|170:321|170:321|214:369,1,120,0|0,1:2|1:2,0:0:0:0:
269,372,12415,5,2,1:2:0:0:
323,346,12622,2,0,L|394:354,1,60,0|2,1:2|1:2,0:0:0:0:
490,299,13242,2,0,P|506:263|476:212,2,90,10|2|2,0:0|0:0|0:0,0:0:0:0:
436,328,14070,5,6,1:2:0:0:
382,352,14277,1,4,1:2:0:0:
327,326,14484,1,4,1:2:0:0:
262,225,14897,1,10,0:0:0:0:
287,170,15104,2,0,B|283:123|283:123|271:103|271:103|263:48,1,120,0|0,1:2|1:2,0:0:0:0:
209,26,15725,6,0,P|178:43|138:50,1,60,2|0,1:2|1:2,0:0:0:0:
97,27,16139,1,0,1:2:0:0:
35,130,16553,2,0,L|46:204,1,60,10|0,0:0|1:2,0:0:0:0:
61,246,16966,1,0,1:2:0:0:
121,349,17380,5,6,1:2:0:0:
180,359,17587,1,4,1:2:0:0:
213,309,17794,1,4,1:2:0:0:
320,263,18208,1,10,0:0:0:0:
364,303,18415,2,0,P|425:314|472:271,1,120,0|0,1:2|1:2,0:0:0:0:
488,223,19035,5,10,0:0:0:0:
459,170,19242,1,8,0:0:0:0:
365,94,19656,1,0,1:2:0:0:
306,109,19863,2,0,L|232:123,1,60,10|0,0:0|3:0,0:0:0:0:
202,160,20277,1,0,3:0:0:0:
105,110,20691,6,0,P|95:81|110:48,1,53.9999983520508,6|2,1:2|0:0,0:0:0:0:
141,23,21104,2,0,L|197:26,1,53.9999983520508,2|2,0:0|1:2,0:0:0:0:
244,47,21518,2,0,L|309:43,2,53.9999983520508,10|2|2,0:0|0:0|1:2,0:0:0:0:
204,83,22139,1,2,0:0:0:0:
124,156,22553,5,2,1:2:0:0:
124,156,22760,2,0,P|114:195|122:224,1,53.9999983520508,2|0,0:0|1:2,0:0:0:0:
152,247,23173,2,0,P|162:286|154:315,1,53.9999983520508,10|0,0:0|1:2,0:0:0:0:
125,340,23587,1,10,0:0:0:0:
231,357,24001,6,0,L|292:356,1,53.9999983520508,0|2,1:2|0:0,0:0:0:0:
327,322,24415,2,0,L|388:323,1,53.9999983520508,2|2,0:0|1:2,0:0:0:0:
430,345,24829,2,0,B|408:308|408:308|424:228,1,107.999996704102,10|2,0:0|1:2,0:0:0:0:
453,201,25449,6,0,B|395:207|413:160|341:161,1,107.999996704102,2|2,0:0|1:2,0:0:0:0:
306,184,26070,1,2,1:2:0:0:
236,101,26484,1,8,0:0:0:0:
294,10,26897,1,10,0:0:0:0:
394,75,27311,6,0,P|410:110|397:163,2,90,14|12|12,0:0|0:0|0:0,0:0:0:0:
294,10,28346,2,0,L|228:15,1,60,8|8,0:0|0:0,0:0:0:0:
178,36,28760,1,0,1:2:0:0:
133,75,28966,6,0,B|96:73|96:73|83:81|83:81|37:78,2,90,12|12|12,0:0|0:0|0:0,0:0:0:0:
173,119,29794,1,8,0:0:0:0:
199,172,30001,2,0,P|211:212|200:239,1,60,4|8,1:2|0:0,0:0:0:0:
138,313,30622,6,0,L|75:312,1,53.9999983520508,6|2,1:2|0:0,0:0:0:0:
34,290,31035,2,0,P|19:250|26:225,1,53.9999983520508,2|2,0:0|1:2,0:0:0:0:
52,196,31449,1,10,0:0:0:0:
52,196,31656,2,0,P|67:156|60:131,1,53.9999983520508,2|2,0:0|1:2,0:0:0:0:
32,102,32070,1,2,0:0:0:0:
119,38,32484,5,2,1:2:0:0:
119,38,32691,2,0,L|183:41,1,53.9999983520508,2|0,0:0|1:2,0:0:0:0:
218,69,33104,2,0,L|282:66,1,53.9999983520508,10|0,0:0|1:2,0:0:0:0:
319,40,33518,1,10,0:0:0:0:
402,108,33932,6,0,B|410:141|410:141|399:177,1,53.9999983520508,0|2,1:2|0:0,0:0:0:0:
365,198,34346,2,0,B|357:231|357:231|368:267,1,53.9999983520508,2|2,0:0|1:2,0:0:0:0:
401,288,34760,2,0,L|285:285,1,107.999996704102,10|2,0:0|1:2,0:0:0:0:
244,261,35380,6,0,P|214:208|241:154,1,107.999996704102,2|2,0:0|1:2,0:0:0:0:
270,132,36001,1,2,1:2:0:0:
192,57,36415,1,8,0:0:0:0:
103,119,36829,1,10,0:0:0:0:
170,218,37242,6,0,B|186:263|186:263|165:317,2,90,14|12|12,0:0|0:0|0:0,0:0:0:0:
103,119,38277,2,0,P|95:86|107:52,1,60,8|8,0:0|0:0,0:0:0:0:
148,23,38691,1,0,1:2:0:0:
206,8,38897,6,0,L|305:14,1,90,12|12,0:0|0:0,0:0:0:0:
369,64,39518,1,12,0:0:0:0:
420,94,39725,2,0,L|422:166,1,60,8|8,0:0|1:2,0:0:0:0:
459,201,40139,2,0,L|457:273,1,60,8|8,0:0|0:0,0:0:0:0:
409,297,40553,5,4,1:2:0:0:
352,277,40760,1,4,1:2:0:0:
297,302,40966,1,4,1:2:0:0:
229,202,41380,1,10,0:2:0:0:
272,161,41587,2,0,P|262:85|206:61,1,120,0|0,1:2|1:2,0:0:0:0:
169,56,42208,6,0,L|100:68,1,60,2|2,1:2|1:2,0:0:0:0:
50,74,42622,1,2,1:2:0:0:
24,191,43035,2,0,B|35:220|35:220|24:275,1,60,10|0,0:2|1:2,0:0:0:0:
9,305,43449,1,2,1:2:0:0:
113,364,43863,5,4,1:2:0:0:
172,357,44070,1,4,1:2:0:0:
231,350,44277,1,4,1:2:0:0:
319,268,44691,1,10,0:2:0:0:
372,294,44897,2,0,B|423:289|423:289|438:276|438:276|500:268,1,120,0|0,1:2|1:2,0:0:0:0:
511,214,45518,5,4,1:2:0:0:
482,161,45725,1,4,1:2:0:0:
384,91,46139,1,0,1:2:0:0:
326,107,46346,2,0,P|289:116|258:132,1,60,10|8,0:2|0:2,0:0:0:0:
230,171,46760,2,0,P|219:207|217:242,1,60,2|0,0:0|1:2,0:0:0:0:
227,288,47173,5,4,1:2:0:0:
201,342,47380,1,4,1:2:0:0:
144,362,47587,1,6,1:2:0:0:
44,294,48001,1,10,0:2:0:0:
77,244,48208,2,0,B|106:190|106:190|74:122,1,120,0|0,1:2|1:2,0:0:0:0:
47,86,48829,6,0,P|54:56|64:13,1,60,2|2,1:2|1:2,0:0:0:0:
119,15,49242,1,2,1:2:0:0:
211,91,49656,2,0,B|246:94|246:94|280:82,1,60,10|0,0:2|1:2,0:0:0:0:
316,48,50070,1,0,1:2:0:0:
418,110,50484,5,4,1:2:0:0:
429,168,50691,1,4,1:2:0:0:
440,226,50897,1,6,1:2:0:0:
357,313,51311,1,10,0:2:0:0:
307,279,51518,2,0,P|250:282|196:334,1,120,2|0,1:2|1:2,0:0:0:0:
166,369,52139,5,14,0:2:0:0:
109,349,52346,1,8,0:2:0:0:
40,250,52760,1,0,1:2:0:0:
73,200,52966,2,0,L|66:135,1,60,14|0,0:2|3:0,0:0:0:0:
107,95,53380,2,0,L|100:30,1,60,0|0,3:0|1:2,0:0:0:0:
51,0,53794,5,12,0:2:0:0:
256,192,54001,12,8,56070,1:2:0:0:
51,379,57104,6,0,P|24:346|25:306,1,66.0000020141602,4|0,1:2|0:0,0:0:0:0:
33,258,57518,1,2,0:0:0:0:
88,222,57725,2,0,B|149:222|149:222|182:233|182:233|239:234,1,132.00000402832,2|0,1:2|0:0,0:0:0:0:
339,181,58553,1,0,1:0:0:0:
386,135,58760,6,0,P|372:92|400:35,2,99.0000030212403,6|0|2,1:2|0:0|1:2,0:0:0:0:
434,180,59587,2,0,P|448:222|441:249,1,66.0000020141602,8|0,0:0|1:2,0:0:0:0:
405,296,60001,1,0,0:0:0:0:
282,345,60415,6,0,P|268:303|275:276,1,66.0000020141602,6|2,1:2|0:0,0:0:0:0:
316,232,60829,2,0,P|330:190|323:163,1,66.0000020141602,2|2,0:0|1:2,0:0:0:0:
272,131,61242,2,0,L|199:133,1,66.0000020141602,10|2,0:0|0:0,0:0:0:0:
139,136,61656,1,2,0:0:0:0:
40,224,62070,5,0,1:2:0:0:
4,279,62277,2,0,B|45:256|45:256|128:281,1,132.00000402832,8|0,0:0|1:2,0:0:0:0:
182,314,62897,2,0,L|256:310,1,66.0000020141602,8|0,0:0|1:2,0:0:0:0:
308,283,63311,1,2,3:2:0:0:
215,188,63725,6,0,B|187:126|187:126|216:58,1,132.00000402832,6|2,1:2|0:0,0:0:0:0:
257,18,64346,1,2,1:2:0:0:
321,30,64553,2,0,L|390:28,1,66.0000020141602,8|0,0:0|0:0,0:0:0:0:
452,17,64966,1,0,0:0:0:0:
500,139,65380,6,0,B|521:179|495:212|495:212|469:232|473:276,1,132.00000402832,6|2,1:2|0:0,0:0:0:0:
479,325,66001,1,2,1:2:0:0:
431,371,66208,2,0,P|398:372|367:361,1,66.0000020141602,8|0,0:0|1:2,0:0:0:0:
328,307,66622,1,0,0:0:0:0:
408,203,67035,6,0,B|466:138|418:67|418:67|425:100|406:116,1,198.000006042481,6|2,1:2|0:0,0:0:0:0:
343,120,67863,1,8,0:0:0:0:
161,41,68484,1,4,1:2:0:0:
113,86,68691,6,0,P|102:121|115:162,1,66.0000020141602,4|0,1:2|3:0,0:0:0:0:
159,190,69104,2,0,L|235:188,1,66.0000020141602,0|0,1:2|1:2,0:0:0:0:
287,211,69518,2,0,P|298:242|288:280,1,66.0000020141602,8|8,0:0|0:0,0:0:0:0:
258,331,69932,1,10,0:0:0:0:
131,369,70346,6,0,P|92:359|60:357,1,66.0000020141602,6|0,1:2|0:0,0:0:0:0:
15,314,70760,1,2,0:0:0:0:
51,259,70966,2,0,B|45:204|45:204|35:190|35:190|26:117,1,132.00000402832,2|0,1:2|0:0,0:0:0:0:
56,71,71587,1,2,0:0:0:0:
180,114,72001,6,0,P|204:164|247:195,2,99.0000030212403,6|2|2,1:2|0:0|1:2,0:0:0:0:
215,57,72829,1,8,0:0:0:0:
337,104,73242,1,2,0:0:0:0:
398,80,73449,1,2,1:2:0:0:
458,105,73656,6,0,P|477:169|474:219,1,99.0000030212403,6|0,1:2|0:0,0:0:0:0:
435,290,74277,1,2,1:2:0:0:
369,282,74484,2,0,L|288:270,1,66.0000020141602,10|2,0:0|0:0,0:0:0:0:
238,282,74897,2,0,B|199:227|199:227|246:158,1,132.00000402832,2|0,0:0|1:2,0:0:0:0:
290,136,75518,5,8,0:0:0:0:
195,44,75932,1,0,1:2:0:0:
129,54,76139,2,0,P|81:69|55:84,1,66.0000020141602,8|0,0:0|1:2,0:0:0:0:
35,134,76553,2,0,P|83:149|109:164,1,66.0000020141602,0|0,3:0|1:2,0:0:0:0:
130,213,76966,5,6,1:2:0:0:
98,271,77173,1,2,0:0:0:0:
147,315,77380,1,2,0:0:0:0:
275,286,77794,2,0,L|286:199,1,66.0000020141602,10|2,0:0|1:2,0:0:0:0:
321,166,78208,2,0,P|290:112|324:51,1,132.00000402832,10|0,0:0|1:2,0:0:0:0:
378,25,78829,5,2,0:0:0:0:
438,51,79035,1,2,0:0:0:0:
493,170,79449,2,0,L|481:248,1,66.0000020141602,10|0,0:0|1:2,0:0:0:0:
425,267,79863,2,0,L|413:345,1,66.0000020141602,10|0,0:0|1:2,0:0:0:0:
358,367,80277,6,0,B|314:361|314:361|299:346|299:346|247:342,2,99.0000030212403,4|2|2,1:2|1:2|1:2,0:0:0:0:
414,332,81104,1,12,0:0:0:0:
474,214,81518,1,8,0:0:0:0:
467,148,81725,1,0,1:2:0:0:
405,124,81932,6,0,B|364:127|364:127|330:105|339:64,1,99.0000030212403,12|12,0:0|0:0,0:0:0:0:
420,25,82553,1,12,0:0:0:0:
244,115,83173,1,10,3:2:0:0:
148,41,83587,5,6,1:2:0:0:
88,30,83794,1,4,1:2:0:0:
41,68,84001,1,6,1:2:0:0:
11,184,84415,1,10,0:0:0:0:
60,217,84622,2,0,B|108:215|108:215|128:220|128:220|183:217,1,120,0|0,1:2|1:2,0:0:0:0:
231,188,85242,6,0,P|253:155|251:120,1,60,2|0,1:2|1:2,0:0:0:0:
221,85,85656,1,2,1:2:0:0:
316,12,86070,2,0,L|397:16,1,60,10|0,0:0|1:2,0:0:0:0:
428,43,86484,1,2,1:2:0:0:
485,148,86897,5,6,1:2:0:0:
499,206,87104,1,4,1:2:0:0:
482,263,87311,1,6,1:2:0:0:
373,314,87725,1,10,0:0:0:0:
321,283,87932,2,0,B|263:263|263:263|196:280,1,120,0|8,1:2|0:0,0:0:0:0:
154,308,88553,5,14,1:2:0:0:
133,251,88760,1,10,1:2:0:0:
151,194,88966,1,14,1:2:0:0:
