osu file format v14

[General]
AudioFilename: audio.mp3
AudioLeadIn: 0
PreviewTime: 51448
Countdown: 0
SampleSet: Normal
StackLeniency: 0.7
Mode: 3
LetterboxInBreaks: 0
SpecialStyle: 0
WidescreenStoryboard: 0

[Editor]
DistanceSpacing: 1.9
BeatDivisor: 4
GridSize: 8
TimelineZoom: 2.899999

[Metadata]
Title:Make Me Dead
TitleUnicode:Make Me Dead
Artist:SiM
ArtistUnicode:SiM
Creator:puxtu
Version:PARANOiA
Source:
Tags:Silenze Iz Mine THE BEAUTiFUL PEOPLE shingeki no bahamut sin mah godri show-hate silence iz mine reggae punk hard core screamo ska opening theme one SEEDS OF HOPE
BeatmapID:1109263
BeatmapSetID:522297

[Difficulty]
HPDrainRate:8
CircleSize:4
OverallDifficulty:8
ApproachRate:5
SliderMultiplier:1.4
SliderTickRate:1

[Events]
//Background and Video events
0,0,"left_4_dead_zombies_art-wallpaper-2560x1600.jpg",0,0
//Break Periods
//Storyboard Layer 0 (Background)
//Storyboard Layer 1 (Fail)
//Storyboard Layer 2 (Pass)
//Storyboard Layer 3 (Foreground)
//Storyboard Sound Samples

[TimingPoints]
10648,300,4,1,4,50,1,0
51448,-100,4,1,4,50,0,1
70648,-100,4,1,4,50,0,0
80248,-100,4,1,4,50,0,1
89848,-100,4,1,4,50,0,0
130648,-100,4,1,4,50,0,1
149848,-100,4,1,4,50,0,0
159448,-100,4,1,4,50,0,1
167848,315.789473684211,4,1,4,50,1,1
167848,-95.2380952380952,4,1,4,50,0,1
168479,333.333333333333,4,1,4,50,1,1
168479,-90.0900900900901,4,1,4,50,0,1
169145,352.941176470588,4,1,4,50,1,1
169145,-85.4700854700855,4,1,4,50,0,1
169850,375,4,1,4,50,1,1
169850,-80,4,1,4,50,0,1
170600,400,4,1,4,50,1,1
170600,-75.187969924812,4,1,4,50,0,1
172050,400,4,1,4,50,1,1
172050,-75.187969924812,4,1,4,50,0,1
172250,300,4,1,4,50,1,1
172250,-100,4,1,4,50,0,1
172400,375,4,1,4,50,1,1
172400,-80,4,1,4,50,0,1
172587,285.714285714286,4,1,4,50,1,1
172587,-105.263157894737,4,1,4,50,0,1
172729,352.941176470588,4,1,4,50,1,1
172729,-85.4700854700855,4,1,4,50,0,1
172905,375,4,1,4,50,1,1
172905,-80,4,1,4,50,0,1
173092,357.142857142857,4,1,4,50,1,1
173092,-84.0336134453781,4,1,4,50,0,1
173984,300,4,1,4,50,1,0
173984,-100,4,1,4,50,0,0

[HitObjects]
192,192,9448,5,8,0:0:0:0:
64,192,9448,1,0,0:0:0:0:
320,192,9548,1,8,0:0:0:0:
448,192,9548,1,0,0:0:0:0:
64,192,9648,1,0,0:0:0:0:
192,192,9648,1,8,0:0:0:0:
320,192,9748,1,8,0:0:0:0:
448,192,9748,1,0,0:0:0:0:
192,192,10048,1,8,0:0:0:0:
64,192,10048,1,0,0:0:0:0:
448,192,10048,1,0,0:0:0:0:
64,192,10248,1,0,0:0:0:0:
192,192,10248,1,8,0:0:0:0:
448,192,10248,1,0,0:0:0:0:
64,192,10648,1,0,0:0:0:0:
320,192,10648,1,4,0:0:0:0:
448,192,10648,128,2,10948:0:0:0:0:
320,192,10948,1,8,0:0:0:0:
192,192,10948,1,2,0:0:0:0:
64,192,10948,128,0,11248:0:0:0:0:
192,192,11248,1,2,0:0:0:0:
320,192,11248,128,0,11548:0:0:0:0:
448,192,11548,1,8,0:0:0:0:
64,192,11548,1,0,0:0:0:0:
192,192,11548,128,2,11848:0:0:0:0:
320,192,11848,1,0,0:0:0:0:
448,192,11848,1,2,0:0:0:0:
192,192,12048,1,2,0:0:0:0:
64,192,12048,1,0,0:0:0:0:
448,192,12148,1,0,0:0:0:0:
320,192,12148,1,10,0:0:0:0:
192,192,12348,1,2,0:0:0:0:
320,192,12348,1,0,0:0:0:0:
64,192,12648,1,0,0:0:0:0:
192,192,12648,1,2,0:0:0:0:
320,192,12748,1,10,0:0:0:0:
448,192,12748,1,0,0:0:0:0:
64,192,12948,1,0,0:0:0:0:
192,192,12948,1,10,0:0:0:0:
448,192,13048,1,0,0:0:0:0:
320,192,13048,1,4,0:0:0:0:
64,192,13048,128,2,13348:0:0:0:0:
192,192,13348,1,8,0:0:0:0:
320,192,13348,1,2,0:0:0:0:
448,192,13348,128,0,13648:0:0:0:0:
320,192,13648,1,2,0:0:0:0:
192,192,13648,128,0,13948:0:0:0:0:
64,192,13948,1,8,0:0:0:0:
448,192,13948,1,0,0:0:0:0:
320,192,13948,128,2,14248:0:0:0:0:
192,192,14248,1,0,0:0:0:0:
64,192,14248,1,2,0:0:0:0:
320,192,14448,1,2,0:0:0:0:
448,192,14448,1,0,0:0:0:0:
64,192,14548,1,0,0:0:0:0:
192,192,14548,1,10,0:0:0:0:
320,192,14748,1,2,0:0:0:0:
192,192,14748,1,0,0:0:0:0:
448,192,15048,1,0,0:0:0:0:
320,192,15048,1,2,0:0:0:0:
192,192,15148,1,10,0:0:0:0:
64,192,15148,1,0,0:0:0:0:
448,192,15348,1,0,0:0:0:0:
320,192,15348,1,10,0:0:0:0:
64,192,15448,128,2,15748:0:0:0:0:
192,192,15448,1,4,0:0:0:0:
448,192,15448,1,0,0:0:0:0:
320,192,15748,128,0,16048:0:0:0:0:
448,192,15748,1,2,0:0:0:0:
192,192,15748,1,8,0:0:0:0:
192,192,16048,128,0,16348:0:0:0:0:
448,192,16048,1,2,0:0:0:0:
448,192,16348,128,2,16648:0:0:0:0:
320,192,16348,1,0,0:0:0:0:
64,192,16348,1,8,0:0:0:0:
64,192,16648,1,2,0:0:0:0:
320,192,16648,1,0,0:0:0:0:
448,192,16848,1,0,0:0:0:0:
192,192,16848,1,2,0:0:0:0:
320,192,16948,1,10,0:0:0:0:
64,192,16948,1,0,0:0:0:0:
192,192,17148,1,0,0:0:0:0:
448,192,17148,1,2,0:0:0:0:
320,192,17448,1,2,0:0:0:0:
192,192,17448,1,0,0:0:0:0:
64,192,17548,1,0,0:0:0:0:
448,192,17548,1,10,0:0:0:0:
320,192,17748,1,10,0:0:0:0:
192,192,17748,1,0,0:0:0:0:
64,192,17848,1,4,0:0:0:0:
192,192,17848,1,2,0:0:0:0:
448,192,17848,128,0,18148:0:0:0:0:
320,192,18148,1,0,0:0:0:0:
192,192,18148,1,2,0:0:0:0:
64,192,18148,128,4,18448:0:0:0:0:
192,192,18448,1,10,0:0:0:0:
448,192,18448,1,0,0:0:0:0:
320,192,18448,128,4,18748:0:0:0:0:
64,192,18748,1,4,0:0:0:0:
448,192,18748,1,0,0:0:0:0:
192,192,18748,128,2,19048:0:0:0:0:
320,192,19048,1,10,0:0:0:0:
448,192,19048,1,0,0:0:0:0:
64,192,19048,1,4,0:0:0:0:
192,192,19948,1,2,0:0:0:0:
320,192,19948,1,8,0:0:0:0:
448,192,19948,1,0,0:0:0:0:
448,192,20248,1,0,0:0:0:0:
192,192,20248,1,4,0:0:0:0:
64,192,20248,128,2,20548:0:0:0:0:
192,192,20548,1,8,0:0:0:0:
320,192,20548,1,2,0:0:0:0:
448,192,20548,128,0,20848:0:0:0:0:
320,192,20848,1,2,0:0:0:0:
192,192,20848,128,0,21148:0:0:0:0:
64,192,21148,1,8,0:0:0:0:
448,192,21148,1,0,0:0:0:0:
320,192,21148,128,2,21448:0:0:0:0:
192,192,21448,1,0,0:0:0:0:
64,192,21448,1,2,0:0:0:0:
320,192,21648,1,2,0:0:0:0:
448,192,21648,1,0,0:0:0:0:
64,192,21748,1,0,0:0:0:0:
192,192,21748,1,10,0:0:0:0:
320,192,21948,1,2,0:0:0:0:
192,192,21948,1,0,0:0:0:0:
448,192,22248,1,0,0:0:0:0:
320,192,22248,1,2,0:0:0:0:
192,192,22348,1,10,0:0:0:0:
64,192,22348,1,0,0:0:0:0:
448,192,22548,1,0,0:0:0:0:
320,192,22548,1,10,0:0:0:0:
64,192,22648,1,0,0:0:0:0:
192,192,22648,1,4,0:0:0:0:
448,192,22648,128,2,22948:0:0:0:0:
320,192,22948,1,8,0:0:0:0:
192,192,22948,1,2,0:0:0:0:
64,192,22948,128,0,23248:0:0:0:0:
192,192,23248,1,2,0:0:0:0:
320,192,23248,128,0,23548:0:0:0:0:
448,192,23548,1,8,0:0:0:0:
64,192,23548,1,0,0:0:0:0:
192,192,23548,128,2,23848:0:0:0:0:
320,192,23848,1,0,0:0:0:0:
448,192,23848,1,2,0:0:0:0:
192,192,24048,1,2,0:0:0:0:
64,192,24048,1,0,0:0:0:0:
448,192,24148,1,0,0:0:0:0:
320,192,24148,1,10,0:0:0:0:
192,192,24348,1,2,0:0:0:0:
320,192,24348,1,0,0:0:0:0:
64,192,24648,1,0,0:0:0:0:
192,192,24648,1,2,0:0:0:0:
320,192,24748,1,10,0:0:0:0:
448,192,24748,1,0,0:0:0:0:
64,192,24948,1,0,0:0:0:0:
192,192,24948,1,10,0:0:0:0:
448,192,25048,128,2,25348:0:0:0:0:
320,192,25048,1,4,0:0:0:0:
64,192,25048,1,0,0:0:0:0:
192,192,25348,128,0,25648:0:0:0:0:
64,192,25348,1,2,0:0:0:0:
320,192,25348,1,8,0:0:0:0:
320,192,25648,128,0,25948:0:0:0:0:
64,192,25648,1,2,0:0:0:0:
64,192,25948,128,2,26248:0:0:0:0:
192,192,25948,1,0,0:0:0:0:
448,192,25948,1,8,0:0:0:0:
448,192,26248,1,2,0:0:0:0:
192,192,26248,1,0,0:0:0:0:
64,192,26448,1,0,0:0:0:0:
320,192,26448,1,2,0:0:0:0:
192,192,26548,1,10,0:0:0:0:
448,192,26548,1,0,0:0:0:0:
320,192,26748,1,0,0:0:0:0:
64,192,26748,1,2,0:0:0:0:
192,192,27048,1,2,0:0:0:0:
320,192,27048,1,0,0:0:0:0:
448,192,27148,1,0,0:0:0:0:
64,192,27148,1,10,0:0:0:0:
192,192,27348,1,10,0:0:0:0:
320,192,27348,1,0,0:0:0:0:
448,192,27448,1,4,0:0:0:0:
320,192,27448,1,2,0:0:0:0:
64,192,27448,1,0,0:0:0:0:
192,192,27648,1,2,0:0:0:0:
64,192,27648,1,0,0:0:0:0:
320,192,27948,1,8,0:0:0:0:
448,192,27948,1,2,0:0:0:0:
64,192,27948,1,0,0:0:0:0:
320,192,28248,1,2,0:0:0:0:
64,192,28248,1,0,0:0:0:0:
192,192,28348,1,10,0:0:0:0:
448,192,28348,1,0,0:0:0:0:
448,192,28648,1,0,0:0:0:0:
64,192,28648,1,2,0:0:0:0:
192,192,28648,1,4,0:0:0:0:
320,192,28848,1,2,0:0:0:0:
448,192,28848,1,0,0:0:0:0:
64,192,29148,1,0,0:0:0:0:
192,192,29148,1,10,0:0:0:0:
448,192,29248,1,10,0:0:0:0:
320,192,29248,1,0,0:0:0:0:
192,192,29448,1,8,3:0:0:0:
64,192,29448,1,0,0:0:0:0:
320,192,29548,1,8,3:0:0:0:
448,192,29548,1,0,0:0:0:0:
448,192,29848,1,0,0:0:0:0:
192,192,29848,1,4,0:0:0:0:
64,192,29848,128,2,31648:0:0:0:0:
320,192,30448,1,2,0:0:0:0:
448,192,30448,1,0,0:0:0:0:
320,192,31048,1,2,0:0:0:0:
448,192,31048,1,0,0:0:0:0:
192,192,31648,1,0,0:0:0:0:
448,192,31648,1,8,0:0:0:0:
320,192,31948,1,8,0:0:0:0:
64,192,31948,1,0,0:0:0:0:
192,192,32148,1,0,0:0:0:0:
448,192,32148,1,8,0:0:0:0:
320,192,32248,1,4,0:0:0:0:
64,192,32248,1,0,0:0:0:0:
448,192,32248,1,2,0:0:0:0:
448,192,32448,1,0,0:0:0:0:
192,192,32548,1,2,0:0:0:0:
64,192,32548,1,0,0:0:0:0:
320,192,32748,1,2,0:0:0:0:
64,192,32748,1,0,0:0:0:0:
192,192,32848,1,0,0:0:0:0:
448,192,32848,1,10,0:0:0:0:
192,192,33048,1,0,0:0:0:0:
64,192,33148,1,0,0:0:0:0:
320,192,33148,1,2,0:0:0:0:
448,192,33348,1,0,0:0:0:0:
192,192,33448,1,0,0:0:0:0:
320,192,33448,1,2,0:0:0:0:
192,192,33648,1,0,0:0:0:0:
64,192,33748,1,0,0:0:0:0:
448,192,33748,1,2,0:0:0:0:
64,192,33948,1,0,0:0:0:0:
192,192,34048,1,0,0:0:0:0:
320,192,34048,1,8,0:0:0:0:
448,192,34048,1,2,0:0:0:0:
192,192,34248,1,0,0:0:0:0:
448,192,34348,1,0,0:0:0:0:
64,192,34348,128,2,34648:0:0:0:0:
448,192,34548,1,0,0:0:0:0:
192,192,34648,1,0,0:0:0:0:
320,192,34648,1,2,0:0:0:0:
64,192,34848,1,0,0:0:0:0:
320,192,34948,1,2,0:0:0:0:
448,192,34948,1,0,0:0:0:0:
192,192,35148,1,2,0:0:0:0:
448,192,35148,1,0,0:0:0:0:
320,192,35248,1,0,0:0:0:0:
64,192,35248,1,10,0:0:0:0:
64,192,35448,1,0,0:0:0:0:
448,192,35548,1,0,0:0:0:0:
192,192,35548,1,2,0:0:0:0:
64,192,35748,1,0,0:0:0:0:
320,192,35848,1,0,0:0:0:0:
192,192,35848,1,2,0:0:0:0:
320,192,36048,1,0,0:0:0:0:
448,192,36148,1,0,0:0:0:0:
64,192,36148,1,2,0:0:0:0:
448,192,36348,1,0,0:0:0:0:
320,192,36448,1,0,0:0:0:0:
192,192,36448,1,8,0:0:0:0:
64,192,36448,1,2,0:0:0:0:
320,192,36648,1,0,0:0:0:0:
64,192,36748,1,0,0:0:0:0:
448,192,36748,128,2,37048:0:0:0:0:
64,192,36948,1,0,0:0:0:0:
320,192,37048,1,0,0:0:0:0:
192,192,37048,1,2,0:0:0:0:
320,192,37248,1,0,0:0:0:0:
448,192,37348,1,0,0:0:0:0:
64,192,37348,1,2,0:0:0:0:
448,192,37548,1,0,0:0:0:0:
192,192,37548,1,2,0:0:0:0:
64,192,37648,1,10,0:0:0:0:
320,192,37648,1,0,0:0:0:0:
64,192,37848,1,0,0:0:0:0:
192,192,37948,1,2,0:0:0:0:
448,192,37948,1,0,0:0:0:0:
64,192,38148,1,0,0:0:0:0:
192,192,38248,1,2,0:0:0:0:
320,192,38248,1,0,0:0:0:0:
192,192,38448,1,0,0:0:0:0:
64,192,38548,1,2,0:0:0:0:
448,192,38548,1,0,0:0:0:0:
448,192,38748,1,0,0:0:0:0:
64,192,38848,1,2,0:0:0:0:
192,192,38848,1,8,0:0:0:0:
320,192,38848,1,0,0:0:0:0:
320,192,39048,1,0,0:0:0:0:
448,192,39148,128,2,39448:0:0:0:0:
64,192,39148,1,0,0:0:0:0:
192,192,39448,1,2,0:0:0:0:
320,192,39448,1,0,0:0:0:0:
192,192,39648,1,0,0:0:0:0:
448,192,39748,128,2,40048:0:0:0:0:
64,192,39748,1,0,0:0:0:0:
64,192,39948,1,0,0:0:0:0:
320,192,40048,1,0,0:0:0:0:
192,192,40048,1,2,0:0:0:0:
320,192,40248,1,0,0:0:0:0:
64,192,40348,1,0,0:0:0:0:
448,192,40348,128,2,40648:0:0:0:0:
64,192,40548,1,0,0:0:0:0:
192,192,40648,1,2,0:0:0:0:
320,192,40648,1,0,0:0:0:0:
64,192,40798,1,8,3:0:0:0:
448,192,40798,1,0,0:0:0:0:
192,192,40948,1,8,3:0:0:0:
320,192,40948,1,0,0:0:0:0:
64,192,41248,1,6,0:0:0:0:
192,192,41248,1,8,0:0:0:0:
448,192,41248,1,0,0:0:0:0:
320,192,41548,1,8,3:0:0:0:
448,192,41548,1,0,0:0:0:0:
192,192,41698,1,8,3:0:0:0:
64,192,41698,1,0,0:0:0:0:
320,192,41848,1,2,0:0:0:0:
64,192,41848,1,6,0:0:0:0:
448,192,41848,1,0,0:0:0:0:
192,192,42298,1,2,0:0:0:0:
320,192,42298,1,0,0:0:0:0:
64,192,42748,1,8,0:0:0:0:
192,192,42748,1,2,0:0:0:0:
448,192,42748,1,0,0:0:0:0:
320,192,43048,1,2,0:0:0:0:
448,192,43048,1,0,0:0:0:0:
64,192,43648,1,8,0:0:0:0:
320,192,43648,1,0,0:0:0:0:
192,192,43648,1,2,0:0:0:0:
448,192,43948,1,0,0:0:0:0:
64,192,43948,1,8,3:0:0:0:
64,192,44148,1,8,3:0:0:0:
448,192,44148,1,0,0:0:0:0:
192,192,44248,1,2,0:0:0:0:
320,192,44248,1,0,0:0:0:0:
448,192,44748,1,0,0:0:0:0:
192,192,44748,1,2,0:0:0:0:
320,192,45148,1,2,0:0:0:0:
448,192,45148,1,0,0:0:0:0:
64,192,45148,1,8,0:0:0:0:
448,192,45448,1,0,0:0:0:0:
192,192,45448,1,2,0:0:0:0:
192,192,45648,1,8,3:0:0:0:
320,192,45648,1,0,0:0:0:0:
64,192,45748,1,8,3:0:0:0:
448,192,45748,1,0,0:0:0:0:
448,192,46048,1,0,0:0:0:0:
64,192,46048,1,8,3:0:0:0:
320,192,46148,1,8,3:0:0:0:
192,192,46248,1,8,3:0:0:0:
448,192,46348,1,0,0:0:0:0:
64,192,46348,1,8,3:0:0:0:
64,192,46648,1,2,0:0:0:0:
320,192,46648,1,4,0:0:0:0:
448,192,46648,1,0,0:0:0:0:
192,192,47148,1,2,0:0:0:0:
320,192,47148,1,0,0:0:0:0:
64,192,47548,1,2,0:0:0:0:
192,192,47548,1,8,0:0:0:0:
448,192,47548,1,0,0:0:0:0:
448,192,47848,1,0,0:0:0:0:
64,192,47848,1,2,0:0:0:0:
64,192,48348,1,2,0:0:0:0:
448,192,48348,1,0,0:0:0:0:
448,192,48648,1,0,0:0:0:0:
192,192,48648,1,8,3:0:0:0:
64,192,48748,1,8,3:0:0:0:
320,192,48748,1,0,0:0:0:0:
64,192,49048,1,2,0:0:0:0:
192,192,49048,1,4,0:0:0:0:
448,192,49048,128,0,50848:0:0:0:0:
64,192,51148,1,0,0:0:0:0:
192,192,51148,1,8,0:0:0:0:
320,192,51148,1,2,0:0:0:0:
64,192,51448,1,4,0:0:0:0:
320,192,51448,1,2,0:0:0:0:
448,192,51448,1,0,0:0:0:0:
192,192,51598,1,0,0:0:0:0:
320,192,51598,1,2,0:0:0:0:
64,192,51748,1,8,0:0:0:0:
192,192,51748,1,2,0:0:0:0:
448,192,51748,1,0,0:0:0:0:
320,192,51898,1,0,0:0:0:0:
448,192,52048,1,2,0:0:0:0:
192,192,52048,1,0,0:0:0:0:
320,192,52198,1,0,0:0:0:0:
64,192,52198,1,2,0:0:0:0:
192,192,52348,1,2,0:0:0:0:
448,192,52348,1,8,0:0:0:0:
64,192,52348,1,0,0:0:0:0:
320,192,52498,1,0,0:0:0:0:
448,192,52648,1,0,0:0:0:0:
64,192,52648,1,2,0:0:0:0:
320,192,52798,1,2,0:0:0:0:
192,192,52798,1,0,0:0:0:0:
448,192,52948,1,0,0:0:0:0:
64,192,52948,1,8,0:0:0:0:
320,192,52948,1,2,0:0:0:0:
192,192,53098,1,0,0:0:0:0:
320,192,53248,1,2,0:0:0:0:
64,192,53248,1,0,0:0:0:0:
192,192,53398,1,0,0:0:0:0:
448,192,53398,1,2,0:0:0:0:
192,192,53548,1,2,0:0:0:0:
64,192,53548,1,8,0:0:0:0:
320,192,53548,1,0,0:0:0:0:
448,192,53698,1,0,0:0:0:0:
192,192,53848,1,2,0:0:0:0:
64,192,53848,1,0,0:0:0:0:
320,192,53998,1,0,0:0:0:0:
192,192,53998,1,2,0:0:0:0:
448,192,54148,1,8,0:0:0:0:
320,192,54148,1,2,0:0:0:0:
64,192,54148,1,0,0:0:0:0:
192,192,54298,1,0,0:0:0:0:
64,192,54448,1,2,0:0:0:0:
320,192,54448,1,0,0:0:0:0:
192,192,54598,1,0,0:0:0:0:
448,192,54598,1,2,0:0:0:0:
320,192,54748,1,2,0:0:0:0:
64,192,54748,1,8,0:0:0:0:
448,192,54748,1,0,0:0:0:0:
192,192,54898,1,0,0:0:0:0:
64,192,55048,1,0,0:0:0:0:
448,192,55048,1,2,0:0:0:0:
192,192,55198,1,2,0:0:0:0:
320,192,55198,1,0,0:0:0:0:
64,192,55348,1,0,0:0:0:0:
448,192,55348,1,8,0:0:0:0:
192,192,55348,1,2,0:0:0:0:
320,192,55498,1,0,0:0:0:0:
192,192,55648,1,2,0:0:0:0:
448,192,55648,1,0,0:0:0:0:
320,192,55798,1,0,0:0:0:0:
64,192,55798,1,2,0:0:0:0:
320,192,55948,1,2,0:0:0:0:
448,192,55948,1,8,0:0:0:0:
192,192,55948,1,0,0:0:0:0:
64,192,56098,1,0,0:0:0:0:
448,192,56248,1,0,0:0:0:0:
192,192,56248,1,2,0:0:0:0:
192,192,56398,1,2,0:0:0:0:
320,192,56398,1,0,0:0:0:0:
64,192,56548,1,0,0:0:0:0:
320,192,56548,1,2,0:0:0:0:
448,192,56548,1,8,0:0:0:0:
192,192,56698,1,0,0:0:0:0:
320,192,56848,1,0,0:0:0:0:
64,192,56848,1,2,0:0:0:0:
448,192,56998,1,2,0:0:0:0:
192,192,56998,1,0,0:0:0:0:
448,192,57148,1,0,0:0:0:0:
64,192,57148,1,8,0:0:0:0:
320,192,57148,1,2,0:0:0:0:
192,192,57298,1,0,0:0:0:0:
448,192,57448,1,2,0:0:0:0:
64,192,57448,1,0,0:0:0:0:
320,192,57598,1,0,0:0:0:0:
192,192,57598,1,2,0:0:0:0:
192,192,57748,1,2,0:0:0:0:
448,192,57748,1,8,0:0:0:0:
64,192,57748,1,0,0:0:0:0:
320,192,57898,1,0,0:0:0:0:
448,192,58048,1,0,0:0:0:0:
64,192,58048,1,2,0:0:0:0:
192,192,58198,1,2,0:0:0:0:
320,192,58198,1,0,0:0:0:0:
64,192,58348,1,0,0:0:0:0:
448,192,58348,1,8,0:0:0:0:
320,192,58348,1,2,0:0:0:0:
192,192,58498,1,0,0:0:0:0:
320,192,58648,1,2,0:0:0:0:
448,192,58648,1,0,0:0:0:0:
64,192,58798,1,0,0:0:0:0:
192,192,58798,1,2,0:0:0:0:
448,192,58948,1,8,0:0:0:0:
320,192,58948,1,2,0:0:0:0:
192,192,58948,1,0,0:0:0:0:
64,192,59098,1,0,0:0:0:0:
192,192,59248,1,2,0:0:0:0:
320,192,59248,1,0,0:0:0:0:
64,192,59398,1,0,0:0:0:0:
448,192,59398,1,2,0:0:0:0:
192,192,59548,1,2,0:0:0:0:
64,192,59548,1,8,0:0:0:0:
320,192,59548,1,0,0:0:0:0:
448,192,59698,1,0,0:0:0:0:
192,192,59848,1,0,0:0:0:0:
64,192,59848,1,2,0:0:0:0:
448,192,59998,1,2,0:0:0:0:
320,192,59998,1,0,0:0:0:0:
64,192,59998,1,8,0:0:0:0:
64,192,60148,1,8,0:0:0:0:
320,192,60148,1,0,0:0:0:0:
448,192,60148,1,2,0:0:0:0:
192,192,60298,1,8,3:0:0:0:
320,192,60373,1,8,3:0:0:0:
64,192,60448,1,0,0:0:0:0:
448,192,60448,1,8,3:0:0:0:
192,192,60598,1,2,0:0:0:0:
320,192,60598,1,0,0:0:0:0:
64,192,60598,1,8,0:0:0:0:
448,192,60748,1,0,0:0:0:0:
192,192,60748,1,2,0:0:0:0:
448,192,60898,1,2,0:0:0:0:
320,192,60898,1,0,0:0:0:0:
64,192,60898,1,8,0:0:0:0:
448,192,61048,1,4,0:0:0:0:
192,192,61048,1,2,0:0:0:0:
64,192,61048,1,0,0:0:0:0:
320,192,61198,1,0,0:0:0:0:
192,192,61198,1,2,0:0:0:0:
448,192,61348,1,8,0:0:0:0:
320,192,61348,1,2,0:0:0:0:
64,192,61348,1,0,0:0:0:0:
192,192,61498,1,0,0:0:0:0:
64,192,61648,1,2,0:0:0:0:
320,192,61648,1,0,0:0:0:0:
192,192,61798,1,0,0:0:0:0:
448,192,61798,1,2,0:0:0:0:
320,192,61948,1,2,0:0:0:0:
64,192,61948,1,8,0:0:0:0:
448,192,61948,1,0,0:0:0:0:
192,192,62098,1,0,0:0:0:0:
64,192,62248,1,0,0:0:0:0:
448,192,62248,1,2,0:0:0:0:
192,192,62398,1,2,0:0:0:0:
320,192,62398,1,0,0:0:0:0:
64,192,62548,1,0,0:0:0:0:
448,192,62548,1,8,0:0:0:0:
192,192,62548,1,2,0:0:0:0:
320,192,62698,1,0,0:0:0:0:
192,192,62848,1,2,0:0:0:0:
448,192,62848,1,0,0:0:0:0:
320,192,62998,1,0,0:0:0:0:
64,192,62998,1,2,0:0:0:0:
320,192,63148,1,2,0:0:0:0:
448,192,63148,1,8,0:0:0:0:
192,192,63148,1,0,0:0:0:0:
64,192,63298,1,0,0:0:0:0:
320,192,63448,1,2,0:0:0:0:
448,192,63448,1,0,0:0:0:0:
192,192,63598,1,0,0:0:0:0:
320,192,63598,1,2,0:0:0:0:
64,192,63748,1,8,0:0:0:0:
192,192,63748,1,2,0:0:0:0:
448,192,63748,1,0,0:0:0:0:
320,192,63898,1,0,0:0:0:0:
448,192,64048,1,2,0:0:0:0:
192,192,64048,1,0,0:0:0:0:
320,192,64198,1,0,0:0:0:0:
64,192,64198,1,2,0:0:0:0:
192,192,64348,1,2,0:0:0:0:
448,192,64348,1,8,0:0:0:0:
64,192,64348,1,0,0:0:0:0:
320,192,64498,1,0,0:0:0:0:
448,192,64648,1,0,0:0:0:0:
64,192,64648,1,2,0:0:0:0:
320,192,64798,1,2,0:0:0:0:
192,192,64798,1,0,0:0:0:0:
448,192,64948,1,0,0:0:0:0:
64,192,64948,1,8,0:0:0:0:
320,192,64948,1,2,0:0:0:0:
192,192,65098,1,0,0:0:0:0:
320,192,65248,1,2,0:0:0:0:
64,192,65248,1,0,0:0:0:0:
192,192,65398,1,0,0:0:0:0:
448,192,65398,1,2,0:0:0:0:
192,192,65548,1,2,0:0:0:0:
64,192,65548,1,8,0:0:0:0:
320,192,65548,1,0,0:0:0:0:
448,192,65698,1,0,0:0:0:0:
64,192,65848,1,0,0:0:0:0:
320,192,65848,1,2,0:0:0:0:
320,192,65998,1,2,0:0:0:0:
192,192,65998,1,0,0:0:0:0:
448,192,66148,1,0,0:0:0:0:
192,192,66148,1,2,0:0:0:0:
64,192,66148,1,8,0:0:0:0:
320,192,66298,1,0,0:0:0:0:
192,192,66448,1,0,0:0:0:0:
448,192,66448,1,2,0:0:0:0:
64,192,66598,1,2,0:0:0:0:
320,192,66598,1,0,0:0:0:0:
64,192,66748,1,0,0:0:0:0:
448,192,66748,1,8,0:0:0:0:
192,192,66748,1,2,0:0:0:0:
320,192,66898,1,0,0:0:0:0:
64,192,67048,1,2,0:0:0:0:
448,192,67048,1,0,0:0:0:0:
192,192,67198,1,0,0:0:0:0:
320,192,67198,1,2,0:0:0:0:
320,192,67348,1,2,0:0:0:0:
64,192,67348,1,8,0:0:0:0:
448,192,67348,1,0,0:0:0:0:
192,192,67498,1,0,0:0:0:0:
64,192,67648,1,0,0:0:0:0:
448,192,67648,1,2,0:0:0:0:
320,192,67798,1,2,0:0:0:0:
192,192,67798,1,0,0:0:0:0:
448,192,67948,1,0,0:0:0:0:
64,192,67948,1,8,0:0:0:0:
192,192,67948,1,2,0:0:0:0:
320,192,68098,1,0,0:0:0:0:
192,192,68248,1,2,0:0:0:0:
64,192,68248,1,0,0:0:0:0:
448,192,68398,1,0,0:0:0:0:
320,192,68398,1,2,0:0:0:0:
64,192,68548,1,8,0:0:0:0:
192,192,68548,1,2,0:0:0:0:
320,192,68548,1,0,0:0:0:0:
448,192,68698,1,0,0:0:0:0:
64,192,68848,1,2,0:0:0:0:
192,192,68848,1,0,0:0:0:0:
448,192,68998,1,0,0:0:0:0:
320,192,68998,1,2,0:0:0:0:
64,192,69148,1,2,0:0:0:0:
448,192,69148,1,8,0:0:0:0:
192,192,69148,1,0,0:0:0:0:
320,192,69298,1,0,0:0:0:0:
192,192,69373,1,0,0:0:0:0:
448,192,69448,1,0,0:0:0:0:
320,192,69448,1,8,0:0:0:0:
64,192,69448,1,0,0:0:0:0:
192,192,69598,1,0,0:0:0:0:
320,192,69748,1,0,0:0:0:0:
448,192,69898,1,0,0:0:0:0:
192,192,69898,1,8,0:0:0:0:
64,192,69898,1,2,0:0:0:0:
320,192,70048,1,0,0:0:0:0:
192,192,70198,1,0,0:0:0:0:
64,192,70348,1,8,3:0:0:0:
448,192,70348,1,0,0:0:0:0:
320,192,70348,1,8,0:0:0:0:
320,192,70648,1,0,0:0:0:0:
192,192,70648,1,4,0:0:0:0:
448,192,70648,128,2,71848:0:0:0:0:
64,192,71098,1,2,0:0:0:0:
192,192,71098,1,0,0:0:0:0:
64,192,71548,1,2,0:0:0:0:
320,192,71548,1,0,0:0:0:0:
64,192,71848,128,10,73048:0:0:0:0:
192,192,71848,1,0,0:0:0:0:
320,192,71848,1,4,0:0:0:0:
192,192,72748,1,2,0:0:0:0:
448,192,72748,1,0,0:0:0:0:
320,192,73048,1,4,0:0:0:0:
448,192,73048,128,2,74248:0:0:0:0:
192,192,73048,1,0,0:0:0:0:
320,192,73498,1,0,0:0:0:0:
64,192,73498,1,2,0:0:0:0:
64,192,73948,1,2,0:0:0:0:
192,192,73948,1,0,0:0:0:0:
192,192,74248,1,0,0:0:0:0:
320,192,74248,1,4,0:0:0:0:
64,192,74248,1,10,0:0:0:0:
192,192,74548,1,2,0:0:0:0:
320,192,74548,1,0,0:0:0:0:
448,192,74698,1,0,0:0:0:0:
64,192,74698,1,10,0:0:0:0:
320,192,74698,1,4,0:0:0:0:
192,192,74998,1,2,0:0:0:0:
448,192,74998,1,0,0:0:0:0:
320,192,75148,1,4,3:0:0:0:
64,192,75148,1,10,0:0:0:0:
192,192,75148,1,0,0:0:0:0:
64,192,75448,128,2,76648:0:0:0:0:
448,192,75448,1,4,0:0:0:0:
192,192,75448,1,0,0:0:0:0:
320,192,75898,1,2,0:0:0:0:
448,192,75898,1,0,0:0:0:0:
192,192,76348,1,0,0:0:0:0:
320,192,76348,1,2,0:0:0:0:
192,192,76648,1,0,0:0:0:0:
320,192,76648,1,4,0:0:0:0:
448,192,76648,1,10,0:0:0:0:
448,192,76948,1,0,0:0:0:0:
64,192,76948,1,2,0:0:0:0:
320,192,77098,1,2,0:0:0:0:
192,192,77098,1,0,0:0:0:0:
320,192,77248,1,8,0:0:0:0:
448,192,77248,1,0,0:0:0:0:
64,192,77248,1,2,0:0:0:0:
192,192,77698,1,0,0:0:0:0:
320,192,77773,1,0,0:0:0:0:
448,192,77848,1,0,0:0:0:0:
192,192,77848,1,8,0:0:0:0:
64,192,77848,1,2,0:0:0:0:
448,192,78148,1,0,0:0:0:0:
320,192,78148,1,8,0:0:0:0:
64,192,78223,1,8,0:0:0:0:
192,192,78223,1,0,0:0:0:0:
448,192,78298,1,0,0:0:0:0:
320,192,78298,1,8,0:0:0:0:
192,192,78373,1,0,0:0:0:0:
64,192,78373,1,8,0:0:0:0:
448,192,78448,1,0,0:0:0:0:
320,192,78448,1,8,0:0:0:0:
64,192,78523,1,8,0:0:0:0:
192,192,78523,1,0,0:0:0:0:
320,192,78598,1,8,0:0:0:0:
448,192,78598,1,0,0:0:0:0:
192,192,78673,1,0,0:0:0:0:
64,192,78673,1,8,0:0:0:0:
320,192,78748,1,8,0:0:0:0:
448,192,78748,1,0,0:0:0:0:
192,192,78823,1,0,0:0:0:0:
64,192,78823,1,8,0:0:0:0:
448,192,78898,1,0,0:0:0:0:
320,192,78898,1,8,0:0:0:0:
64,192,78973,1,8,0:0:0:0:
192,192,78973,1,0,0:0:0:0:
448,192,79048,1,0,0:0:0:0:
320,192,79048,1,8,0:0:0:0:
64,192,79048,1,2,0:0:0:0:
192,192,79948,1,8,0:0:0:0:
64,192,79948,1,2,0:0:0:0:
448,192,79948,1,0,0:0:0:0:
448,192,80248,1,2,0:0:0:0:
320,192,80248,1,4,0:0:0:0:
64,192,80248,1,0,0:0:0:0:
192,192,80398,1,0,0:0:0:0:
64,192,80398,1,8,0:0:0:0:
320,192,80548,1,0,0:0:0:0:
448,192,80548,1,2,0:0:0:0:
192,192,80623,1,0,0:0:0:0:
64,192,80698,1,8,0:0:0:0:
448,192,80698,1,0,0:0:0:0:
192,192,80848,1,0,0:0:0:0:
320,192,80848,1,2,0:0:0:0:
64,192,80998,1,8,0:0:0:0:
448,192,80998,1,0,0:0:0:0:
320,192,81148,1,0,0:0:0:0:
192,192,81148,1,2,0:0:0:0:
448,192,81223,1,0,0:0:0:0:
192,192,81298,1,0,0:0:0:0:
64,192,81298,1,8,0:0:0:0:
448,192,81448,1,0,0:0:0:0:
320,192,81448,1,2,0:0:0:0:
192,192,81598,1,0,0:0:0:0:
64,192,81598,1,8,0:0:0:0:
448,192,81748,1,2,0:0:0:0:
320,192,81748,1,0,0:0:0:0:
64,192,81823,1,0,0:0:0:0:
192,192,81898,1,8,0:0:0:0:
448,192,81898,1,0,0:0:0:0:
320,192,82048,1,2,0:0:0:0:
64,192,82048,1,0,0:0:0:0:
448,192,82123,1,0,0:0:0:0:
64,192,82198,1,8,0:0:0:0:
192,192,82198,1,0,0:0:0:0:
320,192,82348,1,0,0:0:0:0:
448,192,82348,1,2,0:0:0:0:
192,192,82423,1,0,0:0:0:0:
448,192,82498,1,0,0:0:0:0:
64,192,82498,1,8,0:0:0:0:
192,192,82648,1,0,0:0:0:0:
320,192,82648,1,2,0:0:0:0:
448,192,82798,1,0,0:0:0:0:
64,192,82798,1,8,0:0:0:0:
192,192,82948,1,2,0:0:0:0:
320,192,82948,1,0,0:0:0:0:
448,192,83023,1,0,0:0:0:0:
64,192,83098,1,8,0:0:0:0:
320,192,83098,1,0,0:0:0:0:
448,192,83248,1,2,0:0:0:0:
192,192,83248,1,0,0:0:0:0:
64,192,83398,1,8,0:0:0:0:
320,192,83398,1,0,0:0:0:0:
192,192,83548,1,0,0:0:0:0:
448,192,83548,1,2,0:0:0:0:
320,192,83623,1,0,0:0:0:0:
448,192,83698,1,0,0:0:0:0:
64,192,83698,1,8,0:0:0:0:
192,192,83848,1,0,0:0:0:0:
320,192,83848,1,2,0:0:0:0:
448,192,83998,1,0,0:0:0:0:
64,192,83998,1,8,0:0:0:0:
320,192,84148,1,0,0:0:0:0:
192,192,84148,1,2,0:0:0:0:
64,192,84223,1,0,0:0:0:0:
320,192,84298,1,8,0:0:0:0:
448,192,84298,1,0,0:0:0:0:
64,192,84448,1,2,0:0:0:0:
192,192,84448,1,0,0:0:0:0:
448,192,84598,1,8,0:0:0:0:
320,192,84598,1,0,0:0:0:0:
192,192,84748,1,0,0:0:0:0:
64,192,84748,1,2,0:0:0:0:
448,192,84823,1,0,0:0:0:0:
192,192,84898,1,0,0:0:0:0:
320,192,84898,1,8,0:0:0:0:
448,192,85048,1,0,0:0:0:0:
64,192,85048,1,2,0:0:0:0:
320,192,85198,1,8,0:0:0:0:
192,192,85198,1,0,0:0:0:0:
64,192,85348,1,0,0:0:0:0:
448,192,85348,1,2,0:0:0:0:
192,192,85423,1,0,0:0:0:0:
320,192,85498,1,0,0:0:0:0:
64,192,85498,1,8,0:0:0:0:
192,192,85648,1,0,0:0:0:0:
448,192,85648,1,2,0:0:0:0:
320,192,85798,1,0,0:0:0:0:
64,192,85798,1,8,0:0:0:0:
448,192,85948,1,2,0:0:0:0:
192,192,85948,1,0,0:0:0:0:
320,192,86023,1,0,0:0:0:0:
64,192,86098,1,8,0:0:0:0:
192,192,86098,1,0,0:0:0:0:
320,192,86248,1,2,0:0:0:0:
448,192,86248,1,0,0:0:0:0:
64,192,86398,1,8,0:0:0:0:
192,192,86398,1,0,0:0:0:0:
320,192,86548,1,0,0:0:0:0:
448,192,86548,1,2,0:0:0:0:
192,192,86623,1,0,0:0:0:0:
448,192,86698,1,0,0:0:0:0:
64,192,86698,1,8,0:0:0:0:
192,192,86848,1,0,0:0:0:0:
320,192,86848,1,2,0:0:0:0:
64,192,86998,1,0,0:0:0:0:
448,192,86998,1,8,0:0:0:0:
64,192,87148,1,0,0:0:0:0:
448,192,87148,1,8,0:0:0:0:
192,192,87298,1,0,0:0:0:0:
320,192,87298,1,2,0:0:0:0:
64,192,87448,1,0,0:0:0:0:
448,192,87448,1,2,0:0:0:0:
192,192,87448,1,4,0:0:0:0:
64,192,87748,1,0,0:0:0:0:
320,192,87748,1,8,0:0:0:0:
448,192,87748,1,2,0:0:0:0:
448,192,87898,1,0,0:0:0:0:
320,192,88048,1,8,0:0:0:0:
64,192,88048,1,0,0:0:0:0:
192,192,88048,1,2,0:0:0:0:
64,192,88198,1,0,0:0:0:0:
448,192,88348,1,2,0:0:0:0:
192,192,88348,1,0,0:0:0:0:
320,192,88348,1,8,0:0:0:0:
320,192,88498,1,0,0:0:0:0:
192,192,88648,1,4,0:0:0:0:
448,192,88648,1,2,0:0:0:0:
64,192,88648,128,0,89248:0:0:0:0:
192,192,89248,1,0,0:0:0:0:
320,192,89248,1,4,0:0:0:0:
448,192,89248,128,2,89848:0:0:0:0:
320,192,89848,1,0,0:0:0:0:
192,192,89848,1,4,0:0:0:0:
64,192,89848,128,2,90148:0:0:0:0:
192,192,90148,1,8,0:0:0:0:
320,192,90148,1,2,0:0:0:0:
448,192,90148,128,0,90448:0:0:0:0:
320,192,90448,1,2,0:0:0:0:
192,192,90448,128,0,90748:0:0:0:0:
64,192,90748,1,8,0:0:0:0:
448,192,90748,1,0,0:0:0:0:
320,192,90748,128,2,91048:0:0:0:0:
192,192,91048,1,0,0:0:0:0:
64,192,91048,1,2,0:0:0:0:
320,192,91248,1,2,0:0:0:0:
448,192,91248,1,0,0:0:0:0:
64,192,91348,1,0,0:0:0:0:
192,192,91348,1,10,0:0:0:0:
320,192,91548,1,2,0:0:0:0:
192,192,91548,1,0,0:0:0:0:
448,192,91848,1,0,0:0:0:0:
320,192,91848,1,2,0:0:0:0:
192,192,91948,1,10,0:0:0:0:
64,192,91948,1,0,0:0:0:0:
448,192,92148,1,0,0:0:0:0:
320,192,92148,1,10,0:0:0:0:
64,192,92248,1,0,0:0:0:0:
192,192,92248,1,4,0:0:0:0:
448,192,92248,128,2,92548:0:0:0:0:
320,192,92548,1,8,0:0:0:0:
192,192,92548,1,2,0:0:0:0:
64,192,92548,128,0,92848:0:0:0:0:
192,192,92848,1,2,0:0:0:0:
320,192,92848,128,0,93148:0:0:0:0:
448,192,93148,1,8,0:0:0:0:
64,192,93148,1,0,0:0:0:0:
192,192,93148,128,2,93448:0:0:0:0:
320,192,93448,1,0,0:0:0:0:
448,192,93448,1,2,0:0:0:0:
192,192,93648,1,2,0:0:0:0:
64,192,93648,1,0,0:0:0:0:
448,192,93748,1,0,0:0:0:0:
320,192,93748,1,10,0:0:0:0:
192,192,93948,1,2,0:0:0:0:
320,192,93948,1,0,0:0:0:0:
64,192,94248,1,0,0:0:0:0:
192,192,94248,1,2,0:0:0:0:
320,192,94348,1,10,0:0:0:0:
448,192,94348,1,0,0:0:0:0:
64,192,94548,1,0,0:0:0:0:
192,192,94548,1,10,0:0:0:0:
448,192,94648,128,2,94948:0:0:0:0:
320,192,94648,1,4,0:0:0:0:
64,192,94648,1,0,0:0:0:0:
192,192,94948,128,0,95248:0:0:0:0:
64,192,94948,1,2,0:0:0:0:
320,192,94948,1,8,0:0:0:0:
320,192,95248,128,0,95548:0:0:0:0:
64,192,95248,1,2,0:0:0:0:
64,192,95548,128,2,95848:0:0:0:0:
192,192,95548,1,0,0:0:0:0:
448,192,95548,1,8,0:0:0:0:
448,192,95848,1,2,0:0:0:0:
192,192,95848,1,0,0:0:0:0:
64,192,96048,1,0,0:0:0:0:
320,192,96048,1,2,0:0:0:0:
192,192,96148,1,10,0:0:0:0:
448,192,96148,1,0,0:0:0:0:
320,192,96348,1,0,0:0:0:0:
64,192,96348,1,2,0:0:0:0:
192,192,96648,1,2,0:0:0:0:
320,192,96648,1,0,0:0:0:0:
448,192,96748,1,0,0:0:0:0:
64,192,96748,1,10,0:0:0:0:
192,192,96948,1,10,0:0:0:0:
320,192,96948,1,0,0:0:0:0:
64,192,97048,1,2,0:0:0:0:
448,192,97048,1,0,0:0:0:0:
320,192,97248,1,2,0:0:0:0:
448,192,97248,1,0,0:0:0:0:
192,192,97548,1,10,0:0:0:0:
320,192,97548,1,0,0:0:0:0:
64,192,97548,128,2,97848:0:0:0:0:
448,192,97848,1,2,0:0:0:0:
320,192,97848,1,0,0:0:0:0:
192,192,97948,1,0,0:0:0:0:
64,192,97948,128,10,98248:0:0:0:0:
192,192,98248,1,0,0:0:0:0:
448,192,98248,1,2,0:0:0:0:
64,192,98448,1,2,0:0:0:0:
320,192,98448,1,0,0:0:0:0:
320,192,98748,1,8,0:0:0:0:
448,192,98748,1,0,0:0:0:0:
192,192,98848,1,8,0:0:0:0:
64,192,98848,1,0,0:0:0:0:
448,192,99048,1,0,0:0:0:0:
64,192,99148,1,0,0:0:0:0:
192,192,99448,1,2,0:0:0:0:
320,192,99448,1,4,0:0:0:0:
448,192,99448,128,0,101248:0:0:0:0:
64,192,100048,1,2,0:0:0:0:
192,192,100048,1,0,0:0:0:0:
192,192,100648,1,0,0:0:0:0:
64,192,100848,1,0,0:0:0:0:
320,192,100848,1,8,0:0:0:0:
320,192,100948,1,8,0:0:0:0:
64,192,100948,1,0,0:0:0:0:
64,192,101248,1,2,0:0:0:0:
192,192,101248,1,8,0:0:0:0:
320,192,101248,1,0,0:0:0:0:
64,192,101548,1,2,0:0:0:0:
320,192,101548,1,0,0:0:0:0:
448,192,101548,1,8,0:0:0:0:
192,192,101748,1,8,0:0:0:0:
320,192,101748,1,0,0:0:0:0:
64,192,101848,1,2,0:0:0:0:
192,192,101848,1,4,0:0:0:0:
448,192,101848,1,0,0:0:0:0:
64,192,102148,1,0,0:0:0:0:
320,192,102148,1,2,0:0:0:0:
448,192,102148,128,8,102298:0:0:0:0:
192,192,102448,1,2,0:0:0:0:
320,192,102448,1,0,0:0:0:0:
64,192,102748,128,2,102898:0:0:0:0:
320,192,102748,1,8,0:0:0:0:
448,192,102748,1,0,0:0:0:0:
448,192,103048,1,0,0:0:0:0:
192,192,103048,1,2,0:0:0:0:
64,192,103348,1,0,0:0:0:0:
320,192,103348,1,8,0:0:0:0:
448,192,103348,128,2,103498:0:0:0:0:
64,192,103548,1,0,0:0:0:0:
192,192,103548,1,2,0:0:0:0:
448,192,103848,1,0,0:0:0:0:
192,192,103848,1,2,0:0:0:0:
64,192,103948,128,2,104098:0:0:0:0:
320,192,103948,1,8,0:0:0:0:
448,192,103948,1,0,0:0:0:0:
192,192,104248,1,2,0:0:0:0:
320,192,104248,1,0,0:0:0:0:
448,192,104548,1,0,0:0:0:0:
192,192,104548,1,2,0:0:0:0:
64,192,104548,128,8,104698:0:0:0:0:
320,192,104848,1,2,0:0:0:0:
192,192,104848,1,0,0:0:0:0:
448,192,105148,128,2,105298:0:0:0:0:
192,192,105148,1,8,0:0:0:0:
64,192,105148,1,0,0:0:0:0:
64,192,105448,1,0,0:0:0:0:
320,192,105448,1,2,0:0:0:0:
448,192,105748,1,0,0:0:0:0:
192,192,105748,1,8,0:0:0:0:
64,192,105748,128,2,105898:0:0:0:0:
448,192,105948,1,0,0:0:0:0:
320,192,105948,1,2,0:0:0:0:
64,192,106248,1,0,0:0:0:0:
320,192,106248,1,2,0:0:0:0:
448,192,106348,128,2,106498:0:0:0:0:
192,192,106348,1,8,0:0:0:0:
64,192,106348,1,0,0:0:0:0:
320,192,106648,1,2,0:0:0:0:
192,192,106648,1,0,0:0:0:0:
192,192,106948,128,2,107098:0:0:0:0:
64,192,106948,1,0,0:0:0:0:
448,192,106948,1,8,0:0:0:0:
64,192,107248,1,0,0:0:0:0:
320,192,107248,1,2,0:0:0:0:
64,192,107548,1,0,0:0:0:0:
448,192,107548,1,2,0:0:0:0:
320,192,107548,128,8,107698:0:0:0:0:
448,192,107848,1,2,0:0:0:0:
192,192,107848,1,0,0:0:0:0:
192,192,108148,128,8,108298:0:0:0:0:
320,192,108148,1,2,0:0:0:0:
448,192,108148,1,0,0:0:0:0:
64,192,108348,1,2,0:0:0:0:
448,192,108348,1,0,0:0:0:0:
320,192,108648,1,2,0:0:0:0:
448,192,108648,1,0,0:0:0:0:
64,192,108748,1,0,0:0:0:0:
320,192,108748,1,2,0:0:0:0:
192,192,108748,128,8,108898:0:0:0:0:
448,192,108898,1,0,0:0:0:0:
64,192,109048,1,0,0:0:0:0:
320,192,109048,1,2,0:0:0:0:
448,192,109348,1,0,0:0:0:0:
192,192,109348,1,8,0:0:0:0:
64,192,109348,128,2,109648:0:0:0:0:
320,192,109648,1,2,0:0:0:0:
192,192,109648,1,0,0:0:0:0:
448,192,109948,128,2,110248:0:0:0:0:
192,192,109948,1,8,0:0:0:0:
64,192,109948,1,0,0:0:0:0:
64,192,110248,1,0,0:0:0:0:
320,192,110248,1,2,0:0:0:0:
192,192,110248,1,4,0:0:0:0:
448,192,110548,1,8,0:0:0:0:
192,192,110548,1,2,0:0:0:0:
64,192,110548,1,0,0:0:0:0:
64,192,110848,1,0,0:0:0:0:
192,192,110848,1,2,0:0:0:0:
448,192,110848,1,8,0:0:0:0:
448,192,111048,1,8,0:0:0:0:
192,192,111048,1,2,0:0:0:0:
64,192,111048,1,0,0:0:0:0:
64,192,111348,1,0,0:0:0:0:
192,192,111348,1,2,0:0:0:0:
448,192,111348,1,8,0:0:0:0:
320,192,111448,1,2,0:0:0:0:
192,192,111448,1,0,0:0:0:0:
64,192,111448,1,4,0:0:0:0:
320,192,111748,1,2,0:0:0:0:
64,192,111948,1,0,0:0:0:0:
192,192,111948,1,2,0:0:0:0:
320,192,112048,1,2,0:0:0:0:
448,192,112048,1,8,0:0:0:0:
64,192,112048,1,0,0:0:0:0:
192,192,112248,1,2,0:0:0:0:
320,192,112348,1,2,0:0:0:0:
448,192,112648,1,2,0:0:0:0:
64,192,112648,1,0,0:0:0:0:
320,192,112848,1,2,0:0:0:0:
448,192,112948,1,0,0:0:0:0:
192,192,112948,1,2,0:0:0:0:
64,192,113148,1,2,0:0:0:0:
192,192,113248,1,2,0:0:0:0:
448,192,113248,1,8,0:0:0:0:
320,192,113248,1,0,0:0:0:0:
64,192,113448,1,2,0:0:0:0:
448,192,113548,128,2,113848:0:0:0:0:
320,192,113848,1,0,0:0:0:0:
192,192,113848,1,2,0:0:0:0:
448,192,114048,1,2,0:0:0:0:
192,192,114148,1,2,0:0:0:0:
448,192,114348,1,0,0:0:0:0:
320,192,114348,1,2,0:0:0:0:
192,192,114448,1,2,0:0:0:0:
64,192,114448,1,8,0:0:0:0:
448,192,114448,1,0,0:0:0:0:
320,192,114648,1,2,0:0:0:0:
192,192,114748,1,2,0:0:0:0:
320,192,114948,1,2,0:0:0:0:
64,192,115048,1,2,0:0:0:0:
448,192,115048,1,0,0:0:0:0:
192,192,115248,1,2,0:0:0:0:
64,192,115348,1,0,0:0:0:0:
320,192,115348,1,2,0:0:0:0:
448,192,115548,1,2,0:0:0:0:
320,192,115648,1,2,0:0:0:0:
64,192,115648,1,8,0:0:0:0:
192,192,115648,1,0,0:0:0:0:
448,192,115848,1,2,0:0:0:0:
64,192,115948,128,2,116248:0:0:0:0:
192,192,116248,1,0,0:0:0:0:
320,192,116248,1,2,0:0:0:0:
448,192,116448,1,2,0:0:0:0:
192,192,116548,1,2,0:0:0:0:
320,192,116748,1,2,0:0:0:0:
64,192,116748,1,0,0:0:0:0:
192,192,116848,1,0,0:0:0:0:
448,192,116848,1,8,0:0:0:0:
320,192,116848,1,2,0:0:0:0:
64,192,117048,1,2,0:0:0:0:
320,192,117148,1,2,0:0:0:0:
192,192,117348,1,2,0:0:0:0:
64,192,117448,1,0,0:0:0:0:
448,192,117448,1,2,0:0:0:0:
320,192,117648,1,2,0:0:0:0:
192,192,117748,1,2,0:0:0:0:
448,192,117748,1,0,0:0:0:0:
64,192,117948,1,2,0:0:0:0:
320,192,118048,1,0,0:0:0:0:
448,192,118048,1,8,0:0:0:0:
192,192,118048,1,2,0:0:0:0:
64,192,118248,1,2,0:0:0:0:
448,192,118348,128,2,118648:0:0:0:0:
192,192,118648,1,2,0:0:0:0:
320,192,118648,1,0,0:0:0:0:
64,192,118848,1,2,0:0:0:0:
192,192,118948,1,2,0:0:0:0:
448,192,119148,1,0,0:0:0:0:
320,192,119148,1,2,0:0:0:0:
192,192,119248,1,2,0:0:0:0:
64,192,119248,1,8,0:0:0:0:
448,192,119248,1,0,0:0:0:0:
320,192,119448,1,2,0:0:0:0:
192,192,119548,1,2,0:0:0:0:
64,192,119848,1,2,0:0:0:0:
448,192,119848,1,0,0:0:0:0:
192,192,119848,1,4,0:0:0:0:
192,192,120148,1,0,0:0:0:0:
64,192,120148,1,8,0:0:0:0:
320,192,120148,1,2,0:0:0:0:
320,192,120448,1,2,0:0:0:0:
64,192,120448,1,8,0:0:0:0:
192,192,120448,1,0,0:0:0:0:
192,192,120648,1,0,0:0:0:0:
448,192,120648,1,8,3:0:0:0:
320,192,120748,1,8,3:0:0:0:
64,192,120748,1,0,0:0:0:0:
448,192,120948,1,8,3:0:0:0:
64,192,120948,1,0,0:0:0:0:
448,192,121048,1,6,0:0:0:0:
192,192,121048,1,0,0:0:0:0:
320,192,121048,1,2,0:0:0:0:
320,192,121498,1,2,0:0:0:0:
192,192,121498,1,0,0:0:0:0:
448,192,121948,1,8,0:0:0:0:
320,192,121948,1,2,0:0:0:0:
64,192,121948,1,0,0:0:0:0:
192,192,122248,1,2,0:0:0:0:
64,192,122248,1,0,0:0:0:0:
448,192,122848,1,8,0:0:0:0:
192,192,122848,1,0,0:0:0:0:
320,192,122848,1,2,0:0:0:0:
64,192,123148,1,0,0:0:0:0:
448,192,123148,1,8,3:0:0:0:
448,192,123348,1,8,3:0:0:0:
64,192,123348,1,0,0:0:0:0:
320,192,123448,1,2,0:0:0:0:
192,192,123448,1,0,0:0:0:0:
64,192,123948,1,0,0:0:0:0:
320,192,123948,1,2,0:0:0:0:
192,192,124348,1,2,0:0:0:0:
64,192,124348,1,0,0:0:0:0:
448,192,124348,1,8,0:0:0:0:
64,192,124648,1,0,0:0:0:0:
320,192,124648,1,2,0:0:0:0:
320,192,124848,1,8,3:0:0:0:
192,192,124848,1,0,0:0:0:0:
448,192,124948,1,8,3:0:0:0:
64,192,124948,1,0,0:0:0:0:
192,192,125048,1,8,3:0:0:0:
320,192,125148,1,8,3:0:0:0:
64,192,125248,1,0,0:0:0:0:
448,192,125248,1,8,3:0:0:0:
192,192,125348,1,8,3:0:0:0:
320,192,125448,1,8,3:0:0:0:
64,192,125548,1,0,0:0:0:0:
448,192,125548,1,8,3:0:0:0:
448,192,125848,1,2,0:0:0:0:
192,192,125848,1,4,0:0:0:0:
64,192,125848,1,0,0:0:0:0:
320,192,126348,1,2,0:0:0:0:
192,192,126348,1,0,0:0:0:0:
448,192,126748,1,2,0:0:0:0:
320,192,126748,1,8,0:0:0:0:
64,192,126748,1,0,0:0:0:0:
64,192,127048,1,0,0:0:0:0:
448,192,127048,1,2,0:0:0:0:
448,192,127548,1,2,0:0:0:0:
64,192,127548,1,0,0:0:0:0:
64,192,127848,1,0,0:0:0:0:
320,192,127848,1,8,3:0:0:0:
448,192,127948,1,8,3:0:0:0:
192,192,127948,1,0,0:0:0:0:
64,192,128248,128,0,129448:0:0:0:0:
448,192,128248,1,2,0:0:0:0:
320,192,128248,1,4,0:0:0:0:
448,192,129448,128,2,130348:0:0:0:0:
320,192,130348,1,0,0:0:0:0:
64,192,130348,1,8,0:0:0:0:
192,192,130348,1,2,0:0:0:0:
448,192,130648,1,4,0:0:0:0:
192,192,130648,1,2,0:0:0:0:
64,192,130648,1,0,0:0:0:0:
320,192,130798,1,0,0:0:0:0:
192,192,130798,1,2,0:0:0:0:
448,192,130948,1,8,0:0:0:0:
320,192,130948,1,2,0:0:0:0:
64,192,130948,1,0,0:0:0:0:
192,192,131098,1,0,0:0:0:0:
64,192,131248,1,2,0:0:0:0:
320,192,131248,1,0,0:0:0:0:
192,192,131398,1,0,0:0:0:0:
448,192,131398,1,2,0:0:0:0:
320,192,131548,1,2,0:0:0:0:
64,192,131548,1,8,0:0:0:0:
448,192,131548,1,0,0:0:0:0:
192,192,131698,1,0,0:0:0:0:
64,192,131848,1,0,0:0:0:0:
448,192,131848,1,2,0:0:0:0:
192,192,131998,1,2,0:0:0:0:
320,192,131998,1,0,0:0:0:0:
64,192,132148,1,0,0:0:0:0:
448,192,132148,1,8,0:0:0:0:
192,192,132148,1,2,0:0:0:0:
320,192,132298,1,0,0:0:0:0:
192,192,132448,1,2,0:0:0:0:
448,192,132448,1,0,0:0:0:0:
320,192,132598,1,0,0:0:0:0:
64,192,132598,1,2,0:0:0:0:
320,192,132748,1,2,0:0:0:0:
448,192,132748,1,8,0:0:0:0:
192,192,132748,1,0,0:0:0:0:
64,192,132898,1,0,0:0:0:0:
320,192,133048,1,2,0:0:0:0:
448,192,133048,1,0,0:0:0:0:
192,192,133198,1,0,0:0:0:0:
320,192,133198,1,2,0:0:0:0:
64,192,133348,1,8,0:0:0:0:
192,192,133348,1,2,0:0:0:0:
448,192,133348,1,0,0:0:0:0:
320,192,133498,1,0,0:0:0:0:
448,192,133648,1,2,0:0:0:0:
192,192,133648,1,0,0:0:0:0:
320,192,133798,1,0,0:0:0:0:
64,192,133798,1,2,0:0:0:0:
192,192,133948,1,2,0:0:0:0:
448,192,133948,1,8,0:0:0:0:
64,192,133948,1,0,0:0:0:0:
320,192,134098,1,0,0:0:0:0:
448,192,134248,1,0,0:0:0:0:
64,192,134248,1,2,0:0:0:0:
320,192,134398,1,2,0:0:0:0:
192,192,134398,1,0,0:0:0:0:
448,192,134548,1,0,0:0:0:0:
64,192,134548,1,8,0:0:0:0:
320,192,134548,1,2,0:0:0:0:
192,192,134698,1,0,0:0:0:0:
320,192,134848,1,2,0:0:0:0:
64,192,134848,1,0,0:0:0:0:
192,192,134998,1,0,0:0:0:0:
448,192,134998,1,2,0:0:0:0:
192,192,135148,1,2,0:0:0:0:
64,192,135148,1,8,0:0:0:0:
320,192,135148,1,0,0:0:0:0:
448,192,135298,1,0,0:0:0:0:
64,192,135448,1,0,0:0:0:0:
320,192,135448,1,2,0:0:0:0:
320,192,135598,1,2,0:0:0:0:
192,192,135598,1,0,0:0:0:0:
448,192,135748,1,0,0:0:0:0:
192,192,135748,1,2,0:0:0:0:
64,192,135748,1,8,0:0:0:0:
320,192,135898,1,0,0:0:0:0:
192,192,136048,1,0,0:0:0:0:
448,192,136048,1,2,0:0:0:0:
64,192,136198,1,2,0:0:0:0:
320,192,136198,1,0,0:0:0:0:
64,192,136348,1,0,0:0:0:0:
448,192,136348,1,8,0:0:0:0:
192,192,136348,1,2,0:0:0:0:
320,192,136498,1,0,0:0:0:0:
64,192,136648,1,2,0:0:0:0:
448,192,136648,1,0,0:0:0:0:
192,192,136798,1,0,0:0:0:0:
320,192,136798,1,2,0:0:0:0:
320,192,136948,1,2,0:0:0:0:
64,192,136948,1,8,0:0:0:0:
448,192,136948,1,0,0:0:0:0:
192,192,137098,1,0,0:0:0:0:
64,192,137248,1,0,0:0:0:0:
448,192,137248,1,2,0:0:0:0:
320,192,137398,1,2,0:0:0:0:
192,192,137398,1,0,0:0:0:0:
448,192,137548,1,0,0:0:0:0:
64,192,137548,1,8,0:0:0:0:
192,192,137548,1,2,0:0:0:0:
320,192,137698,1,0,0:0:0:0:
192,192,137848,1,2,0:0:0:0:
64,192,137848,1,0,0:0:0:0:
448,192,137998,1,0,0:0:0:0:
320,192,137998,1,2,0:0:0:0:
64,192,138148,1,8,0:0:0:0:
192,192,138148,1,2,0:0:0:0:
320,192,138148,1,0,0:0:0:0:
448,192,138298,1,0,0:0:0:0:
320,192,138448,1,2,0:0:0:0:
192,192,138448,1,0,0:0:0:0:
448,192,138598,1,0,0:0:0:0:
64,192,138598,1,2,0:0:0:0:
320,192,138748,1,2,0:0:0:0:
448,192,138748,1,8,0:0:0:0:
192,192,138748,1,0,0:0:0:0:
64,192,138898,1,0,0:0:0:0:
320,192,139048,1,0,0:0:0:0:
448,192,139048,1,2,0:0:0:0:
64,192,139198,1,2,0:0:0:0:
192,192,139198,1,0,0:0:0:0:
448,192,139198,1,8,0:0:0:0:
448,192,139348,1,8,0:0:0:0:
192,192,139348,1,0,0:0:0:0:
64,192,139348,1,2,0:0:0:0:
320,192,139498,1,8,3:0:0:0:
192,192,139573,1,8,3:0:0:0:
448,192,139648,1,0,0:0:0:0:
64,192,139648,1,8,3:0:0:0:
320,192,139798,1,2,0:0:0:0:
192,192,139798,1,0,0:0:0:0:
448,192,139798,1,8,0:0:0:0:
64,192,139948,1,0,0:0:0:0:
320,192,139948,1,2,0:0:0:0:
64,192,140098,1,2,0:0:0:0:
192,192,140098,1,0,0:0:0:0:
448,192,140098,1,8,0:0:0:0:
64,192,140248,1,4,0:0:0:0:
320,192,140248,1,2,0:0:0:0:
448,192,140248,1,0,0:0:0:0:
192,192,140398,1,0,0:0:0:0:
320,192,140398,1,2,0:0:0:0:
64,192,140548,1,8,0:0:0:0:
192,192,140548,1,2,0:0:0:0:
448,192,140548,1,0,0:0:0:0:
320,192,140698,1,0,0:0:0:0:
448,192,140848,1,2,0:0:0:0:
192,192,140848,1,0,0:0:0:0:
320,192,140998,1,0,0:0:0:0:
64,192,140998,1,2,0:0:0:0:
192,192,141148,1,2,0:0:0:0:
448,192,141148,1,8,0:0:0:0:
64,192,141148,1,0,0:0:0:0:
320,192,141298,1,0,0:0:0:0:
448,192,141448,1,0,0:0:0:0:
64,192,141448,1,2,0:0:0:0:
320,192,141598,1,2,0:0:0:0:
192,192,141598,1,0,0:0:0:0:
448,192,141748,1,0,0:0:0:0:
64,192,141748,1,8,0:0:0:0:
320,192,141748,1,2,0:0:0:0:
192,192,141898,1,0,0:0:0:0:
320,192,142048,1,2,0:0:0:0:
64,192,142048,1,0,0:0:0:0:
192,192,142198,1,0,0:0:0:0:
448,192,142198,1,2,0:0:0:0:
192,192,142348,1,2,0:0:0:0:
64,192,142348,1,8,0:0:0:0:
320,192,142348,1,0,0:0:0:0:
448,192,142498,1,0,0:0:0:0:
192,192,142648,1,2,0:0:0:0:
64,192,142648,1,0,0:0:0:0:
320,192,142798,1,0,0:0:0:0:
192,192,142798,1,2,0:0:0:0:
448,192,142948,1,8,0:0:0:0:
320,192,142948,1,2,0:0:0:0:
64,192,142948,1,0,0:0:0:0:
192,192,143098,1,0,0:0:0:0:
64,192,143248,1,2,0:0:0:0:
320,192,143248,1,0,0:0:0:0:
192,192,143398,1,0,0:0:0:0:
448,192,143398,1,2,0:0:0:0:
320,192,143548,1,2,0:0:0:0:
64,192,143548,1,8,0:0:0:0:
448,192,143548,1,0,0:0:0:0:
192,192,143698,1,0,0:0:0:0:
64,192,143848,1,0,0:0:0:0:
448,192,143848,1,2,0:0:0:0:
192,192,143998,1,2,0:0:0:0:
320,192,143998,1,0,0:0:0:0:
64,192,144148,1,0,0:0:0:0:
448,192,144148,1,8,0:0:0:0:
192,192,144148,1,2,0:0:0:0:
320,192,144298,1,0,0:0:0:0:
192,192,144448,1,2,0:0:0:0:
448,192,144448,1,0,0:0:0:0:
320,192,144598,1,0,0:0:0:0:
64,192,144598,1,2,0:0:0:0:
320,192,144748,1,2,0:0:0:0:
448,192,144748,1,8,0:0:0:0:
192,192,144748,1,0,0:0:0:0:
64,192,144898,1,0,0:0:0:0:
448,192,145048,1,0,0:0:0:0:
192,192,145048,1,2,0:0:0:0:
192,192,145198,1,2,0:0:0:0:
320,192,145198,1,0,0:0:0:0:
64,192,145348,1,0,0:0:0:0:
320,192,145348,1,2,0:0:0:0:
448,192,145348,1,8,0:0:0:0:
192,192,145498,1,0,0:0:0:0:
320,192,145648,1,0,0:0:0:0:
64,192,145648,1,2,0:0:0:0:
448,192,145798,1,2,0:0:0:0:
192,192,145798,1,0,0:0:0:0:
448,192,145948,1,0,0:0:0:0:
64,192,145948,1,8,0:0:0:0:
320,192,145948,1,2,0:0:0:0:
192,192,146098,1,0,0:0:0:0:
448,192,146248,1,2,0:0:0:0:
64,192,146248,1,0,0:0:0:0:
320,192,146398,1,0,0:0:0:0:
192,192,146398,1,2,0:0:0:0:
192,192,146548,1,2,0:0:0:0:
448,192,146548,1,8,0:0:0:0:
64,192,146548,1,0,0:0:0:0:
320,192,146698,1,0,0:0:0:0:
448,192,146848,1,0,0:0:0:0:
64,192,146848,1,2,0:0:0:0:
192,192,146998,1,2,0:0:0:0:
320,192,146998,1,0,0:0:0:0:
64,192,147148,1,0,0:0:0:0:
448,192,147148,1,8,0:0:0:0:
320,192,147148,1,2,0:0:0:0:
192,192,147298,1,0,0:0:0:0:
320,192,147448,1,2,0:0:0:0:
448,192,147448,1,0,0:0:0:0:
64,192,147598,1,0,0:0:0:0:
192,192,147598,1,2,0:0:0:0:
448,192,147748,1,8,0:0:0:0:
320,192,147748,1,2,0:0:0:0:
192,192,147748,1,0,0:0:0:0:
64,192,147898,1,0,0:0:0:0:
448,192,148048,1,2,0:0:0:0:
320,192,148048,1,0,0:0:0:0:
64,192,148198,1,0,0:0:0:0:
192,192,148198,1,2,0:0:0:0:
448,192,148348,1,2,0:0:0:0:
64,192,148348,1,8,0:0:0:0:
320,192,148348,1,0,0:0:0:0:
192,192,148498,1,0,0:0:0:0:
320,192,148573,1,0,0:0:0:0:
64,192,148648,1,0,0:0:0:0:
192,192,148648,1,8,0:0:0:0:
448,192,148648,1,0,0:0:0:0:
320,192,148798,1,0,0:0:0:0:
192,192,148948,1,0,0:0:0:0:
64,192,149098,1,0,0:0:0:0:
320,192,149098,1,8,0:0:0:0:
448,192,149098,1,2,0:0:0:0:
192,192,149248,1,0,0:0:0:0:
320,192,149398,1,0,0:0:0:0:
448,192,149548,1,8,3:0:0:0:
64,192,149548,1,0,0:0:0:0:
192,192,149548,1,8,0:0:0:0:
192,192,149848,1,0,0:0:0:0:
320,192,149848,1,4,0:0:0:0:
64,192,149848,128,2,151048:0:0:0:0:
448,192,150298,1,2,0:0:0:0:
320,192,150298,1,0,0:0:0:0:
448,192,150748,1,2,0:0:0:0:
192,192,150748,1,0,0:0:0:0:
448,192,151048,128,10,152248:0:0:0:0:
320,192,151048,1,0,0:0:0:0:
192,192,151048,1,4,0:0:0:0:
320,192,151948,1,2,0:0:0:0:
64,192,151948,1,0,0:0:0:0:
192,192,152248,1,4,0:0:0:0:
64,192,152248,128,2,153448:0:0:0:0:
320,192,152248,1,0,0:0:0:0:
192,192,152698,1,0,0:0:0:0:
448,192,152698,1,2,0:0:0:0:
448,192,153148,1,2,0:0:0:0:
320,192,153148,1,0,0:0:0:0:
320,192,153448,1,0,0:0:0:0:
192,192,153448,1,4,0:0:0:0:
448,192,153448,1,10,0:0:0:0:
320,192,153748,1,2,0:0:0:0:
192,192,153748,1,0,0:0:0:0:
64,192,153898,1,0,0:0:0:0:
448,192,153898,1,10,0:0:0:0:
192,192,153898,1,4,0:0:0:0:
320,192,154198,1,2,0:0:0:0:
64,192,154198,1,0,0:0:0:0:
192,192,154348,1,4,3:0:0:0:
448,192,154348,1,10,0:0:0:0:
320,192,154348,1,0,0:0:0:0:
448,192,154648,128,2,155848:0:0:0:0:
64,192,154648,1,4,0:0:0:0:
320,192,154648,1,0,0:0:0:0:
192,192,155098,1,2,0:0:0:0:
64,192,155098,1,0,0:0:0:0:
320,192,155548,1,0,0:0:0:0:
192,192,155548,1,2,0:0:0:0:
320,192,155848,1,0,0:0:0:0:
192,192,155848,1,4,0:0:0:0:
64,192,155848,1,10,0:0:0:0:
64,192,156148,1,0,0:0:0:0:
448,192,156148,1,2,0:0:0:0:
192,192,156298,1,2,0:0:0:0:
320,192,156298,1,0,0:0:0:0:
192,192,156448,1,8,0:0:0:0:
64,192,156448,1,0,0:0:0:0:
448,192,156448,1,2,0:0:0:0:
320,192,156898,1,0,0:0:0:0:
192,192,156973,1,0,0:0:0:0:
64,192,157048,1,0,0:0:0:0:
320,192,157048,1,8,0:0:0:0:
448,192,157048,1,2,0:0:0:0:
64,192,157348,1,0,0:0:0:0:
192,192,157348,1,8,0:0:0:0:
448,192,157423,1,8,0:0:0:0:
320,192,157423,1,0,0:0:0:0:
64,192,157498,1,0,0:0:0:0:
192,192,157498,1,8,0:0:0:0:
320,192,157573,1,0,0:0:0:0:
448,192,157573,1,8,0:0:0:0:
64,192,157648,1,0,0:0:0:0:
192,192,157648,1,8,0:0:0:0:
448,192,157723,1,8,0:0:0:0:
320,192,157723,1,0,0:0:0:0:
192,192,157798,1,8,0:0:0:0:
64,192,157798,1,0,0:0:0:0:
320,192,157873,1,0,0:0:0:0:
448,192,157873,1,8,0:0:0:0:
192,192,157948,1,8,0:0:0:0:
64,192,157948,1,0,0:0:0:0:
320,192,158023,1,0,0:0:0:0:
448,192,158023,1,8,0:0:0:0:
64,192,158098,1,0,0:0:0:0:
192,192,158098,1,8,0:0:0:0:
448,192,158173,1,8,0:0:0:0:
320,192,158173,1,0,0:0:0:0:
64,192,158248,1,0,0:0:0:0:
192,192,158248,1,8,0:0:0:0:
448,192,158248,1,2,0:0:0:0:
320,192,159148,1,8,0:0:0:0:
448,192,159148,1,2,0:0:0:0:
64,192,159148,1,0,0:0:0:0:
64,192,159448,1,2,0:0:0:0:
192,192,159448,1,4,0:0:0:0:
448,192,159448,1,0,0:0:0:0:
320,192,159598,1,0,0:0:0:0:
448,192,159598,1,8,0:0:0:0:
192,192,159748,1,0,0:0:0:0:
64,192,159748,1,2,0:0:0:0:
320,192,159823,1,0,0:0:0:0:
448,192,159898,1,8,0:0:0:0:
64,192,159898,1,0,0:0:0:0:
320,192,160048,1,0,0:0:0:0:
192,192,160048,1,2,0:0:0:0:
448,192,160198,1,8,0:0:0:0:
64,192,160198,1,0,0:0:0:0:
192,192,160348,1,0,0:0:0:0:
320,192,160348,1,2,0:0:0:0:
64,192,160423,1,0,0:0:0:0:
320,192,160498,1,0,0:0:0:0:
448,192,160498,1,8,0:0:0:0:
192,192,160573,1,0,0:0:0:0:
64,192,160648,1,0,0:0:0:0:
448,192,160648,1,2,0:0:0:0:
320,192,160798,1,0,0:0:0:0:
192,192,160798,1,8,0:0:0:0:
64,192,160948,1,2,0:0:0:0:
192,192,160948,1,0,0:0:0:0:
448,192,161023,1,0,0:0:0:0:
320,192,161098,1,8,0:0:0:0:
64,192,161098,1,0,0:0:0:0:
192,192,161248,1,2,0:0:0:0:
448,192,161248,1,0,0:0:0:0:
64,192,161323,1,0,0:0:0:0:
448,192,161398,1,8,0:0:0:0:
320,192,161398,1,0,0:0:0:0:
192,192,161548,1,0,0:0:0:0:
64,192,161548,1,2,0:0:0:0:
320,192,161623,1,0,0:0:0:0:
64,192,161698,1,0,0:0:0:0:
448,192,161698,1,8,0:0:0:0:
320,192,161848,1,0,0:0:0:0:
192,192,161848,1,2,0:0:0:0:
64,192,161998,1,0,0:0:0:0:
448,192,161998,1,8,0:0:0:0:
320,192,162148,1,2,0:0:0:0:
192,192,162148,1,0,0:0:0:0:
64,192,162223,1,0,0:0:0:0:
448,192,162298,1,8,0:0:0:0:
192,192,162298,1,0,0:0:0:0:
64,192,162448,1,2,0:0:0:0:
320,192,162448,1,0,0:0:0:0:
448,192,162598,1,8,0:0:0:0:
192,192,162598,1,0,0:0:0:0:
320,192,162748,1,0,0:0:0:0:
64,192,162748,1,2,0:0:0:0:
192,192,162823,1,0,0:0:0:0:
64,192,162898,1,0,0:0:0:0:
448,192,162898,1,8,0:0:0:0:
320,192,163048,1,0,0:0:0:0:
192,192,163048,1,2,0:0:0:0:
64,192,163198,1,0,0:0:0:0:
448,192,163198,1,8,0:0:0:0:
192,192,163348,1,0,0:0:0:0:
320,192,163348,1,2,0:0:0:0:
448,192,163423,1,0,0:0:0:0:
192,192,163498,1,8,0:0:0:0:
64,192,163498,1,0,0:0:0:0:
448,192,163648,1,2,0:0:0:0:
320,192,163648,1,0,0:0:0:0:
64,192,163798,1,8,0:0:0:0:
192,192,163798,1,0,0:0:0:0:
320,192,163948,1,0,0:0:0:0:
448,192,163948,1,2,0:0:0:0:
64,192,164023,1,0,0:0:0:0:
320,192,164098,1,0,0:0:0:0:
192,192,164098,1,8,0:0:0:0:
64,192,164248,1,0,0:0:0:0:
448,192,164248,1,2,0:0:0:0:
192,192,164398,1,8,0:0:0:0:
320,192,164398,1,0,0:0:0:0:
448,192,164548,1,0,0:0:0:0:
64,192,164548,1,2,0:0:0:0:
320,192,164623,1,0,0:0:0:0:
192,192,164698,1,0,0:0:0:0:
448,192,164698,1,8,0:0:0:0:
320,192,164848,1,0,0:0:0:0:
64,192,164848,1,2,0:0:0:0:
192,192,164998,1,0,0:0:0:0:
448,192,164998,1,8,0:0:0:0:
64,192,165148,1,2,0:0:0:0:
320,192,165148,1,0,0:0:0:0:
192,192,165223,1,0,0:0:0:0:
448,192,165298,1,8,0:0:0:0:
320,192,165298,1,0,0:0:0:0:
192,192,165448,1,2,0:0:0:0:
64,192,165448,1,0,0:0:0:0:
448,192,165598,1,8,0:0:0:0:
320,192,165598,1,0,0:0:0:0:
192,192,165748,1,0,0:0:0:0:
64,192,165748,1,2,0:0:0:0:
320,192,165823,1,0,0:0:0:0:
64,192,165898,1,0,0:0:0:0:
448,192,165898,1,8,0:0:0:0:
320,192,166048,1,0,0:0:0:0:
192,192,166048,1,2,0:0:0:0:
320,192,166198,1,0,0:0:0:0:
64,192,166198,1,8,0:0:0:0:
448,192,166348,1,0,0:0:0:0:
192,192,166348,1,2,0:0:0:0:
320,192,166423,1,0,0:0:0:0:
64,192,166498,1,0,0:0:0:0:
192,192,166498,1,8,0:0:0:0:
448,192,166648,1,0,0:0:0:0:
320,192,166648,1,2,0:0:0:0:
64,192,166798,1,0,0:0:0:0:
192,192,166798,1,8,0:0:0:0:
320,192,166948,1,0,0:0:0:0:
448,192,166948,1,2,0:0:0:0:
192,192,167023,1,0,0:0:0:0:
64,192,167098,1,8,0:0:0:0:
448,192,167098,1,0,0:0:0:0:
320,192,167248,1,2,0:0:0:0:
192,192,167248,1,0,0:0:0:0:
64,192,167398,1,0,0:0:0:0:
448,192,167398,1,8,0:0:0:0:
320,192,167548,1,0,0:0:0:0:
64,192,167548,1,2,0:0:0:0:
192,192,167623,1,0,0:0:0:0:
320,192,167698,1,8,0:0:0:0:
448,192,167698,1,0,0:0:0:0:
192,192,167848,1,4,0:0:0:0:
64,192,167848,1,2,0:0:0:0:
448,192,167848,1,0,0:0:0:0:
448,192,168005,1,0,0:0:0:0:
320,192,168005,1,8,0:0:0:0:
192,192,168163,1,0,0:0:0:0:
64,192,168321,1,8,0:0:0:0:
448,192,168321,1,0,0:0:0:0:
320,192,168479,1,0,0:0:0:0:
64,192,168479,1,2,0:0:0:0:
192,192,168479,1,4,0:0:0:0:
320,192,168645,1,8,0:0:0:0:
448,192,168645,1,0,0:0:0:0:
192,192,168812,1,0,0:0:0:0:
64,192,168979,1,0,0:0:0:0:
320,192,168979,1,8,0:0:0:0:
448,192,169145,1,0,0:0:0:0:
192,192,169145,1,4,0:0:0:0:
64,192,169145,1,2,0:0:0:0:
320,192,169380,1,0,0:0:0:0:
192,192,169380,1,8,0:0:0:0:
192,192,169615,1,8,0:0:0:0:
320,192,169615,1,0,0:0:0:0:
448,192,169850,1,0,0:0:0:0:
64,192,169850,1,2,0:0:0:0:
320,192,169850,1,4,0:0:0:0:
448,192,170100,1,0,0:0:0:0:
192,192,170100,1,8,0:0:0:0:
192,192,170350,1,8,0:0:0:0:
448,192,170350,1,0,0:0:0:0:
320,192,170600,1,4,0:0:0:0:
448,192,170600,1,0,0:0:0:0:
64,192,170600,128,2,171266:0:0:0:0:
192,192,171266,1,0,0:0:0:0:
320,192,171333,1,0,0:0:0:0:
192,192,171400,1,8,0:0:0:0:
64,192,171400,1,4,0:0:0:0:
448,192,171400,1,0,0:0:0:0:
448,192,172050,1,0,0:0:0:0:
320,192,172050,1,4,0:0:0:0:
64,192,172050,128,2,172250:0:0:0:0:
320,192,172250,1,4,0:0:0:0:
192,192,172250,1,2,0:0:0:0:
448,192,172250,128,0,172400:0:0:0:0:
64,192,172400,1,2,0:0:0:0:
320,192,172400,1,4,0:0:0:0:
192,192,172400,128,0,172587:0:0:0:0:
64,192,172587,1,2,0:0:0:0:
448,192,172587,1,0,0:0:0:0:
320,192,172587,128,4,172729:0:0:0:0:
448,192,172729,1,0,0:0:0:0:
192,192,172729,1,4,0:0:0:0:
64,192,172729,128,2,172905:0:0:0:0:
320,192,172905,1,4,0:0:0:0:
192,192,172905,1,2,0:0:0:0:
448,192,172905,128,0,173092:0:0:0:0:
64,192,173092,1,2,0:0:0:0:
320,192,173092,1,4,0:0:0:0:
192,192,173092,128,0,173984:0:0:0:0:
448,192,173984,1,2,0:0:0:0:
320,192,173984,1,0,0:0:0:0:
192,192,174134,1,4,0:0:0:0:
64,192,174134,1,2,0:0:0:0:
448,192,174134,1,0,0:0:0:0:
