osu file format v14

[General]
AudioFilename: audio.mp3
AudioLeadIn: 0
PreviewTime: 60117
Countdown: 0
SampleSet: Normal
StackLeniency: 0.7
Mode: 3
LetterboxInBreaks: 0
SpecialStyle: 0
WidescreenStoryboard: 0

[Editor]
DistanceSpacing: 1
BeatDivisor: 4
GridSize: 4
TimelineZoom: 2.2

[Metadata]
Title:LET iT END
TitleUnicode:LET iT END
Artist:SiM
ArtistUnicode:SiM
Creator:puxtu
Version:MAXiMUM
Source:神撃のバハムート VIRGIN SOUL
Tags:Silenze Iz Mine Cygames shingeki no bahamut sin mah godri show-hate reggae punk hard core screamo ska opening theme season two
BeatmapID:1281524
BeatmapSetID:606657

[Difficulty]
HPDrainRate:8.5
CircleSize:4
OverallDifficulty:8.5
ApproachRate:5
SliderMultiplier:1.4
SliderTickRate:1

[Events]
//Background and Video events
0,0,"Azazel.(Shingeki.no.Bahamut).full.1854115.jpg",0,0
//Break Periods
//Storyboard Layer 0 (Background)
//Storyboard Layer 1 (Fail)
//Storyboard Layer 2 (Pass)
//Storyboard Layer 3 (Foreground)
//Storyboard Sound Samples

[TimingPoints]
117,280.373831775701,4,1,4,50,1,0
13574,-100,4,1,4,50,0,1
22546,-100,4,1,4,50,0,0
42733,-100,4,1,4,50,0,1
58434,-100,4,1,4,50,0,0
60677,-100,4,1,4,50,0,1
69649,-100,4,1,4,50,0,0

[HitObjects]
192,192,117,5,2,0:0:0:0:
448,192,117,1,0,0:0:0:0:
64,192,117,1,8,0:0:0:0:
320,192,397,1,0,0:0:0:0:
64,192,537,1,8,0:0:0:0:
448,192,537,1,0,0:0:0:0:
192,192,537,1,2,0:0:0:0:
320,192,817,1,0,0:0:0:0:
64,192,817,1,2,0:0:0:0:
320,192,958,1,2,0:0:0:0:
448,192,958,1,0,0:0:0:0:
64,192,958,1,8,0:0:0:0:
64,192,1238,1,8,0:0:0:0:
448,192,1238,1,0,0:0:0:0:
320,192,1238,1,2,0:0:0:0:
192,192,1518,1,0,0:0:0:0:
320,192,1659,1,2,0:0:0:0:
448,192,1659,1,0,0:0:0:0:
64,192,1659,1,8,0:0:0:0:
192,192,1939,1,0,0:0:0:0:
448,192,1939,1,2,0:0:0:0:
320,192,2079,1,8,0:0:0:0:
448,192,2079,1,0,0:0:0:0:
192,192,2079,1,2,0:0:0:0:
192,192,2359,1,2,0:0:0:0:
448,192,2359,1,0,0:0:0:0:
320,192,2359,1,8,0:0:0:0:
64,192,2640,1,0,0:0:0:0:
320,192,2780,1,8,0:0:0:0:
448,192,2780,1,0,0:0:0:0:
192,192,2780,1,2,0:0:0:0:
320,192,3060,1,0,0:0:0:0:
64,192,3060,1,2,0:0:0:0:
192,192,3201,1,2,0:0:0:0:
320,192,3201,1,0,0:0:0:0:
64,192,3201,1,8,0:0:0:0:
64,192,3481,1,8,0:0:0:0:
320,192,3481,1,0,0:0:0:0:
192,192,3481,1,2,0:0:0:0:
448,192,3761,1,0,0:0:0:0:
320,192,3902,1,0,0:0:0:0:
64,192,3902,1,8,0:0:0:0:
192,192,3902,1,2,0:0:0:0:
192,192,4182,1,2,0:0:0:0:
64,192,4182,1,8,0:0:0:0:
320,192,4182,1,0,0:0:0:0:
192,192,4322,1,2,0:0:0:0:
320,192,4322,1,0,0:0:0:0:
64,192,4322,1,8,0:0:0:0:
448,192,4602,1,8,0:0:0:0:
64,192,4602,1,0,0:0:0:0:
192,192,4602,1,2,0:0:0:0:
320,192,4813,1,0,0:0:0:0:
64,192,4883,1,2,0:0:0:0:
448,192,4883,1,0,0:0:0:0:
192,192,4883,1,8,0:0:0:0:
320,192,5023,1,0,0:0:0:0:
64,192,5023,1,2,0:0:0:0:
448,192,5163,1,2,0:0:0:0:
64,192,5163,1,0,0:0:0:0:
192,192,5163,1,8,0:0:0:0:
448,192,5303,1,2,0:0:0:0:
320,192,5303,1,0,0:0:0:0:
192,192,5374,1,0,0:0:0:0:
64,192,5444,1,0,0:0:0:0:
320,192,5444,1,8,0:0:0:0:
448,192,5584,1,2,0:0:0:0:
192,192,5584,1,0,0:0:0:0:
320,192,5724,1,8,0:0:0:0:
448,192,5724,1,0,0:0:0:0:
64,192,5724,1,2,0:0:0:0:
192,192,5934,1,0,0:0:0:0:
320,192,6004,1,2,0:0:0:0:
448,192,6004,1,0,0:0:0:0:
64,192,6004,1,8,0:0:0:0:
320,192,6145,1,0,0:0:0:0:
192,192,6145,1,2,0:0:0:0:
192,192,6285,1,2,0:0:0:0:
448,192,6285,1,0,0:0:0:0:
64,192,6285,1,8,0:0:0:0:
320,192,6425,1,2,0:0:0:0:
448,192,6425,1,0,0:0:0:0:
64,192,6495,1,0,0:0:0:0:
448,192,6565,1,0,0:0:0:0:
192,192,6565,1,8,0:0:0:0:
320,192,6705,1,2,0:0:0:0:
64,192,6705,1,0,0:0:0:0:
192,192,6845,1,8,0:0:0:0:
448,192,6845,1,0,0:0:0:0:
320,192,6845,1,2,0:0:0:0:
64,192,7056,1,0,0:0:0:0:
448,192,7126,1,2,0:0:0:0:
192,192,7126,1,8,0:0:0:0:
320,192,7126,1,0,0:0:0:0:
320,192,7266,1,2,0:0:0:0:
64,192,7266,1,0,0:0:0:0:
448,192,7406,1,2,0:0:0:0:
64,192,7406,1,8,0:0:0:0:
192,192,7406,1,0,0:0:0:0:
448,192,7546,1,0,0:0:0:0:
320,192,7546,1,2,0:0:0:0:
192,192,7617,1,0,0:0:0:0:
64,192,7687,1,8,0:0:0:0:
320,192,7687,1,0,0:0:0:0:
192,192,7827,1,0,0:0:0:0:
448,192,7827,1,2,0:0:0:0:
448,192,7967,1,0,0:0:0:0:
320,192,7967,1,8,0:0:0:0:
64,192,7967,1,2,0:0:0:0:
192,192,8177,1,0,0:0:0:0:
448,192,8247,1,2,0:0:0:0:
64,192,8247,1,0,0:0:0:0:
320,192,8247,1,8,0:0:0:0:
192,192,8388,1,0,0:0:0:0:
320,192,8388,1,2,0:0:0:0:
64,192,8528,1,2,0:0:0:0:
448,192,8528,1,0,0:0:0:0:
192,192,8528,1,8,0:0:0:0:
320,192,8668,1,0,0:0:0:0:
64,192,8668,1,2,0:0:0:0:
192,192,8738,1,0,0:0:0:0:
448,192,8808,1,0,0:0:0:0:
320,192,8808,1,8,0:0:0:0:
192,192,8948,1,0,0:0:0:0:
64,192,8948,1,2,0:0:0:0:
320,192,9088,1,2,0:0:0:0:
448,192,9088,1,8,0:0:0:0:
64,192,9088,1,0,0:0:0:0:
320,192,9299,1,0,0:0:0:0:
448,192,9369,1,2,0:0:0:0:
192,192,9369,1,8,0:0:0:0:
64,192,9369,1,0,0:0:0:0:
320,192,9509,1,0,0:0:0:0:
64,192,9509,1,2,0:0:0:0:
64,192,9649,1,2,0:0:0:0:
192,192,9649,1,8,0:0:0:0:
448,192,9649,1,0,0:0:0:0:
320,192,9789,1,0,0:0:0:0:
192,192,9789,1,2,0:0:0:0:
448,192,9859,1,0,0:0:0:0:
64,192,9930,1,8,0:0:0:0:
320,192,9930,1,0,0:0:0:0:
448,192,10070,1,0,0:0:0:0:
192,192,10070,1,2,0:0:0:0:
320,192,10210,1,2,0:0:0:0:
64,192,10210,1,0,0:0:0:0:
192,192,10210,1,8,0:0:0:0:
448,192,10420,1,0,0:0:0:0:
192,192,10490,1,2,0:0:0:0:
64,192,10490,1,0,0:0:0:0:
320,192,10490,1,8,0:0:0:0:
448,192,10631,1,0,0:0:0:0:
192,192,10631,1,2,0:0:0:0:
64,192,10771,1,2,0:0:0:0:
448,192,10771,1,0,0:0:0:0:
320,192,10771,1,8,0:0:0:0:
192,192,10911,1,0,0:0:0:0:
64,192,10911,1,2,0:0:0:0:
320,192,10981,1,0,0:0:0:0:
448,192,11051,1,0,0:0:0:0:
192,192,11051,1,8,0:0:0:0:
320,192,11191,1,0,0:0:0:0:
64,192,11191,1,2,0:0:0:0:
192,192,11331,1,2,0:0:0:0:
448,192,11331,1,8,0:0:0:0:
64,192,11331,1,0,0:0:0:0:
320,192,11542,1,0,0:0:0:0:
64,192,11612,1,2,0:0:0:0:
192,192,11612,1,8,0:0:0:0:
448,192,11612,1,0,0:0:0:0:
448,192,11752,1,0,0:0:0:0:
320,192,11752,1,2,0:0:0:0:
192,192,11892,1,8,0:0:0:0:
64,192,11892,1,0,0:0:0:0:
320,192,11892,1,2,0:0:0:0:
448,192,12032,1,0,0:0:0:0:
64,192,12032,1,2,0:0:0:0:
192,192,12102,1,0,0:0:0:0:
448,192,12173,1,8,0:0:0:0:
320,192,12173,1,0,0:0:0:0:
192,192,12313,1,0,0:0:0:0:
64,192,12313,1,2,0:0:0:0:
448,192,12453,1,2,0:0:0:0:
64,192,12453,1,0,0:0:0:0:
320,192,12453,1,8,0:0:0:0:
320,192,12593,1,2,0:0:0:0:
448,192,12593,1,8,0:0:0:0:
64,192,12593,1,0,0:0:0:0:
64,192,12733,1,2,0:0:0:0:
448,192,12733,1,0,0:0:0:0:
320,192,12733,1,8,0:0:0:0:
448,192,12874,1,0,0:0:0:0:
320,192,12874,1,4,2:0:0:0:
64,192,12874,128,2,13154:0:0:0:0:
448,192,13154,1,0,0:0:0:0:
192,192,13154,1,2,0:0:0:0:
448,192,13574,1,0,0:0:0:0:
320,192,13574,1,4,0:0:0:0:
64,192,13574,1,2,0:0:0:0:
448,192,13715,1,2,0:0:0:0:
192,192,13715,1,8,0:0:0:0:
64,192,13715,1,0,0:0:0:0:
320,192,13855,1,0,0:0:0:0:
64,192,13995,1,0,0:0:0:0:
320,192,14135,1,2,0:0:0:0:
192,192,14135,1,0,0:0:0:0:
448,192,14135,1,8,0:0:0:0:
320,192,14275,1,0,0:0:0:0:
64,192,14275,128,2,14556:0:0:0:0:
320,192,14556,1,2,0:0:0:0:
192,192,14556,1,0,0:0:0:0:
448,192,14556,1,8,0:0:0:0:
64,192,14696,1,0,0:0:0:0:
448,192,14836,1,0,0:0:0:0:
192,192,14836,1,8,0:0:0:0:
320,192,14836,1,2,0:0:0:0:
64,192,14976,1,0,0:0:0:0:
320,192,15117,1,0,0:0:0:0:
448,192,15257,1,2,0:0:0:0:
192,192,15257,1,0,0:0:0:0:
64,192,15257,1,8,0:0:0:0:
320,192,15397,1,0,0:0:0:0:
448,192,15397,128,2,15677:0:0:0:0:
192,192,15677,1,2,0:0:0:0:
320,192,15677,1,0,0:0:0:0:
64,192,15677,1,8,0:0:0:0:
448,192,15817,1,0,0:0:0:0:
192,192,15958,1,2,0:0:0:0:
320,192,15958,1,8,0:0:0:0:
64,192,15958,1,0,0:0:0:0:
448,192,16098,1,0,0:0:0:0:
64,192,16238,1,0,0:0:0:0:
448,192,16378,1,2,0:0:0:0:
192,192,16378,1,0,0:0:0:0:
320,192,16378,1,8,0:0:0:0:
64,192,16518,128,2,16799:0:0:0:0:
320,192,16518,1,0,0:0:0:0:
320,192,16799,1,0,0:0:0:0:
192,192,16869,1,0,0:0:0:0:
320,192,16939,1,2,0:0:0:0:
64,192,16939,1,0,0:0:0:0:
448,192,16939,1,8,0:0:0:0:
192,192,17079,1,0,0:0:0:0:
320,192,17219,1,0,0:0:0:0:
448,192,17359,1,2,0:0:0:0:
192,192,17359,1,8,0:0:0:0:
64,192,17359,1,0,0:0:0:0:
320,192,17640,1,2,0:0:0:0:
192,192,17640,1,0,0:0:0:0:
320,192,17780,1,8,0:0:0:0:
448,192,17780,1,0,0:0:0:0:
64,192,17780,1,2,0:0:0:0:
64,192,18060,1,0,0:0:0:0:
192,192,18060,1,4,0:0:0:0:
448,192,18060,1,2,0:0:0:0:
320,192,18201,1,8,0:0:0:0:
448,192,18201,1,0,0:0:0:0:
64,192,18201,1,2,0:0:0:0:
192,192,18341,1,0,0:0:0:0:
320,192,18481,1,0,0:0:0:0:
448,192,18621,1,2,0:0:0:0:
192,192,18621,1,0,0:0:0:0:
64,192,18621,1,8,0:0:0:0:
320,192,18761,1,0,0:0:0:0:
448,192,18761,128,2,19042:0:0:0:0:
192,192,19042,1,2,0:0:0:0:
320,192,19042,1,0,0:0:0:0:
64,192,19042,1,8,0:0:0:0:
448,192,19182,1,0,0:0:0:0:
320,192,19322,1,2,0:0:0:0:
64,192,19322,1,0,0:0:0:0:
192,192,19322,1,8,0:0:0:0:
448,192,19462,1,0,0:0:0:0:
192,192,19602,1,0,0:0:0:0:
320,192,19743,1,0,0:0:0:0:
448,192,19743,1,8,0:0:0:0:
64,192,19743,1,2,0:0:0:0:
192,192,19883,1,0,0:0:0:0:
64,192,19883,128,2,20163:0:0:0:0:
192,192,20163,1,0,0:0:0:0:
448,192,20163,1,8,0:0:0:0:
320,192,20163,1,2,0:0:0:0:
64,192,20303,1,0,0:0:0:0:
320,192,20444,1,2,0:0:0:0:
192,192,20444,1,8,0:0:0:0:
448,192,20444,1,0,0:0:0:0:
64,192,20584,1,0,0:0:0:0:
448,192,20724,1,0,0:0:0:0:
64,192,20864,1,2,0:0:0:0:
320,192,20864,1,0,0:0:0:0:
192,192,20864,1,8,0:0:0:0:
448,192,21004,128,2,21285:0:0:0:0:
192,192,21004,1,0,0:0:0:0:
192,192,21285,1,0,0:0:0:0:
320,192,21355,1,0,0:0:0:0:
448,192,21425,1,0,0:0:0:0:
64,192,21425,1,8,0:0:0:0:
192,192,21425,1,2,0:0:0:0:
320,192,21705,1,2,0:0:0:0:
64,192,21705,1,0,0:0:0:0:
192,192,21845,1,8,0:0:0:0:
448,192,21845,1,0,0:0:0:0:
64,192,21845,1,2,0:0:0:0:
320,192,22126,1,2,0:0:0:0:
448,192,22126,1,0,0:0:0:0:
192,192,22266,1,8,0:0:0:0:
448,192,22266,1,2,0:0:0:0:
64,192,22266,128,0,22546:0:0:0:0:
448,192,22546,1,4,0:0:0:0:
192,192,22546,1,0,0:0:0:0:
320,192,22546,1,2,0:0:0:0:
64,192,22687,1,0,0:0:0:0:
320,192,22827,1,8,0:0:0:0:
448,192,22827,1,0,0:0:0:0:
192,192,22827,1,2,0:0:0:0:
448,192,22967,1,2,0:0:0:0:
64,192,22967,1,0,0:0:0:0:
320,192,23247,1,0,0:0:0:0:
192,192,23247,1,2,0:0:0:0:
64,192,23388,1,0,0:0:0:0:
192,192,23388,1,8,0:0:0:0:
448,192,23388,1,2,0:0:0:0:
320,192,23668,1,0,0:0:0:0:
64,192,23668,128,2,24789:0:0:0:0:
192,192,23948,1,0,0:0:0:0:
320,192,23948,1,8,0:0:0:0:
448,192,23948,1,2,0:0:0:0:
320,192,24088,1,0,0:0:0:0:
320,192,24369,1,0,0:0:0:0:
192,192,24509,1,0,0:0:0:0:
448,192,24509,1,2,0:0:0:0:
320,192,24509,1,8,0:0:0:0:
320,192,24789,1,0,0:0:0:0:
192,192,24789,1,2,0:0:0:0:
448,192,24930,1,0,0:0:0:0:
320,192,25070,1,2,0:0:0:0:
192,192,25070,1,8,0:0:0:0:
64,192,25070,1,0,0:0:0:0:
64,192,25210,1,2,0:0:0:0:
448,192,25210,1,0,0:0:0:0:
320,192,25490,1,0,0:0:0:0:
192,192,25490,1,2,0:0:0:0:
448,192,25631,1,0,0:0:0:0:
192,192,25631,1,8,0:0:0:0:
64,192,25631,1,2,0:0:0:0:
320,192,25911,1,0,0:0:0:0:
448,192,25911,1,2,0:0:0:0:
64,192,26051,1,0,0:0:0:0:
448,192,26191,1,2,0:0:0:0:
320,192,26191,1,0,0:0:0:0:
192,192,26191,1,8,0:0:0:0:
64,192,26331,1,2,0:0:0:0:
320,192,26331,1,0,0:0:0:0:
64,192,26612,1,0,0:0:0:0:
448,192,26612,1,2,0:0:0:0:
320,192,26752,1,0,0:0:0:0:
192,192,26752,1,2,0:0:0:0:
448,192,26752,1,8,0:0:0:0:
64,192,27032,1,2,0:0:0:0:
320,192,27032,1,0,0:0:0:0:
448,192,27173,1,0,0:0:0:0:
320,192,27313,1,2,0:0:0:0:
64,192,27313,1,0,0:0:0:0:
192,192,27313,1,8,0:0:0:0:
448,192,27453,1,0,0:0:0:0:
192,192,27453,1,2,0:0:0:0:
64,192,27733,1,0,0:0:0:0:
320,192,27733,1,2,0:0:0:0:
192,192,27874,1,2,0:0:0:0:
320,192,27874,1,8,0:0:0:0:
448,192,27874,1,0,0:0:0:0:
448,192,28154,128,2,29275:0:0:0:0:
64,192,28154,1,0,0:0:0:0:
64,192,28434,1,2,0:0:0:0:
192,192,28434,1,8,0:0:0:0:
320,192,28434,1,0,0:0:0:0:
192,192,28574,1,0,0:0:0:0:
192,192,28855,1,0,0:0:0:0:
192,192,28995,1,8,0:0:0:0:
64,192,28995,1,2,0:0:0:0:
320,192,28995,1,0,0:0:0:0:
320,192,29275,1,0,0:0:0:0:
64,192,29275,1,2,0:0:0:0:
448,192,29416,1,0,0:0:0:0:
320,192,29556,1,2,0:0:0:0:
192,192,29556,1,8,0:0:0:0:
64,192,29556,1,0,0:0:0:0:
192,192,29696,1,2,0:0:0:0:
448,192,29696,1,0,0:0:0:0:
64,192,29976,1,0,0:0:0:0:
448,192,29976,1,2,0:0:0:0:
448,192,30117,1,0,0:0:0:0:
320,192,30117,1,8,0:0:0:0:
192,192,30117,1,2,0:0:0:0:
64,192,30397,1,0,0:0:0:0:
320,192,30397,1,2,0:0:0:0:
192,192,30537,1,0,0:0:0:0:
448,192,30677,1,2,0:0:0:0:
320,192,30677,1,0,0:0:0:0:
64,192,30677,1,8,0:0:0:0:
448,192,30817,1,2,0:0:0:0:
192,192,30817,1,0,0:0:0:0:
448,192,31098,1,0,0:0:0:0:
192,192,31098,1,2,0:0:0:0:
320,192,31238,1,0,0:0:0:0:
64,192,31238,1,2,0:0:0:0:
192,192,31238,1,8,0:0:0:0:
320,192,31518,1,0,0:0:0:0:
448,192,31518,1,2,0:0:0:0:
64,192,31659,1,0,0:0:0:0:
320,192,31799,1,8,0:0:0:0:
448,192,31799,1,0,0:0:0:0:
192,192,31799,1,2,0:0:0:0:
192,192,31939,1,2,0:0:0:0:
64,192,31939,1,0,0:0:0:0:
320,192,32219,1,0,0:0:0:0:
192,192,32219,1,2,0:0:0:0:
64,192,32359,1,0,0:0:0:0:
192,192,32359,1,8,0:0:0:0:
448,192,32359,1,2,0:0:0:0:
320,192,32640,1,0,0:0:0:0:
64,192,32640,128,2,33761:0:0:0:0:
192,192,32920,1,0,0:0:0:0:
320,192,32920,1,8,0:0:0:0:
448,192,32920,1,2,0:0:0:0:
192,192,33060,1,0,0:0:0:0:
448,192,33341,1,0,0:0:0:0:
192,192,33481,1,0,0:0:0:0:
448,192,33481,1,2,0:0:0:0:
320,192,33481,1,8,0:0:0:0:
320,192,33761,1,0,0:0:0:0:
192,192,33761,1,2,0:0:0:0:
448,192,33902,1,0,0:0:0:0:
320,192,34042,1,2,0:0:0:0:
192,192,34042,1,8,0:0:0:0:
64,192,34042,1,0,0:0:0:0:
64,192,34182,1,2,0:0:0:0:
448,192,34182,1,0,0:0:0:0:
320,192,34462,1,0,0:0:0:0:
64,192,34462,1,2,0:0:0:0:
448,192,34602,1,0,0:0:0:0:
192,192,34602,1,8,0:0:0:0:
64,192,34602,1,2,0:0:0:0:
320,192,34883,1,0,0:0:0:0:
64,192,34883,1,2,0:0:0:0:
192,192,35023,1,0,0:0:0:0:
448,192,35163,1,2,0:0:0:0:
320,192,35163,1,0,0:0:0:0:
64,192,35163,1,8,0:0:0:0:
448,192,35303,1,2,0:0:0:0:
192,192,35303,1,0,0:0:0:0:
64,192,35584,1,0,0:0:0:0:
192,192,35584,1,2,0:0:0:0:
320,192,35724,1,0,0:0:0:0:
192,192,35724,1,2,0:0:0:0:
448,192,35724,1,8,0:0:0:0:
64,192,36004,1,2,0:0:0:0:
320,192,36004,1,0,0:0:0:0:
448,192,36145,1,0,0:0:0:0:
320,192,36285,1,2,0:0:0:0:
64,192,36285,1,0,0:0:0:0:
192,192,36285,1,8,0:0:0:0:
448,192,36425,1,0,0:0:0:0:
192,192,36425,1,2,0:0:0:0:
320,192,36705,1,0,0:0:0:0:
64,192,36705,1,2,0:0:0:0:
64,192,36845,1,2,0:0:0:0:
192,192,36845,1,8,0:0:0:0:
448,192,36845,1,0,0:0:0:0:
448,192,37126,128,2,38247:0:0:0:0:
320,192,37126,1,0,0:0:0:0:
64,192,37406,1,2,0:0:0:0:
192,192,37406,1,8,0:0:0:0:
320,192,37406,1,0,0:0:0:0:
64,192,37546,1,0,0:0:0:0:
320,192,37827,1,0,0:0:0:0:
192,192,37967,1,8,0:0:0:0:
64,192,37967,1,2,0:0:0:0:
320,192,37967,1,0,0:0:0:0:
64,192,38247,1,0,0:0:0:0:
192,192,38247,1,2,0:0:0:0:
448,192,38388,1,0,0:0:0:0:
320,192,38528,1,2,0:0:0:0:
192,192,38528,1,8,0:0:0:0:
64,192,38528,1,0,0:0:0:0:
320,192,38668,1,2,0:0:0:0:
448,192,38668,1,0,0:0:0:0:
64,192,38948,1,0,0:0:0:0:
192,192,38948,1,2,0:0:0:0:
448,192,39088,1,0,0:0:0:0:
320,192,39088,1,8,0:0:0:0:
64,192,39088,1,2,0:0:0:0:
192,192,39369,1,0,0:0:0:0:
448,192,39369,1,2,0:0:0:0:
64,192,39509,1,0,0:0:0:0:
448,192,39649,1,2,0:0:0:0:
320,192,39649,1,0,0:0:0:0:
192,192,39649,1,8,0:0:0:0:
448,192,39789,1,2,0:0:0:0:
64,192,39789,1,0,0:0:0:0:
448,192,40070,1,0,0:0:0:0:
192,192,40070,1,2,0:0:0:0:
320,192,40210,1,0,0:0:0:0:
64,192,40210,1,2,0:0:0:0:
192,192,40210,1,8,0:0:0:0:
64,192,40490,1,0,0:0:0:0:
448,192,40490,1,2,0:0:0:0:
192,192,40631,1,0,0:0:0:0:
320,192,40631,1,8,0:0:0:0:
448,192,40631,1,2,0:0:0:0:
64,192,40771,1,0,0:0:0:0:
320,192,40911,1,0,0:0:0:0:
64,192,41051,1,8,0:0:0:0:
448,192,41051,1,2,0:0:0:0:
192,192,41051,1,0,0:0:0:0:
320,192,41191,1,0,0:0:0:0:
64,192,41191,1,2,0:0:0:0:
192,192,41425,1,0,0:0:0:0:
448,192,41425,1,2,0:0:0:0:
320,192,41425,1,8,0:0:0:0:
64,192,41612,1,2,0:0:0:0:
448,192,41612,1,0,0:0:0:0:
320,192,41752,1,0,0:0:0:0:
64,192,41892,1,0,0:0:0:0:
192,192,41892,1,2,0:0:0:0:
320,192,42032,1,0,0:0:0:0:
64,192,42173,1,8,0:0:0:0:
448,192,42173,1,2,0:0:0:0:
192,192,42173,1,0,0:0:0:0:
320,192,42313,1,0,0:0:0:0:
448,192,42313,1,2,0:0:0:0:
64,192,42733,1,2,0:0:0:0:
192,192,42733,1,4,0:0:0:0:
448,192,42733,1,0,0:0:0:0:
320,192,42874,1,2,0:0:0:0:
64,192,42874,1,0,0:0:0:0:
192,192,43154,1,2,0:0:0:0:
448,192,43154,1,0,0:0:0:0:
64,192,43294,1,0,0:0:0:0:
448,192,43294,1,8,0:0:0:0:
320,192,43294,1,2,0:0:0:0:
192,192,43574,1,2,0:0:0:0:
64,192,43574,1,0,0:0:0:0:
320,192,43715,1,2,0:0:0:0:
448,192,43715,1,0,0:0:0:0:
192,192,44135,1,2,0:0:0:0:
320,192,44135,1,0,0:0:0:0:
64,192,44416,1,0,0:0:0:0:
192,192,44416,1,2,0:0:0:0:
448,192,44416,1,8,0:0:0:0:
192,192,44556,1,2,0:0:0:0:
320,192,44556,1,0,0:0:0:0:
448,192,44836,1,8,0:0:0:0:
320,192,44836,1,2,0:0:0:0:
64,192,44836,1,0,0:0:0:0:
320,192,44976,1,0,0:0:0:0:
192,192,44976,1,2,0:0:0:0:
64,192,44976,1,4,0:0:0:0:
192,192,45117,1,0,0:0:0:0:
448,192,45117,1,2,0:0:0:0:
320,192,45397,1,2,0:0:0:0:
64,192,45397,1,0,0:0:0:0:
448,192,45537,1,0,0:0:0:0:
64,192,45537,1,8,0:0:0:0:
192,192,45537,1,2,0:0:0:0:
320,192,45817,1,2,0:0:0:0:
64,192,45817,1,0,0:0:0:0:
192,192,45958,1,2,0:0:0:0:
448,192,45958,1,0,0:0:0:0:
448,192,46378,1,2,0:0:0:0:
64,192,46378,1,0,0:0:0:0:
192,192,46659,1,0,0:0:0:0:
320,192,46659,1,2,0:0:0:0:
64,192,46659,1,8,0:0:0:0:
448,192,46799,1,2,0:0:0:0:
192,192,46799,1,0,0:0:0:0:
64,192,47079,1,8,0:0:0:0:
192,192,47079,1,2,0:0:0:0:
320,192,47079,1,0,0:0:0:0:
192,192,47219,1,0,0:0:0:0:
320,192,47219,1,2,0:0:0:0:
448,192,47219,1,4,0:0:0:0:
448,192,47359,1,0,0:0:0:0:
64,192,47359,1,2,0:0:0:0:
320,192,47640,1,2,0:0:0:0:
64,192,47640,1,0,0:0:0:0:
448,192,47780,1,0,0:0:0:0:
64,192,47780,1,8,0:0:0:0:
192,192,47780,1,2,0:0:0:0:
320,192,48060,1,2,0:0:0:0:
448,192,48060,1,0,0:0:0:0:
192,192,48201,1,2,0:0:0:0:
64,192,48201,1,0,0:0:0:0:
320,192,48621,1,2,0:0:0:0:
192,192,48621,1,0,0:0:0:0:
448,192,48902,1,0,0:0:0:0:
320,192,48902,1,2,0:0:0:0:
64,192,48902,1,8,0:0:0:0:
320,192,49042,1,2,0:0:0:0:
192,192,49042,1,0,0:0:0:0:
64,192,49322,1,8,0:0:0:0:
192,192,49322,1,2,0:0:0:0:
448,192,49322,1,0,0:0:0:0:
192,192,49462,1,0,0:0:0:0:
320,192,49462,1,2,0:0:0:0:
448,192,49462,1,4,0:0:0:0:
320,192,49602,1,0,0:0:0:0:
64,192,49602,1,2,0:0:0:0:
192,192,49883,1,2,0:0:0:0:
448,192,49883,1,0,0:0:0:0:
64,192,50023,1,0,0:0:0:0:
448,192,50023,1,8,0:0:0:0:
320,192,50023,1,2,0:0:0:0:
64,192,50303,1,8,0:0:0:0:
192,192,50303,1,2,0:0:0:0:
448,192,50303,1,0,0:0:0:0:
320,192,50444,1,2,0:0:0:0:
64,192,50444,1,0,0:0:0:0:
448,192,50724,1,0,0:0:0:0:
192,192,50724,1,2,0:0:0:0:
64,192,50864,1,0,0:0:0:0:
320,192,50864,1,2,0:0:0:0:
448,192,51145,1,8,0:0:0:0:
192,192,51145,1,2,0:0:0:0:
64,192,51145,1,0,0:0:0:0:
320,192,51285,1,2,0:0:0:0:
448,192,51285,1,0,0:0:0:0:
64,192,51425,1,0,0:0:0:0:
192,192,51425,1,2,0:0:0:0:
64,192,51565,1,0,0:0:0:0:
192,192,51565,1,2,0:0:0:0:
448,192,51705,1,2,0:0:0:0:
320,192,51705,1,4,0:0:0:0:
64,192,51705,1,0,0:0:0:0:
192,192,51845,1,2,0:0:0:0:
448,192,51845,1,0,0:0:0:0:
320,192,52126,1,2,0:0:0:0:
64,192,52126,1,0,0:0:0:0:
448,192,52266,1,0,0:0:0:0:
64,192,52266,1,8,0:0:0:0:
192,192,52266,1,2,0:0:0:0:
320,192,52546,1,2,0:0:0:0:
448,192,52546,1,0,0:0:0:0:
192,192,52687,1,2,0:0:0:0:
64,192,52687,1,0,0:0:0:0:
320,192,53107,1,2,0:0:0:0:
192,192,53107,1,0,0:0:0:0:
448,192,53388,1,0,0:0:0:0:
320,192,53388,1,2,0:0:0:0:
64,192,53388,1,8,0:0:0:0:
320,192,53528,1,2,0:0:0:0:
192,192,53528,1,0,0:0:0:0:
64,192,53808,1,8,0:0:0:0:
192,192,53808,1,2,0:0:0:0:
448,192,53808,1,0,0:0:0:0:
192,192,53948,1,0,0:0:0:0:
320,192,53948,1,2,0:0:0:0:
448,192,53948,1,4,0:0:0:0:
320,192,54088,1,0,0:0:0:0:
64,192,54088,1,2,0:0:0:0:
192,192,54369,1,2,0:0:0:0:
448,192,54369,1,0,0:0:0:0:
64,192,54509,1,0,0:0:0:0:
448,192,54509,1,8,0:0:0:0:
320,192,54509,1,2,0:0:0:0:
192,192,54789,1,2,0:0:0:0:
448,192,54789,1,0,0:0:0:0:
320,192,54930,1,2,0:0:0:0:
64,192,54930,1,0,0:0:0:0:
64,192,55350,1,2,0:0:0:0:
448,192,55350,1,0,0:0:0:0:
320,192,55631,1,0,0:0:0:0:
192,192,55631,1,2,0:0:0:0:
448,192,55631,1,8,0:0:0:0:
64,192,55771,1,2,0:0:0:0:
320,192,55771,1,0,0:0:0:0:
448,192,56051,1,8,0:0:0:0:
320,192,56051,1,2,0:0:0:0:
192,192,56051,1,0,0:0:0:0:
320,192,56191,1,0,0:0:0:0:
192,192,56191,1,2,0:0:0:0:
64,192,56191,1,4,0:0:0:0:
64,192,56331,1,0,0:0:0:0:
448,192,56331,1,2,0:0:0:0:
192,192,56612,1,2,0:0:0:0:
448,192,56612,1,0,0:0:0:0:
64,192,56752,1,0,0:0:0:0:
448,192,56752,1,8,0:0:0:0:
320,192,56752,1,2,0:0:0:0:
192,192,57032,1,2,0:0:0:0:
64,192,57032,1,0,0:0:0:0:
320,192,57173,1,2,0:0:0:0:
448,192,57173,1,0,0:0:0:0:
192,192,57593,1,2,0:0:0:0:
320,192,57593,1,0,0:0:0:0:
64,192,57874,1,0,0:0:0:0:
192,192,57874,1,2,0:0:0:0:
448,192,57874,1,8,0:0:0:0:
448,192,58014,1,2,0:0:0:0:
320,192,58014,1,0,0:0:0:0:
192,192,58154,1,0,0:0:0:0:
64,192,58154,1,2,0:0:0:0:
320,192,58294,1,2,0:0:0:0:
448,192,58294,1,0,0:0:0:0:
320,192,58434,1,0,0:0:0:0:
192,192,58434,1,2,0:0:0:0:
64,192,58434,128,4,58855:0:0:0:0:
192,192,58855,1,2,0:0:0:0:
448,192,58855,1,4,0:0:0:0:
320,192,58855,1,0,0:0:0:0:
192,192,59135,1,0,0:0:0:0:
64,192,59135,1,2,0:0:0:0:
448,192,59275,1,2,0:0:0:0:
64,192,59275,1,8,0:0:0:0:
320,192,59275,1,0,0:0:0:0:
320,192,59556,1,2,0:0:0:0:
448,192,59556,128,4,59976:0:0:0:0:
192,192,59556,1,0,0:0:0:0:
320,192,59976,1,0,0:0:0:0:
64,192,59976,1,2,0:0:0:0:
192,192,60046,1,0,0:0:0:0:
320,192,60117,1,8,0:0:0:0:
64,192,60117,1,0,0:0:0:0:
448,192,60117,1,2,0:0:0:0:
320,192,60257,1,2,0:0:0:0:
192,192,60257,1,0,0:0:0:0:
64,192,60397,1,0,0:0:0:0:
192,192,60397,1,2,0:0:0:0:
448,192,60397,1,8,0:0:0:0:
320,192,60537,1,2,0:0:0:0:
64,192,60537,1,0,0:0:0:0:
192,192,60677,1,8,0:0:0:0:
448,192,60677,1,0,0:0:0:0:
320,192,60677,1,2,0:0:0:0:
192,192,60888,1,0,0:0:0:0:
448,192,60958,1,2,0:0:0:0:
64,192,60958,1,0,0:0:0:0:
320,192,60958,1,8,0:0:0:0:
192,192,61098,1,0,0:0:0:0:
448,192,61098,1,2,0:0:0:0:
64,192,61238,1,2,0:0:0:0:
448,192,61238,1,0,0:0:0:0:
320,192,61238,1,8,0:0:0:0:
64,192,61378,1,2,0:0:0:0:
192,192,61378,1,0,0:0:0:0:
320,192,61448,1,0,0:0:0:0:
448,192,61518,1,0,0:0:0:0:
192,192,61518,1,8,0:0:0:0:
64,192,61659,1,2,0:0:0:0:
320,192,61659,1,0,0:0:0:0:
192,192,61799,1,8,0:0:0:0:
64,192,61799,1,0,0:0:0:0:
448,192,61799,1,2,0:0:0:0:
320,192,62009,1,0,0:0:0:0:
192,192,62079,1,2,0:0:0:0:
64,192,62079,1,0,0:0:0:0:
448,192,62079,1,8,0:0:0:0:
192,192,62219,1,0,0:0:0:0:
320,192,62219,1,2,0:0:0:0:
320,192,62359,1,2,0:0:0:0:
64,192,62359,1,0,0:0:0:0:
448,192,62359,1,8,0:0:0:0:
192,192,62500,1,2,0:0:0:0:
64,192,62500,1,0,0:0:0:0:
448,192,62570,1,0,0:0:0:0:
64,192,62640,1,0,0:0:0:0:
320,192,62640,1,8,0:0:0:0:
192,192,62780,1,2,0:0:0:0:
448,192,62780,1,0,0:0:0:0:
320,192,62920,1,8,0:0:0:0:
64,192,62920,1,0,0:0:0:0:
192,192,62920,1,2,0:0:0:0:
448,192,63131,1,0,0:0:0:0:
64,192,63201,1,2,0:0:0:0:
320,192,63201,1,8,0:0:0:0:
192,192,63201,1,0,0:0:0:0:
192,192,63341,1,2,0:0:0:0:
448,192,63341,1,0,0:0:0:0:
64,192,63481,1,2,0:0:0:0:
448,192,63481,1,8,0:0:0:0:
320,192,63481,1,0,0:0:0:0:
64,192,63621,1,0,0:0:0:0:
192,192,63621,1,2,0:0:0:0:
320,192,63691,1,0,0:0:0:0:
448,192,63761,1,8,0:0:0:0:
192,192,63761,1,0,0:0:0:0:
320,192,63902,1,0,0:0:0:0:
64,192,63902,1,2,0:0:0:0:
64,192,64042,1,0,0:0:0:0:
192,192,64042,1,8,0:0:0:0:
448,192,64042,1,2,0:0:0:0:
320,192,64252,1,0,0:0:0:0:
64,192,64322,1,2,0:0:0:0:
448,192,64322,1,0,0:0:0:0:
192,192,64322,1,8,0:0:0:0:
320,192,64462,1,0,0:0:0:0:
192,192,64462,1,2,0:0:0:0:
448,192,64602,1,2,0:0:0:0:
64,192,64602,1,0,0:0:0:0:
320,192,64602,1,8,0:0:0:0:
192,192,64743,1,0,0:0:0:0:
448,192,64743,1,2,0:0:0:0:
320,192,64813,1,0,0:0:0:0:
64,192,64883,1,0,0:0:0:0:
192,192,64883,1,8,0:0:0:0:
320,192,65023,1,0,0:0:0:0:
448,192,65023,1,2,0:0:0:0:
192,192,65163,1,2,0:0:0:0:
64,192,65163,1,8,0:0:0:0:
448,192,65163,1,0,0:0:0:0:
192,192,65374,1,0,0:0:0:0:
64,192,65444,1,2,0:0:0:0:
320,192,65444,1,8,0:0:0:0:
448,192,65444,1,0,0:0:0:0:
192,192,65584,1,0,0:0:0:0:
448,192,65584,1,2,0:0:0:0:
448,192,65724,1,2,0:0:0:0:
320,192,65724,1,8,0:0:0:0:
64,192,65724,1,0,0:0:0:0:
192,192,65864,1,0,0:0:0:0:
320,192,65864,1,2,0:0:0:0:
64,192,65934,1,0,0:0:0:0:
448,192,66004,1,8,0:0:0:0:
192,192,66004,1,0,0:0:0:0:
64,192,66145,1,0,0:0:0:0:
320,192,66145,1,2,0:0:0:0:
192,192,66285,1,2,0:0:0:0:
448,192,66285,1,0,0:0:0:0:
320,192,66285,1,8,0:0:0:0:
64,192,66495,1,0,0:0:0:0:
320,192,66565,1,2,0:0:0:0:
448,192,66565,1,0,0:0:0:0:
192,192,66565,1,8,0:0:0:0:
64,192,66705,1,0,0:0:0:0:
320,192,66705,1,2,0:0:0:0:
448,192,66845,1,2,0:0:0:0:
64,192,66845,1,0,0:0:0:0:
192,192,66845,1,8,0:0:0:0:
320,192,66986,1,0,0:0:0:0:
448,192,66986,1,2,0:0:0:0:
192,192,67056,1,0,0:0:0:0:
64,192,67126,1,0,0:0:0:0:
320,192,67126,1,8,0:0:0:0:
192,192,67266,1,2,0:0:0:0:
64,192,67266,1,4,0:0:0:0:
448,192,67266,1,0,0:0:0:0:
192,192,67546,1,0,0:0:0:0:
320,192,67687,1,8,0:0:0:0:
448,192,67687,1,2,0:0:0:0:
64,192,67687,1,0,0:0:0:0:
192,192,67827,1,0,0:0:0:0:
64,192,67967,1,0,0:0:0:0:
320,192,68107,1,0,0:0:0:0:
64,192,68247,1,0,0:0:0:0:
448,192,68247,1,2,0:0:0:0:
192,192,68247,1,8,0:0:0:0:
320,192,68388,1,0,0:0:0:0:
64,192,68528,1,8,0:0:0:0:
448,192,68528,1,0,0:0:0:0:
192,192,68621,1,0,0:0:0:0:
320,192,68715,1,0,0:0:0:0:
64,192,68808,1,0,0:0:0:0:
192,192,68808,1,2,0:0:0:0:
320,192,68902,1,0,0:0:0:0:
448,192,68995,1,0,0:0:0:0:
64,192,69088,1,0,0:0:0:0:
192,192,69088,1,8,0:0:0:0:
320,192,69088,1,2,0:0:0:0:
448,192,69229,1,0,0:0:0:0:
320,192,69369,1,2,0:0:0:0:
192,192,69369,1,8,0:0:0:0:
64,192,69369,1,0,0:0:0:0:
64,192,69649,1,2,0:0:0:0:
192,192,69649,1,4,0:0:0:0:
448,192,69649,1,0,0:0:0:0:
320,192,69789,1,0,0:0:0:0:
64,192,69930,1,0,0:0:0:0:
192,192,69930,1,8,0:0:0:0:
448,192,69930,1,2,0:0:0:0:
320,192,70210,1,2,0:0:0:0:
64,192,70210,1,0,0:0:0:0:
192,192,70350,1,0,0:0:0:0:
64,192,70490,1,0,0:0:0:0:
320,192,70490,1,2,0:0:0:0:
448,192,70490,1,8,0:0:0:0:
192,192,70631,1,0,0:0:0:0:
448,192,70631,1,2,0:0:0:0:
64,192,70911,1,2,0:0:0:0:
320,192,70911,1,0,0:0:0:0:
192,192,71051,1,8,0:0:0:0:
64,192,71051,1,2,0:0:0:0:
448,192,71051,1,0,0:0:0:0:
192,192,71331,1,2,0:0:0:0:
320,192,71331,1,0,0:0:0:0:
448,192,71472,1,0,0:0:0:0:
192,192,71612,1,2,0:0:0:0:
320,192,71612,1,0,0:0:0:0:
64,192,71612,1,8,0:0:0:0:
64,192,71752,1,2,0:0:0:0:
448,192,71752,1,0,0:0:0:0:
192,192,72032,1,2,0:0:0:0:
320,192,72032,1,0,0:0:0:0:
448,192,72173,1,0,0:0:0:0:
320,192,72173,1,8,0:0:0:0:
64,192,72173,1,0,0:0:0:0:
192,192,72453,1,2,0:0:0:0:
448,192,72453,1,0,0:0:0:0:
320,192,72593,1,0,0:0:0:0:
448,192,72733,1,0,0:0:0:0:
192,192,72733,1,2,0:0:0:0:
64,192,72733,1,8,0:0:0:0:
320,192,72874,1,0,0:0:0:0:
64,192,72874,1,2,0:0:0:0:
448,192,73154,1,2,0:0:0:0:
192,192,73154,1,0,0:0:0:0:
320,192,73294,1,8,0:0:0:0:
448,192,73294,1,2,0:0:0:0:
64,192,73294,1,0,0:0:0:0:
320,192,73574,1,2,0:0:0:0:
192,192,73574,1,0,0:0:0:0:
64,192,73715,1,0,0:0:0:0:
320,192,73855,1,2,0:0:0:0:
192,192,73855,1,0,0:0:0:0:
448,192,73855,1,8,0:0:0:0:
448,192,74135,1,2,0:0:0:0:
64,192,74135,1,0,0:0:0:0:
192,192,74275,1,0,0:0:0:0:
64,192,74416,1,2,0:0:0:0:
320,192,74416,1,8,0:0:0:0:
448,192,74416,1,0,0:0:0:0:
64,192,74696,1,0,0:0:0:0:
192,192,74696,1,2,0:0:0:0:
320,192,74836,1,0,0:0:0:0:
64,192,74976,1,8,0:0:0:0:
192,192,74976,1,2,0:0:0:0:
448,192,74976,1,0,0:0:0:0:
320,192,75117,1,2,0:0:0:0:
448,192,75117,1,0,0:0:0:0:
192,192,75397,1,0,0:0:0:0:
64,192,75397,1,2,0:0:0:0:
64,192,75537,1,0,0:0:0:0:
448,192,75537,1,2,0:0:0:0:
320,192,75537,1,8,0:0:0:0:
192,192,75817,1,0,0:0:0:0:
448,192,75817,1,2,0:0:0:0:
64,192,75958,1,0,0:0:0:0:
448,192,76098,1,8,0:0:0:0:
192,192,76098,1,0,0:0:0:0:
320,192,76098,1,2,0:0:0:0:
64,192,76238,1,0,0:0:0:0:
320,192,76238,1,2,0:0:0:0:
192,192,76518,1,2,0:0:0:0:
448,192,76518,1,0,0:0:0:0:
192,192,76659,1,8,0:0:0:0:
320,192,76659,1,2,0:0:0:0:
64,192,76659,1,0,0:0:0:0:
64,192,76939,1,0,0:0:0:0:
448,192,76939,1,2,0:0:0:0:
192,192,77079,1,0,0:0:0:0:
320,192,77219,1,0,0:0:0:0:
64,192,77219,1,8,0:0:0:0:
448,192,77219,1,2,0:0:0:0:
192,192,77359,1,0,0:0:0:0:
320,192,77430,1,0,0:0:0:0:
192,192,77500,1,0,0:0:0:0:
64,192,77500,1,8,0:0:0:0:
448,192,77500,1,2,0:0:0:0:
320,192,77640,1,0,0:0:0:0:
192,192,77780,1,0,0:0:0:0:
320,192,77920,1,0,0:0:0:0:
448,192,77920,1,2,0:0:0:0:
64,192,77920,1,8,0:0:0:0:
192,192,78060,1,0,0:0:0:0:
320,192,78201,1,0,0:0:0:0:
64,192,78341,1,8,0:0:0:0:
448,192,78341,1,2,0:0:0:0:
192,192,78341,1,0,0:0:0:0:
64,192,78621,1,8,0:0:0:0:
448,192,78621,1,0,0:0:0:0:
320,192,78621,1,2,0:0:0:0:
192,192,78831,1,0,0:0:0:0:
448,192,78902,1,2,0:0:0:0:
64,192,78902,1,0,0:0:0:0:
320,192,78902,1,8,0:0:0:0:
192,192,79042,1,0,0:0:0:0:
320,192,79042,1,2,0:0:0:0:
64,192,79182,1,2,0:0:0:0:
448,192,79182,1,0,0:0:0:0:
192,192,79182,1,8,0:0:0:0:
64,192,79322,1,0,0:0:0:0:
320,192,79322,1,2,0:0:0:0:
192,192,79392,1,0,0:0:0:0:
448,192,79462,1,0,0:0:0:0:
320,192,79462,1,8,0:0:0:0:
64,192,79602,1,0,0:0:0:0:
192,192,79602,1,2,0:0:0:0:
320,192,79743,1,8,0:0:0:0:
64,192,79743,1,0,0:0:0:0:
448,192,79743,1,2,0:0:0:0:
192,192,79953,1,0,0:0:0:0:
320,192,80023,1,2,0:0:0:0:
64,192,80023,1,0,0:0:0:0:
448,192,80023,1,8,0:0:0:0:
192,192,80163,1,0,0:0:0:0:
320,192,80163,1,2,0:0:0:0:
192,192,80303,1,2,0:0:0:0:
64,192,80303,1,0,0:0:0:0:
448,192,80303,1,8,0:0:0:0:
64,192,80444,1,2,0:0:0:0:
320,192,80444,1,0,0:0:0:0:
192,192,80584,1,2,0:0:0:0:
320,192,80584,1,0,0:0:0:0:
448,192,80584,1,8,3:0:0:0:
320,192,80864,1,8,0:0:0:0:
64,192,80864,1,0,0:0:0:0:
192,192,80864,1,2,0:0:0:0:
448,192,81074,1,0,0:0:0:0:
64,192,81145,1,2,0:0:0:0:
320,192,81145,1,8,0:0:0:0:
192,192,81145,1,0,0:0:0:0:
448,192,81285,1,0,0:0:0:0:
64,192,81285,1,2,0:0:0:0:
448,192,81425,1,2,0:0:0:0:
192,192,81425,1,8,0:0:0:0:
320,192,81425,1,0,0:0:0:0:
64,192,81565,1,0,0:0:0:0:
320,192,81565,1,2,0:0:0:0:
192,192,81635,1,0,0:0:0:0:
448,192,81705,1,8,0:0:0:0:
64,192,81705,1,0,0:0:0:0:
192,192,81845,1,0,0:0:0:0:
320,192,81845,1,2,0:0:0:0:
64,192,81986,1,0,0:0:0:0:
320,192,81986,1,8,0:0:0:0:
448,192,81986,1,2,0:0:0:0:
192,192,82196,1,0,0:0:0:0:
64,192,82266,1,2,0:0:0:0:
448,192,82266,1,0,0:0:0:0:
320,192,82266,1,8,0:0:0:0:
192,192,82406,1,0,0:0:0:0:
320,192,82406,1,2,0:0:0:0:
448,192,82546,1,2,0:0:0:0:
64,192,82546,1,0,0:0:0:0:
192,192,82546,1,8,0:0:0:0:
64,192,82687,1,2,0:0:0:0:
320,192,82687,1,0,0:0:0:0:
448,192,82827,1,2,0:0:0:0:
192,192,82827,1,0,0:0:0:0:
320,192,82827,1,8,3:0:0:0:
64,192,82967,1,0,0:0:0:0:
192,192,83107,1,2,0:0:0:0:
320,192,83107,1,8,0:0:0:0:
448,192,83107,1,0,0:0:0:0:
192,192,83317,1,0,0:0:0:0:
64,192,83388,1,2,0:0:0:0:
320,192,83388,1,8,0:0:0:0:
448,192,83388,1,0,0:0:0:0:
192,192,83528,1,0,0:0:0:0:
320,192,83528,1,2,0:0:0:0:
448,192,83668,1,2,0:0:0:0:
192,192,83668,1,8,0:0:0:0:
64,192,83668,1,0,0:0:0:0:
320,192,83808,1,2,0:0:0:0:
448,192,83808,1,0,0:0:0:0:
192,192,83878,1,0,0:0:0:0:
320,192,83948,1,8,0:0:0:0:
64,192,83948,1,0,0:0:0:0:
192,192,84088,1,0,0:0:0:0:
448,192,84088,1,2,0:0:0:0:
320,192,84229,1,2,0:0:0:0:
448,192,84229,1,0,0:0:0:0:
64,192,84229,1,8,0:0:0:0:
64,192,84439,1,0,0:0:0:0:
320,192,84509,1,2,0:0:0:0:
448,192,84509,1,0,0:0:0:0:
192,192,84509,1,8,0:0:0:0:
64,192,84649,1,0,0:0:0:0:
320,192,84649,1,2,0:0:0:0:
448,192,84789,1,2,0:0:0:0:
320,192,84789,1,0,0:0:0:0:
192,192,84789,1,8,3:0:0:0:
64,192,84930,1,2,0:0:0:0:
192,192,84930,1,8,3:0:0:0:
320,192,85000,1,8,3:0:0:0:
192,192,85070,1,8,3:0:0:0:
448,192,85070,1,2,0:0:0:0:
64,192,85070,1,0,0:0:0:0:
64,192,85350,1,2,0:0:0:0:
192,192,85350,1,4,0:0:0:0:
448,192,85350,1,0,0:0:0:0:
64,192,85490,1,2,0:0:0:0:
448,192,85490,1,0,0:0:0:0:
320,192,85490,1,8,0:0:0:0:
192,192,85631,1,0,0:0:0:0:
320,192,85771,1,0,0:0:0:0:
192,192,85911,1,8,0:0:0:0:
448,192,85911,1,0,0:0:0:0:
64,192,85911,1,2,0:0:0:0:
320,192,86051,1,2,0:0:0:0:
64,192,86051,1,0,0:0:0:0:
64,192,86331,1,2,0:0:0:0:
448,192,86331,1,0,0:0:0:0:
192,192,86331,1,8,0:0:0:0:
320,192,86472,1,0,0:0:0:0:
192,192,86612,1,8,0:0:0:0:
448,192,86612,1,0,0:0:0:0:
64,192,86612,1,2,0:0:0:0:
320,192,86752,1,0,0:0:0:0:
192,192,86892,1,0,0:0:0:0:
64,192,87032,1,2,0:0:0:0:
448,192,87032,1,0,0:0:0:0:
320,192,87032,1,8,0:0:0:0:
192,192,87173,1,0,0:0:0:0:
448,192,87173,1,2,0:0:0:0:
64,192,87453,1,2,0:0:0:0:
320,192,87453,1,0,0:0:0:0:
192,192,87593,1,4,0:0:0:0:
448,192,87593,1,0,0:0:0:0:
64,192,87593,128,2,88154:0:0:0:0:
