osu file format v14

[General]
AudioFilename: audio.mp3
AudioLeadIn: 0
PreviewTime: 60389
Countdown: 0
SampleSet: Soft
StackLeniency: 0.3
Mode: 0
LetterboxInBreaks: 0
WidescreenStoryboard: 1

[Editor]
DistanceSpacing: 1
BeatDivisor: 4
GridSize: 16
TimelineZoom: 1.9

[Metadata]
Title:LET iT END (TV Size)
TitleUnicode:LET iT END (TV Size)
Artist:SiM
ArtistUnicode:SiM
Creator:NeKroMan4ik
Version:KUDOSU'S HARD
Source:神撃のバハムート VIRGIN SOUL
Tags:THANK GOD, THERE ARE HUNDREDS OF WAYS TO KiLL ENEMiES Silence iz is Mine Rage of Bahamut Shingeki no op Opening Anime english rock male vocals komore schoolboy wenect wenet unranked mapper djulus kudosu soop so0p -mikanmymommy
BeatmapID:2606926
BeatmapSetID:1254425

[Difficulty]
HPDrainRate:4.5
CircleSize:4
OverallDifficulty:7
ApproachRate:8
SliderMultiplier:1.4
SliderTickRate:1

[Events]
//Background and Video events
0,0,"yEA-OvtR.jpeg",0,0
//Break Periods
//Storyboard Layer 0 (Background)
//Storyboard Layer 1 (Fail)
//Storyboard Layer 2 (Pass)
//Storyboard Layer 3 (Foreground)
//Storyboard Layer 4 (Overlay)
//Storyboard Sound Samples

[TimingPoints]
460,280.373831775701,4,2,1,70,1,0
460,-111.111111111111,4,2,1,70,0,0
4945,-111.111111111111,4,2,1,60,0,0
9431,-105.263157894737,4,2,1,65,0,0
13917,-100,4,2,1,70,0,0
22889,-125,4,2,1,60,0,0
31861,-111.111111111111,4,2,1,60,0,0
40833,-105.263157894737,4,2,1,60,0,0
43076,-125,4,2,1,55,0,0
58777,-125,4,2,1,60,0,0
60460,-105.263157894737,4,2,1,60,0,0
61020,-100,4,2,1,70,0,1
69431,-100,4,2,1,70,0,0
69992,-100,4,2,1,75,0,1
77843,-100,4,2,1,75,0,0
78964,-100,4,2,1,80,0,1
85693,-111.111111111111,4,2,1,70,0,0
87936,-222.222222222221,4,2,1,70,0,0
88777,-222.222222222221,4,2,1,5,0,0

[Colours]
Combo1 : 208,186,185
Combo2 : 220,41,46
Combo3 : 201,201,201
Combo4 : 237,163,180
SliderTrackOverride : 5,5,5
SliderBorder : 250,250,250

[HitObjects]
36,264,460,6,0,L|160:244,1,125.999996154785,10|0,0:0|1:0,0:0:0:0:
240,282,880,1,8,0:0:0:0:
240,282,1160,2,0,L|229:345,1,62.9999980773926,2|10,1:2|1:2,0:0:0:0:
387,263,1581,6,0,B|394:212|394:212|381:180|381:180|390:124,1,125.999996154785,10|0,0:0|1:0,0:0:0:0:
322,82,2002,1,8,0:0:0:0:
322,82,2282,2,0,L|311:18,1,62.9999980773926,2|10,1:2|1:2,0:0:0:0:
171,125,2702,6,0,P|121:92|46:113,1,125.999996154785,10|0,0:0|1:0,0:0:0:0:
32,188,3123,1,8,0:0:0:0:
32,188,3403,2,0,L|94:178,1,62.9999980773926,2|10,1:2|1:2,0:0:0:0:
251,260,3824,6,0,L|230:386,1,125.999996154785,10|0,0:0|1:0,0:0:0:0:
321,340,4245,1,8,0:0:0:0:
321,340,4525,2,0,L|384:350,1,62.9999980773926,2|10,1:2|1:2,0:0:0:0:
475,199,4945,6,0,L|465:135,1,62.9999980773926,10|0,0:0|1:0,0:0:0:0:
463,128,5156,1,0,1:0:0:0:
461,120,5226,1,10,0:0:0:0:
386,55,5366,2,0,L|512:34,2,125.999996154785,2|2|0,1:2|1:2|1:0,0:0:0:0:
305,108,6067,6,0,L|241:98,1,62.9999980773926,10|0,0:0|1:0,0:0:0:0:
234,96,6277,1,0,1:0:0:0:
226,94,6347,1,10,0:0:0:0:
150,138,6488,2,0,P|178:178|146:263,2,125.999996154785,2|2|0,1:2|1:2|1:0,0:0:0:0:
70,89,7188,6,0,L|60:153,1,62.9999980773926,10|0,0:0|1:0,0:0:0:0:
58,160,7399,1,0,1:0:0:0:
58,168,7469,1,10,0:0:0:0:
152,245,7609,2,0,B|101:238|101:238|69:251|69:251|13:242,2,125.999996154785,2|2|0,1:2|1:2|1:0,0:0:0:0:
226,292,8310,6,0,L|236:356,1,62.9999980773926,10|0,0:0|1:0,0:0:0:0:
238,363,8520,1,0,1:0:0:0:
240,371,8590,1,10,0:0:0:0:
314,315,8731,2,0,L|376:324,1,62.9999980773926,2|8,1:2|0:0,0:0:0:0:
455,285,9011,1,2,1:2:0:0:
455,277,9081,1,0,1:0:0:0:
452,268,9151,2,0,L|442:205,1,62.9999980773926,8|0,0:0|1:0,0:0:0:0:
491,118,9431,6,0,L|396:102,1,66.4999982242585,10|0,0:0|1:0,0:0:0:0:
416,106,9642,1,0,1:0:0:0:
407,105,9712,1,10,0:0:0:0:
323,61,9852,2,0,B|315:114|315:114|329:148|329:148|319:206,1,132.999996448517,2|2,1:2|1:2,0:0:0:0:
232,165,10273,2,0,L|166:175,1,66.4999982242585,8|0,0:0|1:0,0:0:0:0:
89,129,10553,6,0,L|73:224,1,66.4999982242585,10|0,0:0|1:0,0:0:0:0:
77,204,10763,1,0,1:0:0:0:
76,213,10833,1,10,0:0:0:0:
154,271,10974,2,0,P|202:245|288:259,1,132.999996448517,2|2,1:2|1:2,0:0:0:0:
356,303,11394,2,0,L|345:368,1,66.4999982242585,8|0,0:0|1:0,0:0:0:0:
443,272,11674,6,0,L|427:177,1,66.4999982242585,10|0,0:0|1:0,0:0:0:0:
431,197,11885,1,0,1:0:0:0:
430,188,11955,1,10,0:0:0:0:
475,106,12095,2,0,B|422:98|422:98|388:112|388:112|330:102,1,132.999996448517,2|2,1:2|1:2,0:0:0:0:
252,80,12516,2,0,L|263:145,1,66.4999982242585,8|0,0:0|1:0,0:0:0:0:
164,66,12796,6,0,P|169:34|175:0,2,66.4999982242585,8|8|8,0:0|0:0|0:0,0:0:0:0:
80,98,13217,2,0,P|91:164|105:256,1,132.999996448517,6|6,1:2|1:2,0:0:0:0:
365,274,13917,6,0,L|434:263,2,70,6|8|2,1:2|0:0|1:2,0:0:0:0:
287,220,14338,2,0,L|297:150,1,70,2|8,1:2|0:0,0:0:0:0:
210,274,14618,2,0,P|176:241|75:257,1,140,2|8,1:2|0:0,0:0:0:0:
0,219,15039,6,0,L|10:289,2,70,2|8|2,1:2|0:0|1:2,0:0:0:0:
58,154,15460,2,0,P|63:118|38:78,1,70,2|8,1:2|0:0,0:0:0:0:
3,13,15740,2,0,B|62:3|62:3|85:15|85:15|144:5,1,140,2|8,1:2|0:0,0:0:0:0:
223,69,16160,6,0,L|233:0,2,70,2|8|2,1:2|0:0|1:2,0:0:0:0:
148,127,16581,2,0,L|78:116,1,70,2|8,1:2|0:0,0:0:0:0:
218,190,16861,2,0,B|289:175|292:233|364:215,1,140,2|8,1:2|0:0,0:0:0:0:
449,183,17282,5,10,0:0:0:0:
449,183,17422,2,0,L|438:278,1,70,0|2,1:0|1:2,0:0:0:0:
375,135,17702,2,0,B|365:75|365:75|377:52|377:52|367:-6,1,140,10|0,0:0|1:0,0:0:0:0:
288,31,18123,1,8,0:0:0:0:
186,154,18403,6,0,L|91:138,2,70,6|8|2,1:2|0:0|1:2,0:0:0:0:
269,107,18824,2,0,P|273:140|279:176,1,70,2|8,1:2|0:0,0:0:0:0:
215,244,19104,2,0,P|204:313|189:402,1,140,2|8,1:2|0:0,0:0:0:0:
114,324,19525,6,0,L|19:339,2,70,2|8|2,1:2|0:0|1:2,0:0:0:0:
201,369,19945,2,0,L|295:353,1,70,2|8,1:2|0:0,0:0:0:0:
359,384,20226,2,0,B|369:324|369:324|357:301|357:301|367:243,1,140,2|8,1:2|0:0,0:0:0:0:
435,179,20646,6,0,L|529:194,2,70,2|8|2,1:2|0:0|1:2,0:0:0:0:
368,112,21067,2,0,L|378:42,1,70,2|8,1:2|0:0,0:0:0:0:
274,127,21347,2,0,L|289:221,1,70,2|0,1:2|0:0,0:0:0:0:
209,253,21628,1,8,0:0:0:0:
204,245,21698,1,8,0:0:0:0:
196,240,21768,6,0,P|151:207|57:232,1,140,14|0,0:0|1:2,0:0:0:0:
0,163,22188,1,12,0:0:0:0:
124,297,22469,1,0,1:0:0:0:
204,245,22609,2,0,L|192:175,1,70,12|0,0:0|0:0,0:0:0:0:
289,287,22889,6,0,P|345:259|410:278,1,112,6|8,1:2|0:0,0:0:0:0:
469,321,23310,2,0,L|489:194,1,112,2|0,1:2|1:2,0:0:0:0:
423,158,23731,1,8,0:0:0:0:
423,158,24011,6,0,P|363:167|312:175,1,112,2|8,1:2|0:0,0:0:0:0:
244,128,24431,2,0,L|264:1,1,112,2|0,1:2|1:2,0:0:0:0:
174,58,24852,2,0,L|110:47,1,56,8|0,0:0|0:0,0:0:0:0:
50,96,25132,6,0,L|70:222,1,112,2|8,1:2|0:0,0:0:0:0:
136,253,25553,2,0,L|115:379,1,112,2|0,1:2|1:2,0:0:0:0:
207,322,25974,1,8,0:0:0:0:
207,322,26254,6,0,P|260:293|321:316,1,112,2|8,1:2|0:0,0:0:0:0:
371,251,26674,2,0,L|353:140,1,112,2|0,1:2|1:2,0:0:0:0:
412,81,27095,1,8,0:0:0:0:
412,81,27375,6,0,P|359:52|298:75,1,112,2|8,1:2|0:0,0:0:0:0:
224,35,27796,2,0,L|241:145,1,112,2|0,1:2|1:2,0:0:0:0:
183,205,28217,1,8,0:0:0:0:
183,205,28497,6,0,L|165:315,1,112,2|8,1:2|0:0,0:0:0:0:
234,360,28917,2,0,P|287:331|348:354,1,112,2|0,1:2|1:2,0:0:0:0:
417,328,29338,2,0,L|404:407,1,56,8|0,0:0|0:0,0:0:0:0:
361,262,29618,6,0,L|343:151,1,112,6|8,1:2|0:0,0:0:0:0:
404,90,30039,2,0,P|351:61|290:84,1,112,2|0,1:2|1:2,0:0:0:0:
235,120,30460,1,10,0:0:0:0:
235,120,30740,6,0,L|124:102,1,112,2|8,1:2|0:0,0:0:0:0:
36,59,31160,2,0,L|53:169,1,112,2|0,1:2|1:2,0:0:0:0:
12,263,31581,1,8,0:0:0:0:
12,263,31861,6,0,L|136:243,1,125.999996154785,2|8,1:2|0:0,0:0:0:0:
209,298,32282,2,0,L|229:174,1,125.999996154785,2|0,1:2|1:2,0:0:0:0:
155,120,32702,2,0,L|91:130,1,62.9999980773926,8|0,0:0|0:0,0:0:0:0:
229,173,32983,5,2,1:2:0:0:
229,173,33123,2,0,L|292:183,1,62.9999980773926,2|8,0:0|0:0,0:0:0:0:
366,237,33403,2,0,P|386:179|360:124,1,125.999996154785,2|0,1:2|1:2,0:0:0:0:
437,75,33824,2,0,L|499:84,1,62.9999980773926,8|0,0:0|0:0,0:0:0:0:
359,37,34104,5,2,1:2:0:0:
359,37,34245,2,0,L|295:47,1,62.9999980773926,2|8,1:2|0:0,0:0:0:0:
223,102,34525,2,0,L|99:82,1,125.999996154785,2|0,1:2|1:2,0:0:0:0:
27,139,34945,1,10,0:0:0:0:
27,139,35226,6,0,L|47:263,1,125.999996154785,2|8,1:2|0:0,0:0:0:0:
121,316,35646,2,0,P|157:280|235:290,1,125.999996154785,2|2,1:2|1:2,0:0:0:0:
306,332,36067,1,10,0:0:0:0:
306,332,36347,6,0,L|326:208,1,125.999996154785,2|8,1:2|0:0,0:0:0:0:
401,154,36768,2,0,P|354:115|294:123,1,125.999996154785,2|0,1:2|1:2,0:0:0:0:
216,171,37188,2,0,L|136:158,1,62.9999980773926,10|0,0:0|0:0,0:0:0:0:
70,123,37469,6,0,B|62:172|62:172|76:201|76:201|70:244,1,125.999996154785,2|8,1:2|0:0,0:0:0:0:
39,330,37889,2,0,L|163:310,1,125.999996154785,2|0,1:2|1:2,0:0:0:0:
236,365,38310,1,8,0:0:0:0:
236,365,38590,6,0,L|315:352,1,62.9999980773926,2|2,1:2|1:2,0:0:0:0:
389,384,38871,1,10,0:0:0:0:
389,384,39011,2,0,L|409:257,1,125.999996154785,0|0,1:2|1:2,0:0:0:0:
449,178,39431,2,0,L|511:187,1,62.9999980773926,10|0,0:0|0:0,0:0:0:0:
389,108,39712,6,0,B|346:114|346:114|317:100|317:100|268:108,2,125.999996154785,2|8|2,1:2|0:0|0:0,0:0:0:0:
389,108,40553,2,0,L|379:45,1,62.9999980773926,10|0,0:0|0:0,0:0:0:0:
321,184,40833,5,2,1:2:0:0:
321,184,40974,2,0,L|309:253,1,66.4999982242585,8|0,0:0|1:2,0:0:0:0:
376,316,41254,2,0,L|441:305,1,66.4999982242585,2|8,1:2|0:0,0:0:0:0:
303,376,41534,2,0,P|252:333|174:349,1,132.999996448517,2|10,1:2|0:0,0:0:0:0:
96,318,41955,6,0,L|108:397,2,66.4999982242585,2|8|8,1:2|0:3|0:3,0:0:0:0:
155,244,42375,1,0,1:2:0:0:
80,185,42516,2,0,L|14:195,1,66.4999982242585,10|0,0:0|1:2,0:0:0:0:
235,100,43076,5,6,1:2:0:0:
235,100,43217,2,0,P|291:109|361:121,1,112,0|0,1:2|1:2,0:0:0:0:
417,74,43637,2,0,P|411:46|407:18,1,56,8|0,0:0|0:0,0:0:0:0:
496,101,43917,1,2,1:2:0:0:
496,101,44058,2,0,P|486:156|475:227,1,112,0|0,1:2|0:0,0:0:0:0:
399,244,44478,2,0,P|429:289|419:343,2,112,2|8|0,1:2|0:0|0:0,0:0:0:0:
235,265,45319,5,2,1:2:0:0:
235,265,45460,2,0,P|244:209|256:139,1,112,0|0,1:2|1:2,0:0:0:0:
189,100,45880,2,0,P|181:73|188:46,1,56,10|0,0:0|0:0,0:0:0:0:
114,136,46160,1,2,1:2:0:0:
114,136,46301,2,0,P|68:105|14:115,1,112,0|0,1:2|0:0,0:0:0:0:
52,190,46721,2,0,L|34:300,2,112,2|10|2,1:2|0:0|0:0,0:0:0:0:
191,96,47562,5,2,1:2:0:0:
191,96,47702,2,0,L|317:116,1,112,0|0,1:2|1:2,0:0:0:0:
362,54,48123,2,0,L|353:-1,1,56,10|0,0:0|0:0,0:0:0:0:
433,98,48403,1,2,1:2:0:0:
433,98,48544,2,0,P|463:143|453:197,1,112,0|0,1:2|0:0,0:0:0:0:
388,250,48964,2,0,L|405:360,2,112,2|10|0,1:2|0:0|0:0,0:0:0:0:
237,320,49805,5,0,1:2:0:0:
237,320,49945,2,0,P|181:311|111:299,1,112,0|2,1:2|1:2,0:0:0:0:
50,338,50366,2,0,L|37:258,1,56,8|0,0:0|0:0,0:0:0:0:
96,219,50646,2,0,L|104:163,1,56,8|0,0:0|1:2,0:0:0:0:
41,115,50927,5,2,0:0:0:0:
41,115,51067,2,0,P|86:84|140:94,1,112,2|0,1:2|0:0,0:0:0:0:
214,54,51488,2,0,L|205:-1,1,56,8|0,0:0|1:2,0:0:0:0:
287,94,51768,2,0,L|274:173,1,56,8|8,0:3|0:3,0:0:0:0:
337,221,52048,5,6,1:2:0:0:
337,221,52188,2,0,L|210:241,1,112,0|0,1:2|1:2,0:0:0:0:
160,186,52609,2,0,L|168:130,1,56,8|0,0:0|0:0,0:0:0:0:
79,183,52889,1,2,1:2:0:0:
79,183,53030,2,0,P|48:228|58:282,1,112,0|0,1:2|0:0,0:0:0:0:
110,371,53450,2,0,L|-16:350,2,112,2|8|0,1:2|0:0|0:0,0:0:0:0:
188,224,54291,5,2,1:2:0:0:
188,224,54431,2,0,P|179:168|167:98,1,112,0|0,1:2|1:2,0:0:0:0:
234,59,54852,2,0,P|241:32|234:5,1,56,10|0,0:0|0:0,0:0:0:0:
309,95,55132,1,2,1:2:0:0:
309,95,55273,2,0,P|354:64|408:74,1,112,0|0,1:2|0:0,0:0:0:0:
475,140,55693,2,0,L|495:13,2,112,2|10|2,1:2|0:0|0:0,0:0:0:0:
497,306,56534,5,6,1:2:0:0:
497,306,56674,2,0,L|370:285,1,112,0|0,1:2|1:2,0:0:0:0:
310,326,57095,2,0,L|318:381,1,56,10|0,0:0|0:0,0:0:0:0:
233,289,57375,1,2,1:2:0:0:
233,289,57516,2,0,P|162:274|115:313,1,112,0|0,1:2|0:0,0:0:0:0:
41,321,57936,2,0,L|58:210,1,112,2|10,1:2|0:0,0:0:0:0:
37,122,58357,1,0,1:2:0:0:
37,122,58497,2,0,L|-18:129,1,56,8|8,0:3|0:3,0:0:0:0:
105,73,58777,6,0,B|160:81|160:81|204:56|204:56|268:66,1,168,6|6,1:2|1:2,0:0:0:0:
424,132,59478,1,2,1:2:0:0:
424,132,59618,2,0,P|430:167|421:194,1,56,10|0,1:2|0:0,0:0:0:0:
350,226,59899,6,0,L|368:344,1,112,6|0,1:2|0:0,0:0:0:0:
289,381,60319,1,0,1:0:0:0:
283,375,60389,1,0,1:0:0:0:
278,369,60460,6,0,P|272:341|281:303,1,66.4999982242585,10|0,0:0|1:0,0:0:0:0:
352,240,60740,2,0,L|417:250,1,66.4999982242585,10|0,0:0|0:0,0:0:0:0:
286,166,61020,5,6,1:2:0:0:
286,166,61160,2,0,B|230:171|230:171|195:151|195:151|132:158,1,140,0|0,1:2|0:0,0:0:0:0:
62,127,61581,1,2,1:2:0:0:
62,127,61721,2,0,L|78:229,1,70,2|8,1:2|0:0,0:0:0:0:
132,73,62002,2,0,P|192:35|262:55,1,140,2|0,1:2|1:2,0:0:0:0:
348,80,62422,2,0,L|337:10,1,70,8|0,0:0|0:0,0:0:0:0:
433,128,62702,1,2,1:2:0:0:
433,128,62843,2,0,L|422:197,1,70,2|8,1:2|0:0,0:0:0:0:
481,274,63123,6,0,P|420:300|335:258,1,140,2|2,1:2|1:2,0:0:0:0:
261,315,63544,2,0,L|272:384,1,70,8|0,0:0|1:2,0:0:0:0:
171,275,63824,2,0,L|194:129,1,140,2|8,0:0|0:0,0:0:0:0:
117,73,64245,1,2,1:2:0:0:
205,32,64385,2,0,B|261:27|261:27|296:47|296:47|359:40,1,140,2|10,0:0|0:0,0:0:0:0:
412,107,64805,1,0,0:0:0:0:
502,69,64945,2,0,L|491:-1,1,70,2|0,1:2|1:0,0:0:0:0:
417,115,65226,2,0,L|405:185,1,70,10|0,0:0|0:0,0:0:0:0:
466,260,65506,5,6,1:2:0:0:
466,260,65646,2,0,P|401:282|337:256,1,140,0|0,1:2|0:0,0:0:0:0:
239,228,66067,1,2,1:2:0:0:
239,228,66207,2,0,L|249:297,1,70,2|8,1:2|0:0,0:0:0:0:
147,224,66488,2,0,L|169:81,1,140,2|0,1:2|1:2,0:0:0:0:
97,18,66908,2,0,L|17:30,1,70,8|0,0:0|0:0,0:0:0:0:
175,93,67188,1,2,1:2:0:0:
175,93,67329,2,0,L|244:82,1,70,2|8,1:2|0:0,0:0:0:0:
334,10,67609,6,0,B|329:66|329:66|349:101|349:101|344:144,1,140,2|2,1:2|1:2,0:0:0:0:
271,210,68030,1,8,0:0:0:0:
271,210,68170,1,8,0:0:0:0:
365,240,68310,2,0,L|434:229,1,70,2|2,1:2|1:2,0:0:0:0:
292,306,68590,2,0,L|205:292,1,70,10|0,0:0|1:2,0:0:0:0:
130,328,68871,5,10,0:0:0:0:
130,328,68941,1,8,0:0:0:0:
130,328,69011,2,0,L|124:293,5,35,0|0|8|8|8|8,1:0|1:0|0:3|0:3|0:3|0:3,0:0:0:0:
174,241,69431,2,0,L|200:75,1,140,10|8,0:0|0:0,0:0:0:0:
216,12,69852,5,10,0:0:0:0:
127,39,69992,2,0,L|55:50,1,70,4|0,1:2|1:2,0:0:0:0:
202,105,70273,2,0,L|271:115,1,70,10|0,0:0|0:0,0:0:0:0:
367,97,70553,2,0,B|372:140|372:140|352:175|352:175|357:231,1,140,2|8,1:2|0:0,0:0:0:0:
437,287,70974,2,0,L|506:276,1,70,2|0,1:2|0:0,0:0:0:0:
348,328,71254,2,0,L|278:317,1,70,2|8,1:2|0:0,0:0:0:0:
186,350,71534,2,0,L|164:211,1,140,2|0,0:0|1:2,0:0:0:0:
212,125,71955,2,0,L|142:114,1,70,8|0,0:0|1:2,0:0:0:0:
44,86,72235,5,2,0:0:0:0:
44,86,72375,2,0,L|55:156,1,70,2|8,1:2|0:0,0:0:0:0:
115,25,72656,2,0,B|171:20|171:20|206:40|206:40|249:35,1,140,2|0,1:2|1:2,0:0:0:0:
343,0,73076,1,10,0:0:0:0:
343,0,73217,2,0,L|320:142,1,140,2|2,1:2|1:2,0:0:0:0:
393,203,73637,2,0,L|462:192,1,70,8|0,0:0|0:0,0:0:0:0:
310,255,73917,2,0,L|240:244,1,70,2|0,1:2|1:2,0:0:0:0:
142,213,74198,2,0,L|153:283,1,70,10|0,0:0|0:0,0:0:0:0:
54,179,74478,5,4,1:2:0:0:
54,179,74618,2,0,B|59:123|59:123|39:88|39:88|44:45,1,140,0|0,1:2|0:0,0:0:0:0:
139,69,75039,1,2,1:2:0:0:
139,69,75179,2,0,L|208:58,1,70,2|8,1:2|0:0,0:0:0:0:
291,111,75460,2,0,L|268:253,1,140,2|0,1:2|1:2,0:0:0:0:
193,311,75880,2,0,L|123:301,1,70,8|0,0:0|0:0,0:0:0:0:
282,359,76160,1,2,1:2:0:0:
282,359,76301,2,0,L|351:349,1,70,2|8,1:2|0:0,0:0:0:0:
443,380,76581,6,0,L|466:238,1,140,2|2,1:2|1:2,0:0:0:0:
392,177,77002,1,8,0:0:0:0:
392,177,77282,2,0,L|404:97,1,70,0|2,1:2|1:2,0:0:0:0:
484,53,77562,1,8,0:0:0:0:
399,3,77702,1,2,1:2:0:0:
399,3,77773,1,0,1:0:0:0:
399,3,77843,6,0,L|260:25,1,140,10|2,0:0|1:2,0:0:0:0:
172,68,78263,2,0,L|182:-1,1,70,8|2,0:0|1:2,0:0:0:0:
94,126,78544,1,0,1:2:0:0:
94,126,78684,2,0,L|104:195,1,70,10|0,1:2|0:0,0:0:0:0:
69,286,78964,6,0,B|125:281|125:281|160:301|160:301|203:296,1,140,14|8,1:2|0:0,0:0:0:0:
300,281,79385,2,0,L|289:350,1,70,2|8,1:2|0:2,0:0:0:0:
388,277,79665,1,0,1:2:0:0:
388,277,79735,1,0,1:2:0:0:
388,277,79805,2,0,L|377:207,1,70,8|2,0:0|1:2,0:0:0:0:
458,152,80086,6,0,P|394:114|308:141,1,140,10|8,0:0|0:0,0:0:0:0:
237,96,80506,2,0,L|247:165,1,70,2|8,1:2|0:0,0:0:0:0:
149,81,80787,1,0,1:2:0:0:
149,81,80927,1,10,1:2:0:0:
34,249,81207,6,0,L|176:226,1,140,14|8,1:2|0:0,0:0:0:0:
255,280,81628,2,0,L|244:349,1,70,2|8,1:2|0:2,0:0:0:0:
353,235,81908,1,0,1:2:0:0:
353,235,81978,1,0,1:2:0:0:
353,235,82048,2,0,L|342:165,1,70,8|2,0:0|1:2,0:0:0:0:
260,98,82329,6,0,L|398:76,1,140,10|8,0:0|0:0,0:0:0:0:
490,126,82749,2,0,L|500:56,1,70,2|8,1:2|0:0,0:0:0:0:
415,152,83030,1,0,1:2:0:0:
415,152,83170,1,10,1:2:0:0:
504,341,83450,6,0,B|448:336|448:336|413:356|413:356|370:351,1,140,14|8,1:2|0:0,0:0:0:0:
270,315,83871,2,0,L|280:384,1,70,2|8,1:2|0:2,0:0:0:0:
183,274,84151,1,0,1:2:0:0:
183,274,84221,1,0,1:2:0:0:
183,274,84291,2,0,L|193:204,1,70,8|2,0:0|1:2,0:0:0:0:
112,138,84572,6,0,P|160:95|246:109,1,140,10|8,0:0|0:0,0:0:0:0:
322,46,84992,2,0,L|332:115,1,70,2|8,1:2|0:0,0:0:0:0:
246,10,85273,1,0,1:2:0:0:
246,10,85343,1,0,1:0:0:0:
246,10,85413,1,10,1:2:0:0:
416,89,85693,6,0,L|495:76,2,62.9999980773926,2|10|2,1:2|0:0|1:2,0:0:0:0:
357,163,86114,2,0,L|368:234,1,62.9999980773926,2|8,1:2|0:0,0:0:0:0:
381,318,86394,2,0,B|327:309|327:309|307:319|307:319|254:310,1,125.999996154785,0|8,1:2|0:0,0:0:0:0:
166,288,86815,6,0,L|177:359,2,62.9999980773926,2|8|0,1:2|0:0|1:2,0:0:0:0:
91,239,87235,2,0,L|102:167,1,62.9999980773926,2|8,1:2|0:0,0:0:0:0:
25,100,87516,2,0,L|151:79,1,125.999996154785,2|2,1:2|1:2,0:0:0:0:
241,35,87936,6,0,B|251:98|251:98|227:152|227:152|240:218,1,188.999994232178,4|0,1:2|0:0,0:0:0:0:
