osu file format v14

[General]
AudioFilename: audio.mp3
AudioLeadIn: 0
PreviewTime: 60452
Countdown: 0
SampleSet: Soft
StackLeniency: 0.7
Mode: 0
LetterboxInBreaks: 0
WidescreenStoryboard: 1

[Editor]
Bookmarks: 88769
DistanceSpacing: 0.7
BeatDivisor: 4
GridSize: 8
TimelineZoom: 2.1

[Metadata]
Title:LET iT END
TitleUnicode:LET iT END
Artist:SiM
ArtistUnicode:SiM
Creator:DanangEko
Version:Insane
Source:神撃のバハムート VIRGIN SOUL
Tags:神撃のバハムート shingeki no bahamut virgin soul opening screamo metal headbang hardcore
BeatmapID:1316533
BeatmapSetID:624327

[Difficulty]
HPDrainRate:5
CircleSize:4
OverallDifficulty:7
ApproachRate:8.8
SliderMultiplier:1.6
SliderTickRate:1

[Events]
//Background and Video events
0,0,"bg.jpg",0,0
//Break Periods
//Storyboard Layer 0 (Background)
//Storyboard Layer 1 (Fail)
//Storyboard Layer 2 (Pass)
//Storyboard Layer 3 (Foreground)
//Storyboard Sound Samples

[TimingPoints]
452,280.373831775701,4,2,1,100,1,0
43068,-133.333333333333,4,2,1,100,0,0
59891,-200,4,2,1,100,0,0
60452,-100,4,2,1,100,0,0
61012,-83.3333333333333,4,2,1,100,0,1
69984,-83.3333333333333,4,2,1,100,0,1
74470,-83.3333333333333,4,2,1,100,0,1
77835,-100,4,2,1,100,0,0
87928,-133.333333333333,4,2,1,100,0,0

[HitObjects]
401,305,452,6,0,B|354:303|354:303|227:334,1,160,12|0,0:0|0:0,0:0:0:0:
339,208,872,2,0,B|298:230|298:230|237:346,1,160,8|0,0:0|0:0,0:0:0:0:
134,349,1293,1,8,0:0:0:0:
116,341,1573,6,0,B|86:303|86:303|86:188,1,160,8|0,0:0|0:0,0:0:0:0:
29,289,1994,2,0,B|22:246|22:246|79:137,1,160,8|0,0:0|0:0,0:0:0:0:
144,73,2414,1,8,0:0:0:0:
215,162,2694,6,0,P|131:182|66:123,1,160,8|0,0:0|0:0,0:0:0:0:
229,82,3115,2,0,P|291:98|330:192,1,160,8|0,0:0|0:0,0:0:0:0:
212,289,3536,1,8,0:0:0:0:
212,289,3816,2,0,L|373:327,1,160,8|0,0:0|0:0,0:0:0:0:
491,193,4237,2,0,L|316:224,1,160,8|0,0:0|0:0,0:0:0:0:
258,100,4657,1,8,0:0:0:0:
233,129,4937,5,8,0:0:0:0:
154,269,5078,1,0,0:0:0:0:
154,269,5148,1,0,0:0:0:0:
154,269,5218,2,0,P|99:286|43:282,1,80,8|0,0:0|0:0,0:0:0:0:
185,168,5498,2,0,P|233:191|270:234,1,80,8|0,0:0|0:0,0:0:0:0:
261,251,5709,1,0,0:0:0:0:
274,291,5779,2,0,P|320:322|369:335,1,80,8|0,0:0|0:0,0:0:0:0:
492,235,6059,6,0,L|400:248,1,80,8|0,0:0|0:0,0:0:0:0:
324,179,6269,1,0,0:0:0:0:
324,179,6339,2,0,L|422:173,1,80,8|0,0:0|0:0,0:0:0:0:
463,101,6620,1,8,0:0:0:0:
401,38,6760,1,0,0:0:0:0:
401,38,6830,1,0,0:0:0:0:
401,38,6900,2,0,L|289:44,1,80,8|0,0:0|0:0,0:0:0:0:
146,131,7180,6,0,L|251:132,1,80,8|0,0:0|0:0,0:0:0:0:
243,178,7391,1,0,0:0:0:0:
258,212,7461,2,0,P|268:260|257:312,1,80,8|0,0:0|0:0,0:0:0:0:
154,360,7741,2,0,P|125:315|112:279,1,80,8|0,0:0|0:0,0:0:0:0:
3,183,7952,1,0,0:0:0:0:
5,201,8022,2,0,P|20:259|48:301,1,80,8|0,0:0|0:0,0:0:0:0:
176,148,8302,6,0,P|165:98|139:58,1,80,8|0,0:0|0:0,0:0:0:0:
112,55,8512,1,0,0:0:0:0:
112,55,8582,2,0,P|156:70|220:68,1,80,8|0,0:0|0:0,0:0:0:0:
370,97,8863,2,0,L|270:111,1,80,8|0,0:0|0:0,0:0:0:0:
232,202,9073,1,0,0:0:0:0:
232,202,9143,2,0,L|330:212,1,80,8|0,0:0|0:0,0:0:0:0:
439,334,9423,6,0,L|331:343,1,80,8|0,0:0|0:0,0:0:0:0:
318,338,9634,1,0,0:0:0:0:
281,329,9704,2,0,B|232:326|232:326|179:344,1,80,8|0,0:0|0:0,0:0:0:0:
31,324,9984,2,0,B|77:331|77:331|115:313,1,80,8|0,0:0|0:0,0:0:0:0:
137,293,10194,1,0,0:0:0:0:
166,265,10265,2,0,P|172:225|140:164,1,80,8|0,0:0|0:0,0:0:0:0:
87,75,10545,6,0,L|95:184,1,80,8|0,0:0|0:0,0:0:0:0:
168,67,10755,1,0,0:0:0:0:
196,47,10825,2,0,L|199:158,1,80,8|0,0:0|0:0,0:0:0:0:
292,248,11106,2,0,L|293:151,1,80,8|0,0:0|0:0,0:0:0:0:
351,97,11316,1,0,0:0:0:0:
382,103,11386,2,0,L|379:196,1,80,8|0,0:0|0:0,0:0:0:0:
365,349,11666,6,0,P|340:313|288:304,1,80,8|0,0:0|0:0,0:0:0:0:
210,338,11877,1,0,0:0:0:0:
234,355,11947,2,0,P|263:296|260:258,1,80,8|0,0:0|0:0,0:0:0:0:
146,149,12227,6,0,L|168:253,1,80,8|0,0:0|0:0,0:0:0:0:
72,130,12437,1,0,0:0:0:0:
37,117,12508,2,0,L|55:215,1,80,8|0,0:0|0:0,0:0:0:0:
179,340,12788,5,8,0:0:0:0:
348,257,12928,1,8,0:0:0:0:
177,163,13068,1,8,0:0:0:0:
377,257,13209,6,0,B|491:262|491:262|434:229,1,160
280,113,13909,6,0,L|254:202,2,80,0|8|0,0:0|0:0|0:0,0:0:0:0:
359,182,14330,1,0,0:0:0:0:
328,292,14470,1,8,0:0:0:0:
224,323,14610,2,0,B|150:313|115:357|115:357|74:319,1,160,0|8,0:0|0:0,0:0:0:0:
97,148,15031,6,0,L|115:236,1,80,0|8,0:0|0:0,0:0:0:0:
7,112,15311,1,0,0:0:0:0:
108,47,15452,1,0,0:0:0:0:
108,47,15592,2,0,L|204:54,1,80,8|0,0:0|0:0,0:0:0:0:
333,155,15872,2,0,L|227:146,1,80,0|8,0:0|0:0,0:0:0:0:
157,294,16152,6,0,L|62:295,2,80,0|8|0,0:0|0:0|0:0,0:0:0:0:
229,362,16573,1,0,0:0:0:0:
311,297,16713,1,8,0:0:0:0:
413,364,16853,2,0,B|442:328|442:328|446:193,1,160
389,127,17204,1,0,0:0:0:0:
350,139,17274,6,0,P|355:185|395:228,1,80,8|0,0:0|0:0,0:0:0:0:
474,67,17554,1,0,0:0:0:0:
324,84,17694,2,0,B|238:60|239:118|163:78,1,160,8|0,0:0|0:0,0:0:0:0:
89,23,18115,2,0,P|72:71|84:121,1,80,8|0,0:0|0:0,0:0:0:0:
159,308,18395,6,0,L|177:217,1,80,0|8,0:0|0:0,0:0:0:0:
73,353,18676,1,0,0:0:0:0:
264,252,18816,1,0,0:0:0:0:
103,187,18956,2,0,L|85:279,1,80,8|0,0:0|0:0,0:0:0:0:
245,138,19237,1,0,0:0:0:0:
135,63,19377,1,8,0:0:0:0:
201,234,19517,6,0,P|261:251|301:254,1,80,0|8,0:0|0:0,0:0:0:0:
435,289,19797,1,0,0:0:0:0:
328,197,19937,1,0,0:0:0:0:
439,335,20078,1,8,0:0:0:0:
341,155,20218,2,0,B|315:46|315:46|361:88,1,160,0|8,0:0|0:0,0:0:0:0:
399,239,20638,5,0,0:0:0:0:
325,354,20779,1,8,0:0:0:0:
225,303,20919,2,0,P|165:313|126:346,1,80
39,344,21199,1,8,0:0:0:0:
39,344,21339,2,0,P|62:286|54:178,1,160
65,91,21690,1,0,0:0:0:0:
65,91,21760,6,0,B|103:106|103:106|224:62,1,160,8|0,0:0|0:0,0:0:0:0:
454,139,22180,2,0,B|418:156|418:156|285:126,1,160,8|0,0:0|0:0,0:0:0:0:
138,231,22601,1,8,0:0:0:0:
165,237,22881,5,0,0:0:0:0:
248,269,23022,1,0,0:0:0:0:
305,350,23162,1,8,0:0:0:0:
385,294,23302,2,0,P|405:246|392:131,1,160
265,49,23723,1,8,0:0:0:0:
282,73,24003,6,0,P|324:86|444:64,1,160,0|8,0:0|0:0,0:0:0:0:
259,189,24423,2,0,P|179:200|88:172,1,160
91,57,24844,1,8,0:0:0:0:
126,80,25124,6,0,L|105:173,1,80
20,297,25405,1,8,0:0:0:0:
34,333,25545,2,0,B|57:355|57:355|199:337,1,160
311,356,25966,2,0,P|320:315|305:269,1,80,8|0,0:0|0:0,0:0:0:0:
149,173,26246,5,0,0:0:0:0:
212,266,26386,1,0,0:0:0:0:
141,132,26526,1,8,0:0:0:0:
206,319,26666,2,0,P|249:289|357:322,1,160
456,364,27087,2,0,P|471:316|465:271,1,80,8|0,0:0|0:0,0:0:0:0:
373,161,27367,6,0,L|395:258,2,80,0|0|8,0:0|0:0|0:0,0:0:0:0:
294,105,27788,2,0,B|254:120|211:71|211:71|124:73,1,160
55,151,28209,2,0,P|115:164|157:146,1,80,8|0,0:0|0:0,0:0:0:0:
77,59,28489,6,0,L|62:235,1,160,0|8,0:0|0:0,0:0:0:0:
140,355,28909,2,0,L|163:195,1,160
265,135,29330,2,0,L|254:226,1,80,8|0,0:0|0:0,0:0:0:0:
381,353,29610,5,0,0:0:0:0:
348,258,29751,1,0,0:0:0:0:
408,160,29891,1,8,0:0:0:0:
321,269,30031,2,0,P|263:278|161:266,1,160
106,99,30452,1,8,0:0:0:0:
121,121,30732,5,0,0:0:0:0:
175,293,30872,1,0,0:0:0:0:
138,87,31012,1,8,0:0:0:0:
145,321,31152,2,0,B|125:371|46:377|46:377|53:343|72:314,1,160
193,175,31573,1,8,0:0:0:0:
225,194,31853,6,0,P|279:202|332:191,1,80
417,62,32134,1,8,0:0:0:0:
417,62,32274,2,0,P|406:125|421:245,1,160
349,353,32694,2,0,P|327:300|321:256,1,80,8|0,0:0|0:0,0:0:0:0:
277,194,32975,6,0,B|216:199|216:199|125:153,1,160,0|8,0:0|0:0,0:0:0:0:
200,249,33395,2,0,B|151:226|151:226|90:110,1,160
167,31,33816,2,0,P|186:74|177:115,1,80,8|0,0:0|0:0,0:0:0:0:
61,314,34096,5,0,0:0:0:0:
277,194,34237,1,0,0:0:0:0:
127,154,34377,1,8,0:0:0:0:
303,298,34517,2,0,B|336:263|336:263|350:140,1,160
249,44,34937,2,0,P|255:103|283:133,1,80,8|0,0:0|0:0,0:0:0:0:
427,257,35218,5,0,0:0:0:0:
254,189,35358,1,0,0:0:0:0:
422,147,35498,1,8,0:0:0:0:
267,303,35638,2,0,B|204:322|145:297|145:297|110:330,1,160
37,362,36059,2,0,P|24:315|21:277,1,80,8|0,0:0|0:0,0:0:0:0:
210,75,36339,5,0,0:0:0:0:
18,145,36480,1,0,0:0:0:0:
245,159,36620,1,8,0:0:0:0:
70,67,36760,2,0,P|52:122|58:249,1,160
172,364,37180,2,0,P|177:311|157:270,1,80,8|0,0:0|0:0,0:0:0:0:
12,297,37461,6,0,B|73:310|73:310|200:278,1,160,0|8,0:0|0:0,0:0:0:0:
409,214,37881,2,0,P|351:252|328:359,1,160
487,269,38302,2,0,P|509:220|494:163,1,80,8|0,0:0|0:0,0:0:0:0:
273,100,38582,5,0,0:0:0:0:
435,176,38723,1,0,0:0:0:0:
260,145,38863,1,8,0:0:0:0:
450,143,39003,2,0,B|402:127|402:127|277:142,1,160
219,290,39423,1,8,0:0:0:0:
198,303,39704,6,0,L|101:322,1,80
26,229,39984,1,8,0:0:0:0:
210,169,40124,2,0,L|39:200,1,160
140,81,40545,2,8,L|234:70,1,80,0|0,0:0|0:0,0:0:0:0:
361,153,40825,6,0,L|274:166,2,80,0|8|0,0:0|0:0|0:0,0:0:0:0:
414,216,41246,2,0,P|443:138|393:76,1,160
314,237,41666,2,0,P|309:288|324:331,1,80
446,211,41947,5,0,0:0:0:0:
269,253,42087,1,0,0:0:0:0:
420,189,42227,5,0,0:0:0:0:
255,163,42367,1,0,0:0:0:0:
411,158,42508,5,8,0:0:0:0:
305,98,42648,1,0,0:0:0:0:
427,84,43068,5,0,0:0:0:0:
427,84,43209,2,0,L|414:225,1,120.000004577637
353,348,43629,2,0,B|316:329|316:329|221:346,1,120.000004577637,8|0,0:0|0:0,0:0:0:0:
129,347,44050,2,0,P|80:328|58:264,1,120.000004577637
153,149,44470,2,0,L|135:276,1,120.000004577637,0|8,0:0|0:0,0:0:0:0:
62,111,44891,1,0,0:0:0:0:
85,85,45171,1,8,0:0:0:0:
230,49,45311,5,0,0:0:0:0:
94,107,45452,2,0,P|134:100|236:108,1,120.000004577637
385,197,45872,2,0,P|325:191|267:202,1,120.000004577637,8|0,0:0|0:0,0:0:0:0:
112,347,46293,2,0,P|156:333|249:340,1,120.000004577637
365,341,46713,1,0,0:0:0:0:
375,325,46994,2,0,P|398:280|399:250,1,60.0000022888184,8|0,0:0|0:0,0:0:0:0:
282,144,47274,2,0,P|280:191|292:221,1,60.0000022888184,0|8,0:0|0:0,0:0:0:0:
421,77,47554,5,0,0:0:0:0:
421,77,47694,2,0,B|388:98|388:98|297:84,1,120.000004577637
186,46,48115,2,0,L|205:178,1,120.000004577637,8|0,0:0|0:0,0:0:0:0:
158,356,48536,2,0,P|114:329|99:261,1,120.000004577637
236,235,48956,2,0,L|169:285,1,60.0000022888184
46,175,49237,2,0,L|103:199,1,60.0000022888184,8|0,0:0|0:0,0:0:0:0:
220,77,49517,1,0,0:0:0:0:
131,111,49657,1,8,0:0:0:0:
263,202,49797,5,0,0:0:0:0:
263,202,49937,2,0,P|319:199|372:133,1,120.000004577637
352,44,50358,2,0,P|343:97|378:173,1,120.000004577637,8|8,0:0|0:0,0:0:0:0:
454,221,50779,2,0,B|471:260|471:260|450:350,1,120.000004577637
337,355,51199,2,0,B|284:346|284:346|199:369,1,120.000004577637,0|8,0:0|0:0,0:0:0:0:
54,303,51620,5,0,0:0:0:0:
212,338,51760,1,0,0:0:0:0:
70,209,51900,5,0,0:0:0:0:
211,298,52040,1,0,0:0:0:0:
211,298,52180,2,0,L|90:320,1,120.000004577637
5,191,52601,2,0,L|146:211,1,120.000004577637,8|0,0:0|0:0,0:0:0:0:
221,145,53022,2,0,P|173:125|139:54,1,120.000004577637
238,57,53442,2,0,P|286:77|320:148,1,120.000004577637,0|8,0:0|0:0,0:0:0:0:
273,319,53863,1,0,0:0:0:0:
288,303,54143,1,8,0:0:0:0:
367,269,54283,5,0,0:0:0:0:
367,269,54423,2,0,L|357:397,1,120.000004577637
468,174,54844,2,0,L|492:312,1,120.000004577637,8|0,0:0|0:0,0:0:0:0:
296,95,55265,2,0,L|282:239,1,120.000004577637
167,353,55685,2,8,L|142:233,1,120.000004577637,0|8,0:0|0:0,0:0:0:0:
54,137,56106,1,0,0:0:0:0:
92,278,56246,1,0,0:0:0:0:
99,80,56386,1,8,0:0:0:0:
30,324,56526,5,0,0:0:0:0:
30,324,56666,2,0,P|94:313|152:324,1,120.000004577637
304,351,57087,2,0,P|246:302|246:244,1,120.000004577637,8|0,0:0|0:0,0:0:0:0:
352,156,57508,2,0,L|319:279,1,120.000004577637
281,128,57928,2,0,P|333:81|390:87,1,120.000004577637,0|8,0:0|0:0,0:0:0:0:
459,138,58349,1,0,0:0:0:0:
475,222,58489,1,0,0:0:0:0:
439,297,58629,1,0,0:0:0:0:
353,341,58769,6,0,B|306:335|306:335|212:350,1,120.000004577637
35,273,59190,2,0,B|75:284|75:284|171:264,1,120.000004577637
273,183,59610,1,8,0:0:0:0:
303,202,59891,6,0,B|222:238|218:184|138:211,1,160
122,235,60592,1,0,0:0:0:0:
346,186,60732,1,8,0:0:0:0:
148,101,60872,5,0,0:0:0:0:
379,151,61012,2,0,L|366:262,1,95.9999970703126,12|0,0:0|0:0,0:0:0:0:
230,260,61223,1,0,0:0:0:0:
230,260,61293,2,0,L|261:364,1,95.9999970703126,8|0,0:0|0:0,0:0:0:0:
444,259,61573,2,0,L|458:151,1,95.9999970703126,8|0,0:0|0:0,0:0:0:0:
341,81,61783,1,0,0:0:0:0:
341,81,61853,2,0,L|358:186,1,95.9999970703126,8|0,0:0|0:0,0:0:0:0:
189,297,62134,6,0,L|210:194,1,95.9999970703126,8|0,0:0|0:0,0:0:0:0:
78,128,62344,1,0,0:0:0:0:
78,128,62414,2,0,L|97:235,1,95.9999970703126,8|0,0:0|0:0,0:0:0:0:
174,319,62694,2,0,P|232:311|289:324,1,95.9999970703126,8|0,0:0|0:0,0:0:0:0:
306,337,62905,1,0,0:0:0:0:
346,350,62975,2,0,P|396:350|445:331,1,95.9999970703126,8|0,0:0|0:0,0:0:0:0:
399,182,63255,6,0,L|385:289,1,95.9999970703126,8|0,0:0|0:0,0:0:0:0:
483,165,63466,1,0,0:0:0:0:
483,165,63536,2,0,P|448:113|390:106,1,95.9999970703126,8|0,0:0|0:0,0:0:0:0:
303,194,63816,2,0,L|406:180,1,95.9999970703126,8|0,0:0|0:0,0:0:0:0:
296,283,64026,1,0,0:0:0:0:
296,283,64096,2,0,L|192:283,1,95.9999970703126,8|0,0:0|0:0,0:0:0:0:
24,353,64377,6,0,L|125:344,1,95.9999970703126,8|0,0:0|0:0,0:0:0:0:
228,242,64587,1,0,0:0:0:0:
239,219,64657,2,0,L|135:206,1,95.9999970703126,8|0,0:0|0:0,0:0:0:0:
31,123,64937,2,0,L|135:100,1,95.9999970703126,8|0,0:0|0:0,0:0:0:0:
158,91,65148,1,0,0:0:0:0:
196,98,65218,2,0,L|305:115,1,95.9999970703126,8|0,0:0|0:0,0:0:0:0:
492,186,65498,6,0,P|454:229|398:241,1,95.9999970703126,12|0,0:0|0:0,0:0:0:0:
365,240,65709,1,0,0:0:0:0:
323,257,65779,2,0,P|314:317|328:380,1,95.9999970703126,8|0,0:0|0:0,0:0:0:0:
464,259,66059,2,0,P|477:193|469:135,1,95.9999970703126,8|0,0:0|0:0,0:0:0:0:
331,117,66269,1,0,0:0:0:0:
331,117,66339,2,0,P|350:177|379:212,1,95.9999970703126,8|0,0:0|0:0,0:0:0:0:
334,342,66620,5,8,0:0:0:0:
241,279,66760,2,0,L|185:269,1,47.9999985351563
34,343,66900,2,0,L|139:326,1,95.9999970703126,8|0,0:0|0:0,0:0:0:0:
259,233,67180,1,8,0:0:0:0:
88,197,67321,1,0,0:0:0:0:
243,129,67461,1,8,0:0:0:0:
77,82,67601,6,0,L|274:72,1,191.999994140625
366,143,68022,1,8,0:0:0:0:
366,143,68162,1,8,0:0:0:0:
466,232,68302,1,0,0:0:0:0:
466,232,68442,1,0,0:0:0:0:
379,317,68582,2,0,L|271:299,1,95.9999970703126,8|0,0:0|0:0,0:0:0:0:
165,345,68863,5,0,0:0:0:0:
165,345,68933,1,0,0:0:0:0:
165,345,69003,1,0,0:0:0:0:
165,345,69073,1,0,0:0:0:0:
165,345,69143,2,0,L|107:330,3,47.9999985351563
337,301,69423,5,0,0:0:0:0:
196,224,69564,1,8,0:0:0:0:
196,224,69704,1,0,0:0:0:0:
386,179,69844,1,4,0:0:0:0:
386,179,69984,6,0,L|494:171,1,95.9999970703126
279,93,70265,2,0,L|166:80,1,95.9999970703126,8|0,0:0|0:0,0:0:0:0:
58,206,70545,1,0,0:0:0:0:
167,163,70685,1,0,0:0:0:0:
6,134,70825,1,8,0:0:0:0:
160,241,70966,2,0,B|259:210|258:280|351:234,1,191.999994140625
311,87,71386,6,0,P|288:143|297:191,1,95.9999970703126,8|0,0:0|0:0,0:0:0:0:
412,346,71666,1,0,0:0:0:0:
412,346,71807,1,0,0:0:0:0:
386,195,71947,1,8,0:0:0:0:
319,328,72087,2,0,B|250:358|190:317|190:317|123:352,1,191.999994140625
41,351,72508,6,0,P|27:316|30:250,1,95.9999970703126,8|0,0:0|0:0,0:0:0:0:
146,82,72788,1,0,0:0:0:0:
146,82,72928,1,0,0:0:0:0:
25,142,73068,1,8,0:0:0:0:
172,181,73209,2,0,P|256:194|372:175,1,191.999994140625
304,28,73629,6,0,P|293:71|303:128,1,95.9999970703126,8|0,0:0|0:0,0:0:0:0:
486,269,73909,2,0,P|433:239|370:242,1,95.9999970703126
159,277,74190,2,0,P|208:287|265:272,1,95.9999970703126,8|0,0:0|0:0,0:0:0:0:
214,126,74470,2,0,L|204:322,2,191.999994140625,0|8|0,0:0|0:0|0:0,0:0:0:0:
117,215,75171,1,0,0:0:0:0:
289,307,75311,1,8,0:0:0:0:
56,359,75452,2,0,P|36:312|57:161,1,191.999994140625
179,117,75872,6,0,B|228:101|228:101|379:120,1,191.999994140625,8|0,0:0|0:0,0:0:0:0:
472,289,76293,1,0,0:0:0:0:
472,289,76433,1,8,0:0:0:0:
336,255,76573,2,0,P|255:248|140:277,1,191.999994140625
383,357,76994,6,0,P|425:319|445:272,1,95.9999970703126,8|0,0:0|0:0,0:0:0:0:
302,146,77274,2,0,P|269:200|274:249,1,95.9999970703126,8|0,0:0|0:0,0:0:0:0:
496,159,77554,2,0,P|490:108|456:69,1,95.9999970703126,8|0,0:0|0:0,0:0:0:0:
377,166,77835,6,0,P|317:178|248:103,1,160,8|0,0:0|0:0,0:0:0:0:
316,233,78255,2,0,P|268:212|262:96,1,160,8|0,0:0|0:0,0:0:0:0:
187,242,78676,2,0,P|182:191|263:110,1,160,8|4,0:0|0:0,0:0:0:0:
326,302,79096,1,0,0:0:0:0:
326,302,79166,1,0,0:0:0:0:
326,302,79237,6,0,L|228:311,1,80,8|0,0:0|0:0,0:0:0:0:
19,288,79517,2,0,L|119:272,1,80,8|0,0:0|0:0,0:0:0:0:
174,195,79727,1,0,0:0:0:0:
174,195,79797,2,0,L|76:190,1,80,8|0,0:0|0:0,0:0:0:0:
212,97,80078,6,0,P|254:135|270:187,1,80,8|0,0:0|0:0,0:0:0:0:
248,198,80288,1,0,0:0:0:0:
222,238,80358,2,0,P|225:293|250:348,1,80,8|0,0:0|0:0,0:0:0:0:
451,348,80638,1,8,0:0:0:0:
319,295,80779,1,0,0:0:0:0:
319,295,80849,1,0,0:0:0:0:
319,295,80919,1,8,0:0:0:0:
466,228,81059,1,0,0:0:0:0:
334,190,81199,6,0,L|242:185,1,80,8|0,0:0|0:0,0:0:0:0:
236,146,81409,1,0,0:0:0:0:
215,108,81480,2,0,P|225:68|272:26,1,80,8|0,0:0|0:0,0:0:0:0:
398,134,81760,1,8,0:0:0:0:
313,365,81900,1,0,0:0:0:0:
313,365,81970,1,0,0:0:0:0:
313,365,82040,1,8,0:0:0:0:
215,235,82180,1,0,0:0:0:0:
52,313,82321,6,0,L|148:297,1,80,8|0,0:0|0:0,0:0:0:0:
215,235,82531,1,0,0:0:0:0:
246,206,82601,2,0,L|148:194,1,80,8|0,0:0|0:0,0:0:0:0:
28,126,82881,2,0,L|116:108,1,80,8|0,0:0|0:0,0:0:0:0:
270,94,83162,1,8,0:0:0:0:
110,78,83302,1,0,0:0:0:0:
286,138,83442,6,0,L|388:129,1,80,8|0,0:0|0:0,0:0:0:0:
439,203,83652,1,0,0:0:0:0:
439,203,83723,2,0,L|341:215,1,80,8|0,0:0|0:0,0:0:0:0:
222,307,84003,1,8,0:0:0:0:
325,340,84143,2,0,L|366:343,2,40,0|0|8,0:0|0:0|0:0,0:0:0:0:
188,302,84423,1,0,0:0:0:0:
77,366,84564,6,0,L|26:268,1,80,8|0,0:0|0:0,0:0:0:0:
188,302,84774,1,0,0:0:0:0:
219,292,84844,2,0,L|233:211,1,80,8|0,0:0|0:0,0:0:0:0:
30,202,85124,2,0,L|3:112,1,80,8|0,0:0|0:0,0:0:0:0:
292,155,85405,2,0,L|312:55,1,80,8|0,0:0|0:0,0:0:0:0:
74,214,85685,6,0,L|103:314,2,80,0|8|0,0:0|0:0|0:0,0:0:0:0:
121,128,86106,1,0,0:0:0:0:
250,271,86246,1,8,0:0:0:0:
237,80,86386,2,0,B|214:158|272:182|226:262,1,160,0|8,0:0|0:0,0:0:0:0:
326,360,86807,5,0,0:0:0:0:
331,164,86947,1,8,0:0:0:0:
407,271,87087,1,0,0:0:0:0:
426,89,87227,1,0,0:0:0:0:
331,164,87367,2,0,L|341:273,1,80,8|0,0:0|0:0,0:0:0:0:
183,241,87648,1,0,0:0:0:0:
287,157,87788,1,0,0:0:0:0:
88,135,87928,6,0,B|52:194|94:224|94:224|58:251|58:251|92:306|62:364,1,240.000009155274
