osu file format v14

[General]
AudioFilename: audio.mp3
AudioLeadIn: 0
PreviewTime: 64020
Countdown: 0
SampleSet: Normal
StackLeniency: 0.7
Mode: 3
LetterboxInBreaks: 0
SpecialStyle: 0
WidescreenStoryboard: 0

[Editor]
DistanceSpacing: 2
BeatDivisor: 4
GridSize: 32
TimelineZoom: 2.4

[Metadata]
Title:EXiSTENCE
TitleUnicode:EXiSTENCE
Artist:SiM
ArtistUnicode:SiM
Creator:puxtu
Version:MAXiMUM
Source:神撃のバハムート GENESIS
Tags:Silenze Iz Mine THE BEAUTiFUL PEOPLE shingeki no bahamut sin mah godri show-hate silence iz mine reggae punk hard core screamo ska opening theme one SEEDS OF HOPE
BeatmapID:1074130
BeatmapSetID:504889

[Difficulty]
HPDrainRate:8.6
CircleSize:4
OverallDifficulty:8.3
ApproachRate:5
SliderMultiplier:1.4
SliderTickRate:1

[Events]
//Background and Video events
0,0,"wallhaven-170495.jpg",0,0
//Break Periods
//Storyboard Layer 0 (Background)
//Storyboard Layer 1 (Fail)
//Storyboard Layer 2 (Pass)
//Storyboard Layer 3 (Foreground)
//Storyboard Sound Samples

[TimingPoints]
187,319.148936170213,4,1,4,50,1,0
10399,-100,4,1,4,50,0,1
19335,-100,4,1,4,50,0,0
30506,319.148936170213,4,1,4,50,1,0
32740,319.148936170213,4,1,4,50,1,0
33382,319.148936170213,4,1,4,50,1,0
64020,-100,4,1,4,50,0,1
83807,-100,4,1,4,50,0,0
94339,315.789473684211,4,1,4,50,1,0
94339,-101.112234580384,4,1,4,50,0,0
96865,344.827586206897,4,1,4,50,1,0
96865,-92.5925925925926,4,1,4,50,0,0
97209,319.148936170213,4,1,4,50,1,0
126570,-100,4,1,4,50,0,1
136145,-100,4,1,4,50,0,0
136783,-100,4,1,4,50,0,1
157209,-100,4,1,4,50,0,0
182740,320.427236315087,4,1,4,50,1,0
182740,-99.9600159936026,4,1,4,50,0,0
185303,319.148936170213,4,1,4,50,1,0
210834,-100,4,1,4,50,0,1
230622,-100,4,1,4,50,0,0
239558,344.827586206897,4,1,4,50,1,0
239558,-92.5925925925926,4,1,4,50,0,0
239902,375,4,1,4,50,1,0
240002,-85.1063829787234,4,1,4,50,0,0

[HitObjects]
64,192,187,5,8,0:0:0:0:
448,192,187,1,4,0:0:0:0:
320,192,187,1,0,0:0:0:0:
64,192,346,1,0,0:0:0:0:
320,192,506,1,0,0:0:0:0:
192,192,665,1,8,0:0:0:0:
448,192,665,1,0,0:0:0:0:
64,192,665,1,2,0:0:0:0:
448,192,825,1,0,0:0:0:0:
192,192,984,1,0,0:0:0:0:
320,192,1144,1,0,0:0:0:0:
448,192,1144,1,2,0:0:0:0:
64,192,1144,128,8,1463:0:0:0:0:
320,192,1304,1,0,0:0:0:0:
192,192,1463,1,2,0:0:0:0:
448,192,1463,1,0,0:0:0:0:
320,192,1463,1,8,0:0:0:0:
448,192,1623,1,0,0:0:0:0:
192,192,1782,1,0,0:0:0:0:
320,192,1942,1,8,0:0:0:0:
64,192,1942,1,0,0:0:0:0:
448,192,1942,1,2,0:0:0:0:
64,192,2101,1,0,0:0:0:0:
320,192,2261,1,0,0:0:0:0:
192,192,2421,1,0,0:0:0:0:
64,192,2421,1,2,0:0:0:0:
448,192,2421,128,8,2740:0:0:0:0:
64,192,2580,1,0,0:0:0:0:
320,192,2740,1,2,0:0:0:0:
64,192,2740,1,0,0:0:0:0:
192,192,2740,1,8,0:0:0:0:
448,192,2899,1,0,0:0:0:0:
64,192,3059,1,0,0:0:0:0:
448,192,3218,1,2,0:0:0:0:
192,192,3218,1,0,0:0:0:0:
320,192,3218,1,8,0:0:0:0:
320,192,3378,1,0,0:0:0:0:
64,192,3538,1,0,0:0:0:0:
448,192,3697,128,8,4016:0:0:0:0:
320,192,3697,1,2,0:0:0:0:
192,192,3697,1,0,0:0:0:0:
192,192,3857,1,0,0:0:0:0:
192,192,4016,1,8,0:0:0:0:
64,192,4016,1,0,0:0:0:0:
320,192,4016,1,6,0:0:0:0:
448,192,4176,1,0,0:0:0:0:
192,192,4335,1,0,0:0:0:0:
320,192,4495,1,8,0:0:0:0:
64,192,4495,1,0,0:0:0:0:
448,192,4495,1,4,0:0:0:0:
64,192,4655,1,0,0:0:0:0:
320,192,4814,1,0,0:0:0:0:
192,192,4974,1,0,0:0:0:0:
64,192,4974,1,8,0:0:0:0:
448,192,5054,1,0,0:0:0:0:
320,192,5054,1,8,0:0:0:0:
64,192,5133,1,8,0:0:0:0:
192,192,5133,1,0,0:0:0:0:
448,192,5213,1,8,0:0:0:0:
320,192,5213,1,0,0:0:0:0:
192,192,5293,1,0,0:0:0:0:
64,192,5293,1,4,0:0:0:0:
320,192,5293,1,8,0:0:0:0:
448,192,5452,1,0,0:0:0:0:
192,192,5612,1,0,0:0:0:0:
448,192,5772,1,2,0:0:0:0:
64,192,5772,1,0,0:0:0:0:
320,192,5772,1,8,0:0:0:0:
64,192,5931,1,0,0:0:0:0:
192,192,6091,1,0,0:0:0:0:
64,192,6250,128,8,6569:0:0:0:0:
448,192,6250,1,2,0:0:0:0:
320,192,6250,1,0,0:0:0:0:
448,192,6410,1,0,0:0:0:0:
320,192,6569,1,8,0:0:0:0:
448,192,6569,1,0,0:0:0:0:
192,192,6569,1,2,0:0:0:0:
64,192,6729,1,0,0:0:0:0:
320,192,6889,1,0,0:0:0:0:
64,192,7048,1,2,0:0:0:0:
448,192,7048,1,0,0:0:0:0:
192,192,7048,1,8,0:0:0:0:
448,192,7208,1,0,0:0:0:0:
192,192,7367,1,0,0:0:0:0:
448,192,7527,1,2,0:0:0:0:
64,192,7527,1,0,0:0:0:0:
192,192,7527,1,8,0:0:0:0:
320,192,7687,1,0,0:0:0:0:
192,192,7766,1,0,0:0:0:0:
64,192,7846,1,8,0:0:0:0:
320,192,7846,1,4,0:0:0:0:
448,192,7846,128,0,8165:0:0:0:0:
64,192,8165,1,2,0:0:0:0:
192,192,8165,1,8,0:0:0:0:
320,192,8165,1,0,0:0:0:0:
320,192,8325,1,0,0:0:0:0:
192,192,8325,1,8,0:0:0:0:
64,192,8325,1,2,0:0:0:0:
320,192,8484,1,2,0:0:0:0:
192,192,8484,1,8,0:0:0:0:
448,192,8484,1,0,0:0:0:0:
448,192,8644,1,0,0:0:0:0:
192,192,8644,1,8,0:0:0:0:
320,192,8644,1,2,0:0:0:0:
64,192,8804,1,2,0:0:0:0:
192,192,8804,1,8,0:0:0:0:
448,192,8804,1,0,0:0:0:0:
448,192,8963,1,0,0:0:0:0:
192,192,8963,1,8,0:0:0:0:
64,192,8963,1,2,0:0:0:0:
448,192,9123,1,0,0:0:0:0:
320,192,9123,1,8,0:0:0:0:
192,192,9202,1,8,0:0:0:0:
64,192,9202,1,0,0:0:0:0:
448,192,9282,1,8,0:0:0:0:
320,192,9282,1,0,0:0:0:0:
64,192,9362,1,0,0:0:0:0:
192,192,9362,1,8,0:0:0:0:
448,192,9442,1,8,0:0:0:0:
320,192,9442,1,0,0:0:0:0:
192,192,9522,1,8,0:0:0:0:
64,192,9522,1,0,0:0:0:0:
320,192,9601,1,0,0:0:0:0:
448,192,9601,1,8,0:0:0:0:
64,192,9681,1,0,0:0:0:0:
192,192,9681,1,8,0:0:0:0:
448,192,9761,1,8,0:0:0:0:
320,192,9761,1,0,0:0:0:0:
64,192,10080,1,0,0:0:0:0:
448,192,10080,1,4,3:0:0:0:
320,192,10399,1,4,0:0:0:0:
64,192,10399,1,0,0:0:0:0:
448,192,10399,1,2,0:1:0:0:
192,192,10559,1,0,0:0:0:0:
448,192,10718,1,2,0:0:0:0:
320,192,10718,1,0,0:0:0:0:
64,192,10718,128,8,11038:0:0:0:0:
192,192,11038,1,0,0:0:0:0:
448,192,11038,128,2,11357:0:0:0:0:
64,192,11357,1,2,0:0:0:0:
192,192,11357,1,0,0:0:0:0:
320,192,11357,1,8,0:0:0:0:
448,192,11516,1,0,0:0:0:0:
192,192,11676,1,2,0:0:0:0:
64,192,11676,128,0,11995:0:0:0:0:
192,192,11995,1,2,0:0:0:0:
448,192,11995,1,0,0:0:0:0:
320,192,11995,1,8,0:0:0:0:
64,192,12314,1,4,3:0:0:0:
192,192,12314,1,2,0:0:0:0:
448,192,12314,1,0,0:0:0:0:
64,192,12633,1,8,0:0:0:0:
192,192,12633,1,2,0:0:0:0:
448,192,12633,1,0,0:0:0:0:
320,192,12952,1,4,0:0:0:0:
448,192,12952,1,0,0:0:0:0:
64,192,12952,1,2,0:1:0:0:
192,192,13112,1,0,0:0:0:0:
64,192,13272,1,2,0:0:0:0:
320,192,13272,1,0,0:0:0:0:
448,192,13272,128,8,13591:0:0:0:0:
192,192,13591,1,0,0:0:0:0:
64,192,13591,128,2,13910:0:0:0:0:
448,192,13910,1,2,0:0:0:0:
320,192,13910,1,0,0:0:0:0:
192,192,13910,1,8,0:0:0:0:
64,192,14069,1,0,0:0:0:0:
192,192,14229,1,2,0:0:0:0:
320,192,14229,128,0,14548:0:0:0:0:
448,192,14548,1,2,0:0:0:0:
64,192,14548,1,0,0:0:0:0:
192,192,14548,1,8,0:0:0:0:
448,192,14708,1,0,0:0:0:0:
320,192,14867,1,2,0:0:0:0:
64,192,14867,1,0,0:0:0:0:
64,192,15027,1,0,0:0:0:0:
448,192,15187,1,8,0:0:0:0:
320,192,15187,1,2,0:0:0:0:
192,192,15187,1,0,0:0:0:0:
320,192,15346,1,0,0:0:0:0:
64,192,15506,1,2,0:1:0:0:
448,192,15506,1,0,0:0:0:0:
192,192,15506,1,4,0:0:0:0:
320,192,15665,1,0,0:0:0:0:
448,192,15825,128,8,16144:0:0:0:0:
192,192,15825,1,0,0:0:0:0:
64,192,15825,1,2,0:0:0:0:
192,192,16144,128,2,16463:0:0:0:0:
320,192,16144,1,0,0:0:0:0:
64,192,16463,1,8,0:0:0:0:
320,192,16463,1,0,0:0:0:0:
448,192,16463,1,2,0:0:0:0:
192,192,16623,1,0,0:0:0:0:
448,192,16782,128,0,17101:0:0:0:0:
320,192,16782,1,2,0:0:0:0:
192,192,17101,1,8,0:0:0:0:
64,192,17101,1,0,0:0:0:0:
320,192,17101,1,2,0:0:0:0:
192,192,17421,1,0,0:0:0:0:
320,192,17421,1,2,0:0:0:0:
448,192,17421,1,4,3:0:0:0:
192,192,17740,1,0,0:0:0:0:
320,192,17740,1,2,0:0:0:0:
448,192,17740,1,8,0:0:0:0:
192,192,18059,1,4,0:0:0:0:
320,192,18059,1,0,0:0:0:0:
64,192,18059,1,2,0:1:0:0:
448,192,18218,1,0,0:0:0:0:
64,192,18378,1,2,0:0:0:0:
192,192,18378,1,0,0:0:0:0:
320,192,18378,128,8,18697:0:0:0:0:
448,192,18697,1,0,0:0:0:0:
192,192,18697,128,2,19016:0:0:0:0:
448,192,19016,1,2,0:0:0:0:
320,192,19016,1,0,0:0:0:0:
64,192,19016,1,8,0:0:0:0:
192,192,19176,1,2,0:0:0:0:
64,192,19176,1,0,0:0:0:0:
320,192,19256,1,0,0:0:0:0:
192,192,19335,1,2,0:0:0:0:
448,192,19335,1,0,0:0:0:0:
64,192,19335,1,8,0:0:0:0:
192,192,19814,1,4,3:0:0:0:
448,192,19814,1,0,0:0:0:0:
320,192,19894,1,4,3:0:0:0:
448,192,19974,1,10,0:0:0:0:
192,192,19974,1,4,3:0:0:0:
64,192,19974,1,0,0:0:0:0:
320,192,20133,1,0,0:0:0:0:
192,192,20133,128,2,20452:0:0:0:0:
448,192,20452,1,0,0:0:0:0:
64,192,20452,1,4,3:0:0:0:
448,192,20612,1,0,0:0:0:0:
320,192,20612,1,4,0:0:0:0:
64,192,20612,1,4,3:0:0:0:
192,192,20772,1,0,0:0:0:0:
320,192,20931,1,2,0:0:0:0:
448,192,20931,128,0,21250:0:0:0:0:
320,192,21250,1,0,0:0:0:0:
192,192,21250,1,8,0:0:0:0:
64,192,21250,1,4,0:0:0:0:
64,192,21569,1,2,0:0:0:0:
448,192,21569,1,0,0:0:0:0:
320,192,21729,1,0,0:0:0:0:
448,192,21889,1,0,0:0:0:0:
192,192,21889,1,4,0:0:0:0:
64,192,21889,128,2,22208:0:0:0:0:
320,192,22367,1,0,0:0:0:0:
448,192,22367,1,2,0:0:0:0:
192,192,22447,1,0,0:0:0:0:
64,192,22527,1,4,0:0:0:0:
320,192,22527,1,8,0:0:0:0:
448,192,22527,1,0,0:0:0:0:
192,192,22687,1,0,0:0:0:0:
448,192,22687,128,2,23006:0:0:0:0:
320,192,23006,1,0,0:0:0:0:
64,192,23006,1,8,0:0:0:0:
192,192,23165,1,4,0:0:0:0:
64,192,23165,1,0,0:0:0:0:
448,192,23165,1,2,0:0:0:0:
320,192,23325,1,0,0:0:0:0:
192,192,23484,1,2,0:0:0:0:
320,192,23484,1,0,0:0:0:0:
64,192,23644,1,0,0:0:0:0:
320,192,23804,1,8,0:0:0:0:
448,192,23804,1,0,0:0:0:0:
192,192,23804,1,2,0:0:0:0:
64,192,23963,1,0,0:0:0:0:
64,192,24123,1,0,0:0:0:0:
448,192,24123,1,2,0:0:0:0:
320,192,24282,1,0,0:0:0:0:
192,192,24442,1,4,0:0:0:0:
448,192,24442,1,0,0:0:0:0:
64,192,24442,1,2,0:0:0:0:
320,192,24601,1,0,0:0:0:0:
320,192,24761,1,2,0:0:0:0:
192,192,24761,1,0,0:0:0:0:
192,192,25080,1,8,0:0:0:0:
64,192,25080,1,0,0:0:0:0:
448,192,25080,1,2,0:0:0:0:
64,192,25240,1,2,0:0:0:0:
320,192,25240,128,0,25559:0:0:0:0:
448,192,25559,1,2,0:0:0:0:
192,192,25559,1,0,0:0:0:0:
64,192,25718,1,4,0:0:0:0:
192,192,25718,1,2,0:0:0:0:
320,192,25718,1,0,0:0:0:0:
448,192,25878,1,0,0:0:0:0:
64,192,26038,1,2,0:0:0:0:
192,192,26038,128,0,26357:0:0:0:0:
64,192,26357,1,0,0:0:0:0:
320,192,26357,1,8,0:0:0:0:
448,192,26357,1,4,0:0:0:0:
448,192,26676,1,2,0:0:0:0:
320,192,26676,1,0,0:0:0:0:
192,192,26835,1,0,0:0:0:0:
64,192,26995,1,0,0:0:0:0:
320,192,26995,1,4,0:0:0:0:
448,192,26995,128,2,27314:0:0:0:0:
192,192,27314,1,2,0:0:0:0:
64,192,27314,1,0,0:0:0:0:
192,192,27474,1,0,0:0:0:0:
64,192,27633,1,0,0:0:0:0:
320,192,27633,1,8,0:0:0:0:
448,192,27633,1,4,0:0:0:0:
192,192,27793,128,0,28112:0:0:0:0:
448,192,27793,1,2,0:0:0:0:
64,192,28112,1,0,0:0:0:0:
320,192,28112,1,8,0:0:0:0:
448,192,28272,1,4,0:0:0:0:
320,192,28272,1,2,0:0:0:0:
192,192,28272,1,0,0:0:0:0:
64,192,28431,1,0,0:0:0:0:
64,192,28591,1,2,0:0:0:0:
320,192,28591,1,0,0:0:0:0:
448,192,28750,1,0,0:0:0:0:
320,192,28910,1,0,0:0:0:0:
192,192,28910,1,8,0:0:0:0:
64,192,28910,1,4,0:0:0:0:
448,192,29069,1,0,0:0:0:0:
64,192,29229,1,2,0:0:0:0:
448,192,29229,1,0,0:0:0:0:
192,192,29389,1,0,0:0:0:0:
448,192,29548,1,0,0:0:0:0:
320,192,29548,1,8,0:0:0:0:
64,192,29548,1,2,0:0:0:0:
192,192,29708,1,0,0:0:0:0:
320,192,29867,1,0,0:0:0:0:
192,192,30027,1,8,0:0:0:0:
64,192,30027,1,2,0:0:0:0:
448,192,30027,1,0,0:0:0:0:
320,192,30187,1,0,0:0:0:0:
192,192,30346,1,0,0:0:0:0:
64,192,30506,1,4,0:0:0:0:
320,192,30506,1,8,0:0:0:0:
448,192,30506,128,0,32420:0:0:0:0:
64,192,30825,1,0,0:0:0:0:
192,192,30825,1,8,0:0:0:0:
64,192,31144,1,0,0:0:0:0:
192,192,31144,1,8,0:0:0:0:
192,192,31463,1,8,0:0:0:0:
64,192,31463,1,0,0:0:0:0:
64,192,31782,1,0,0:0:0:0:
192,192,31782,1,8,0:0:0:0:
192,192,32101,1,8,0:0:0:0:
64,192,32101,1,0,0:0:0:0:
64,192,32420,1,0,0:0:0:0:
192,192,32420,1,8,0:0:0:0:
320,192,32580,1,0,0:0:0:0:
192,192,32633,1,0,0:0:0:0:
64,192,32686,1,0,0:0:0:0:
448,192,32740,1,8,0:0:0:0:
320,192,32740,1,0,0:0:0:0:
320,192,32952,1,0,0:0:0:0:
448,192,32952,1,8,0:0:0:0:
448,192,33165,1,8,0:0:0:0:
320,192,33165,1,0,0:0:0:0:
320,192,33378,1,8,3:0:0:0:
448,192,33378,1,4,3:0:0:0:
64,192,33378,1,0,0:0:0:0:
320,192,35616,1,8,0:0:0:0:
448,192,35616,1,0,0:0:0:0:
64,192,35616,1,2,0:0:0:0:
64,192,35935,1,2,0:0:0:0:
192,192,35935,1,0,0:0:0:0:
448,192,35935,1,4,0:0:0:0:
320,192,36174,1,8,0:0:0:0:
448,192,36174,1,0,0:0:0:0:
64,192,36254,1,2,0:0:0:0:
192,192,36254,1,0,0:0:0:0:
320,192,36413,1,0,0:0:0:0:
64,192,36413,1,8,0:0:0:0:
448,192,36573,1,0,0:0:0:0:
192,192,36653,1,0,0:0:0:0:
320,192,36733,1,8,0:0:0:0:
64,192,36733,1,0,0:0:0:0:
448,192,36812,1,0,0:0:0:0:
192,192,36892,1,0,0:0:0:0:
64,192,36972,1,0,0:0:0:0:
448,192,37052,1,8,0:0:0:0:
320,192,37052,1,0,0:0:0:0:
192,192,37132,1,0,0:0:0:0:
448,192,37211,1,0,0:0:0:0:
320,192,37211,1,4,0:0:0:0:
64,192,37211,1,2,0:0:0:0:
192,192,37451,1,8,0:0:0:0:
64,192,37451,1,0,0:0:0:0:
448,192,37530,1,2,0:0:0:0:
320,192,37530,1,0,0:0:0:0:
192,192,37690,1,0,0:0:0:0:
448,192,37690,1,8,0:0:0:0:
64,192,37850,1,0,0:0:0:0:
192,192,37929,1,0,0:0:0:0:
448,192,38009,1,0,0:0:0:0:
320,192,38009,1,8,0:0:0:0:
64,192,38089,1,0,0:0:0:0:
192,192,38169,1,0,0:0:0:0:
448,192,38249,1,0,0:0:0:0:
320,192,38328,1,0,0:0:0:0:
64,192,38328,1,8,0:0:0:0:
192,192,38408,1,0,0:0:0:0:
320,192,38488,1,4,0:0:0:0:
64,192,38488,1,0,0:0:0:0:
448,192,38488,1,2,0:0:0:0:
192,192,38727,1,0,0:0:0:0:
448,192,38807,128,2,38967:0:0:0:0:
64,192,38807,1,0,0:0:0:0:
320,192,38967,1,0,0:0:0:0:
192,192,39126,1,0,0:0:0:0:
448,192,39206,1,0,0:0:0:0:
320,192,39366,1,0,0:0:0:0:
64,192,39445,128,2,39605:0:0:0:0:
192,192,39445,1,0,0:0:0:0:
448,192,39605,1,0,0:0:0:0:
320,192,39764,1,0,0:0:0:0:
64,192,39924,1,0,0:0:0:0:
192,192,40004,1,0,0:0:0:0:
320,192,40084,128,2,40243:0:0:0:0:
448,192,40084,1,0,0:0:0:0:
64,192,40243,1,0,0:0:0:0:
448,192,40403,1,0,0:0:0:0:
192,192,40483,1,0,0:0:0:0:
64,192,40562,1,0,0:0:0:0:
320,192,40642,1,0,0:0:0:0:
448,192,40722,1,0,0:0:0:0:
192,192,40722,128,2,41041:0:0:0:0:
64,192,41041,1,2,0:0:0:0:
320,192,41041,1,4,0:0:0:0:
448,192,41041,1,0,0:0:0:0:
192,192,41280,1,8,0:0:0:0:
448,192,41280,1,0,0:0:0:0:
320,192,41360,1,2,0:0:0:0:
64,192,41360,1,0,0:0:0:0:
448,192,41520,1,0,0:0:0:0:
192,192,41520,1,8,0:0:0:0:
320,192,41679,1,0,0:0:0:0:
192,192,41759,1,0,0:0:0:0:
64,192,41839,1,8,0:0:0:0:
320,192,41839,1,0,0:0:0:0:
448,192,41919,1,0,0:0:0:0:
192,192,41999,1,0,0:0:0:0:
64,192,42078,1,0,0:0:0:0:
448,192,42158,1,0,0:0:0:0:
320,192,42158,1,8,0:0:0:0:
192,192,42238,1,0,0:0:0:0:
320,192,42318,1,2,0:0:0:0:
448,192,42318,1,4,0:0:0:0:
64,192,42318,1,0,0:0:0:0:
192,192,42557,1,8,0:0:0:0:
320,192,42557,1,0,0:0:0:0:
64,192,42637,1,2,0:0:0:0:
448,192,42637,1,0,0:0:0:0:
320,192,42796,1,0,0:0:0:0:
64,192,42796,1,8,0:0:0:0:
192,192,42956,1,0,0:0:0:0:
448,192,43036,1,0,0:0:0:0:
320,192,43116,1,8,0:0:0:0:
64,192,43116,1,0,0:0:0:0:
192,192,43195,1,0,0:0:0:0:
320,192,43275,1,0,0:0:0:0:
64,192,43355,1,0,0:0:0:0:
320,192,43435,1,0,0:0:0:0:
448,192,43435,1,8,0:0:0:0:
192,192,43514,1,0,0:0:0:0:
448,192,43594,1,0,0:0:0:0:
320,192,43594,1,4,0:0:0:0:
64,192,43594,1,2,0:0:0:0:
64,192,43834,1,0,0:0:0:0:
192,192,43834,1,8,0:0:0:0:
448,192,43913,1,0,0:0:0:0:
320,192,43913,1,2,0:0:0:0:
192,192,44073,1,8,0:0:0:0:
320,192,44073,1,0,0:0:0:0:
64,192,44233,1,0,0:0:0:0:
448,192,44312,1,0,0:0:0:0:
192,192,44312,1,8,0:0:0:0:
320,192,44392,1,0,0:0:0:0:
448,192,44472,1,8,0:0:0:0:
64,192,44472,1,0,0:0:0:0:
192,192,44552,1,0,0:0:0:0:
64,192,44632,1,0,0:0:0:0:
320,192,44711,1,0,0:0:0:0:
448,192,44711,1,8,0:0:0:0:
192,192,44791,1,0,0:0:0:0:
448,192,44871,1,0,0:0:0:0:
320,192,44871,1,2,0:0:0:0:
64,192,44871,1,4,0:0:0:0:
192,192,45110,1,8,0:0:0:0:
64,192,45110,1,0,0:0:0:0:
448,192,45190,1,0,0:0:0:0:
320,192,45190,1,2,0:0:0:0:
320,192,45350,1,8,0:0:0:0:
64,192,45350,1,0,0:0:0:0:
192,192,45509,1,0,0:0:0:0:
448,192,45589,1,0,0:0:0:0:
320,192,45589,1,8,0:0:0:0:
64,192,45669,1,0,0:0:0:0:
448,192,45749,1,8,0:0:0:0:
192,192,45749,1,0,0:0:0:0:
320,192,45828,1,0,0:0:0:0:
192,192,45908,1,0,0:0:0:0:
448,192,45988,1,0,0:0:0:0:
64,192,45988,1,8,0:0:0:0:
320,192,46068,1,0,0:0:0:0:
192,192,46147,1,4,0:0:0:0:
64,192,46147,1,2,0:0:0:0:
448,192,46147,1,0,0:0:0:0:
64,192,46387,1,0,0:0:0:0:
320,192,46387,1,8,0:0:0:0:
192,192,46467,1,2,0:0:0:0:
448,192,46467,1,0,0:0:0:0:
320,192,46626,1,8,0:0:0:0:
64,192,46626,1,0,0:0:0:0:
192,192,46786,1,0,0:0:0:0:
64,192,46866,1,0,0:0:0:0:
448,192,46866,1,8,0:0:0:0:
320,192,46945,1,0,0:0:0:0:
192,192,47025,1,8,0:0:0:0:
64,192,47025,1,0,0:0:0:0:
320,192,47105,1,0,0:0:0:0:
448,192,47185,1,0,0:0:0:0:
64,192,47264,1,0,0:0:0:0:
192,192,47264,1,8,0:0:0:0:
320,192,47344,1,0,0:0:0:0:
64,192,47424,1,4,0:0:0:0:
448,192,47424,1,0,0:0:0:0:
192,192,47424,1,2,0:0:0:0:
448,192,47663,1,8,0:0:0:0:
64,192,47663,1,0,0:0:0:0:
320,192,47743,1,2,0:0:0:0:
192,192,47743,1,0,0:0:0:0:
64,192,47903,1,0,0:0:0:0:
192,192,47903,1,8,0:0:0:0:
320,192,48062,1,0,0:0:0:0:
448,192,48062,1,4,0:0:0:0:
320,192,48302,1,8,0:0:0:0:
448,192,48302,1,0,0:0:0:0:
192,192,48382,1,0,0:0:0:0:
64,192,48382,1,2,0:0:0:0:
448,192,48541,1,0,0:0:0:0:
192,192,48541,1,8,0:0:0:0:
320,192,48701,1,4,0:0:0:0:
448,192,48701,1,0,0:0:0:0:
64,192,48701,1,2,0:0:0:0:
192,192,48940,1,0,0:0:0:0:
320,192,48940,1,8,0:0:0:0:
64,192,49020,1,0,0:0:0:0:
448,192,49020,1,2,0:0:0:0:
192,192,49179,1,8,0:0:0:0:
320,192,49179,1,0,0:0:0:0:
64,192,49339,1,0,0:0:0:0:
448,192,49419,1,0,0:0:0:0:
192,192,49419,1,8,0:0:0:0:
320,192,49499,1,0,0:0:0:0:
64,192,49578,1,8,0:0:0:0:
192,192,49578,1,0,0:0:0:0:
448,192,49658,1,0,0:0:0:0:
64,192,49738,1,0,0:0:0:0:
320,192,49818,1,0,0:0:0:0:
192,192,49818,1,8,0:0:0:0:
448,192,49897,1,0,0:0:0:0:
64,192,49977,1,2,0:0:0:0:
192,192,49977,1,4,0:0:0:0:
320,192,49977,1,0,0:0:0:0:
320,192,50217,1,8,0:0:0:0:
64,192,50217,1,0,0:0:0:0:
192,192,50296,1,2,0:0:0:0:
448,192,50296,1,0,0:0:0:0:
64,192,50456,1,0,0:0:0:0:
320,192,50456,1,8,0:0:0:0:
192,192,50616,1,0,0:0:0:0:
448,192,50695,1,8,0:0:0:0:
64,192,50695,1,0,0:0:0:0:
320,192,50775,1,0,0:0:0:0:
64,192,50855,1,0,0:0:0:0:
192,192,50855,1,8,0:0:0:0:
448,192,50935,1,0,0:0:0:0:
320,192,51014,1,0,0:0:0:0:
448,192,51094,1,8,0:0:0:0:
192,192,51094,1,0,0:0:0:0:
64,192,51174,1,0,0:0:0:0:
192,192,51254,1,2,0:0:0:0:
320,192,51254,1,4,0:0:0:0:
448,192,51254,1,0,0:0:0:0:
192,192,51493,1,0,0:0:0:0:
320,192,51493,1,8,0:0:0:0:
64,192,51573,1,0,0:0:0:0:
448,192,51573,1,2,0:0:0:0:
320,192,51733,1,0,0:0:0:0:
192,192,51733,1,8,0:0:0:0:
448,192,51892,1,0,0:0:0:0:
192,192,51972,1,8,0:0:0:0:
64,192,51972,1,0,0:0:0:0:
320,192,52052,1,0,0:0:0:0:
448,192,52132,1,0,0:0:0:0:
192,192,52132,1,8,0:0:0:0:
64,192,52211,1,0,0:0:0:0:
320,192,52291,1,0,0:0:0:0:
192,192,52371,1,8,0:0:0:0:
448,192,52371,1,0,0:0:0:0:
64,192,52451,1,0,0:0:0:0:
320,192,52530,1,4,0:0:0:0:
192,192,52530,1,0,0:0:0:0:
448,192,52530,1,2,0:0:0:0:
448,192,52770,1,8,0:0:0:0:
192,192,52770,1,0,0:0:0:0:
64,192,52850,1,0,0:0:0:0:
320,192,52850,1,2,0:0:0:0:
448,192,53009,1,8,0:0:0:0:
192,192,53009,1,0,0:0:0:0:
64,192,53169,1,2,0:0:0:0:
320,192,53169,1,0,0:0:0:0:
192,192,53408,1,0,0:0:0:0:
320,192,53488,1,0,0:0:0:0:
448,192,53488,1,8,0:0:0:0:
64,192,53647,1,0,0:0:0:0:
192,192,53807,1,2,0:0:0:0:
320,192,53807,1,4,0:0:0:0:
448,192,53807,1,0,0:0:0:0:
64,192,53967,1,0,0:0:0:0:
448,192,53967,1,2,0:0:0:0:
192,192,54046,1,0,0:0:0:0:
64,192,54126,1,0,0:0:0:0:
320,192,54126,1,2,0:0:0:0:
192,192,54286,1,0,0:0:0:0:
448,192,54286,1,2,0:0:0:0:
320,192,54445,1,8,0:0:0:0:
192,192,54445,1,0,0:0:0:0:
64,192,54445,1,4,0:0:0:0:
448,192,54685,1,2,0:0:0:0:
64,192,54685,1,0,0:0:0:0:
320,192,54924,1,2,0:0:0:0:
64,192,54924,1,0,0:0:0:0:
192,192,55084,1,0,0:0:0:0:
448,192,55084,1,4,0:0:0:0:
192,192,55562,1,2,0:0:0:0:
64,192,55562,1,0,0:0:0:0:
320,192,55722,1,4,0:0:0:0:
448,192,55722,1,0,0:0:0:0:
64,192,55722,1,8,0:0:0:0:
192,192,55882,1,0,0:0:0:0:
448,192,55882,1,2,0:0:0:0:
64,192,56360,1,2,0:0:0:0:
320,192,56360,1,4,0:0:0:0:
448,192,56360,1,0,0:0:0:0:
192,192,56440,1,0,0:0:0:0:
320,192,56520,1,2,0:0:0:0:
448,192,56520,1,0,0:0:0:0:
192,192,56600,1,2,0:0:0:0:
64,192,56600,1,0,0:0:0:0:
192,192,56759,1,2,0:0:0:0:
320,192,56759,1,0,0:0:0:0:
64,192,56839,1,2,0:0:0:0:
448,192,56839,1,0,0:0:0:0:
64,192,56999,1,0,0:0:0:0:
192,192,56999,1,8,0:0:0:0:
320,192,56999,1,4,0:0:0:0:
192,192,57238,1,0,0:0:0:0:
448,192,57238,1,2,0:0:0:0:
320,192,57477,1,2,0:0:0:0:
64,192,57477,1,0,0:0:0:0:
448,192,57637,1,2,0:0:0:0:
192,192,57637,1,4,0:0:0:0:
64,192,57637,1,0,0:0:0:0:
192,192,58116,1,0,0:0:0:0:
64,192,58116,1,2,0:0:0:0:
320,192,58195,1,0,0:0:0:0:
448,192,58275,1,0,0:0:0:0:
192,192,58275,1,8,0:0:0:0:
64,192,58275,1,4,0:0:0:0:
320,192,58435,1,0,0:0:0:0:
192,192,58594,1,8,3:0:0:0:
448,192,58594,1,0,0:0:0:0:
64,192,58913,1,0,0:0:0:0:
192,192,58913,1,2,0:0:0:0:
320,192,58913,1,4,0:0:0:0:
448,192,59073,1,2,0:0:0:0:
64,192,59073,1,0,0:0:0:0:
320,192,59153,1,2,0:0:0:0:
448,192,59233,1,2,0:0:0:0:
192,192,59233,1,0,0:0:0:0:
320,192,59392,1,2,0:0:0:0:
64,192,59392,1,0,0:0:0:0:
192,192,59552,1,4,0:0:0:0:
448,192,59552,1,2,0:0:0:0:
320,192,59552,1,8,0:0:0:0:
64,192,59791,1,0,0:0:0:0:
192,192,59791,1,2,0:0:0:0:
320,192,60030,1,2,0:0:0:0:
448,192,60030,1,0,0:0:0:0:
64,192,60190,1,2,0:0:0:0:
192,192,60190,1,4,0:0:0:0:
448,192,60190,1,0,0:0:0:0:
320,192,60669,1,2,0:0:0:0:
192,192,60669,1,0,0:0:0:0:
320,192,60828,1,8,0:0:0:0:
448,192,60828,1,4,0:0:0:0:
64,192,60828,1,0,0:0:0:0:
192,192,60988,1,0,0:0:0:0:
64,192,60988,1,2,0:0:0:0:
64,192,61467,1,0,0:0:0:0:
448,192,61467,1,4,0:0:0:0:
320,192,61467,1,2,0:0:0:0:
192,192,61546,1,0,0:0:0:0:
64,192,61626,1,0,0:0:0:0:
448,192,61626,1,2,0:0:0:0:
192,192,61706,1,0,0:0:0:0:
320,192,61706,1,2,0:0:0:0:
448,192,61866,1,2,0:0:0:0:
320,192,61866,1,0,0:0:0:0:
64,192,61945,1,2,0:0:0:0:
192,192,61945,1,0,0:0:0:0:
64,192,62105,1,8,0:0:0:0:
320,192,62105,1,4,0:0:0:0:
448,192,62105,1,0,0:0:0:0:
64,192,62344,1,0,0:0:0:0:
192,192,62344,1,2,0:0:0:0:
320,192,62584,1,2,0:0:0:0:
448,192,62584,1,0,0:0:0:0:
64,192,62743,1,0,0:0:0:0:
192,192,62743,1,8,0:0:0:0:
448,192,62743,1,4,0:0:0:0:
64,192,62956,1,2,0:0:0:0:
192,192,62956,1,8,0:0:0:0:
448,192,62956,1,0,0:0:0:0:
192,192,63169,1,8,0:0:0:0:
448,192,63169,1,0,0:0:0:0:
64,192,63169,1,2,0:0:0:0:
64,192,63382,1,2,0:0:0:0:
448,192,63382,1,0,0:0:0:0:
192,192,63382,1,8,0:0:0:0:
64,192,64020,1,0,0:0:0:0:
320,192,64020,1,2,0:0:0:0:
448,192,64020,1,4,0:0:0:0:
192,192,64179,1,2,0:0:0:0:
64,192,64339,1,2,0:0:0:0:
320,192,64499,1,0,0:0:0:0:
448,192,64499,1,2,0:0:0:0:
192,192,64658,1,8,0:0:0:0:
320,192,64658,1,2,0:0:0:0:
64,192,64658,1,0,0:0:0:0:
64,192,64818,1,0,0:0:0:0:
448,192,64818,1,2,0:0:0:0:
320,192,64977,1,2,0:0:0:0:
192,192,65137,1,2,0:0:0:0:
448,192,65137,1,0,0:0:0:0:
320,192,65217,1,0,0:0:0:0:
192,192,65296,1,0,0:0:0:0:
64,192,65296,1,2,0:0:0:0:
448,192,65456,1,2,0:0:0:0:
320,192,65456,1,0,0:0:0:0:
192,192,65616,1,2,0:0:0:0:
320,192,65775,1,0,0:0:0:0:
64,192,65775,1,2,0:0:0:0:
448,192,65935,1,8,0:0:0:0:
192,192,65935,1,0,0:0:0:0:
320,192,65935,1,2,0:0:0:0:
448,192,66094,1,0,0:0:0:0:
64,192,66094,1,2,0:0:0:0:
320,192,66254,1,2,0:0:0:0:
192,192,66413,1,0,0:0:0:0:
64,192,66413,1,2,0:0:0:0:
192,192,66573,1,2,0:0:0:0:
320,192,66573,1,4,0:0:0:0:
448,192,66573,1,0,0:0:0:0:
64,192,66733,1,2,0:0:0:0:
448,192,66892,1,2,0:0:0:0:
192,192,67052,1,0,0:0:0:0:
320,192,67052,1,2,0:0:0:0:
320,192,67211,1,8,0:0:0:0:
64,192,67211,1,2,0:0:0:0:
448,192,67211,1,0,0:0:0:0:
192,192,67371,1,0,0:0:0:0:
64,192,67371,1,2,0:0:0:0:
320,192,67530,1,2,0:0:0:0:
448,192,67690,1,2,0:0:0:0:
64,192,67690,1,0,0:0:0:0:
192,192,67770,1,0,0:0:0:0:
320,192,67850,1,0,0:0:0:0:
64,192,67850,1,2,0:0:0:0:
448,192,68009,1,2,0:0:0:0:
192,192,68009,1,0,0:0:0:0:
320,192,68009,1,8,0:0:0:0:
64,192,68169,1,2,0:0:0:0:
192,192,68328,1,0,0:0:0:0:
448,192,68328,1,2,0:0:0:0:
64,192,68488,1,10,0:0:0:0:
320,192,68488,1,0,0:0:0:0:
192,192,68488,1,0,0:0:0:0:
448,192,68647,1,2,0:0:0:0:
64,192,68647,1,0,0:0:0:0:
320,192,68727,1,0,0:0:0:0:
192,192,68807,1,0,0:0:0:0:
448,192,68807,1,2,0:0:0:0:
64,192,68967,1,8,0:0:0:0:
320,192,68967,1,0,0:0:0:0:
192,192,68967,1,2,0:0:0:0:
320,192,69286,1,4,0:0:0:0:
64,192,69286,1,2,0:0:0:0:
448,192,69286,1,0,0:0:0:0:
448,192,69445,1,0,0:0:0:0:
192,192,69445,1,2,0:0:0:0:
64,192,69605,1,2,0:0:0:0:
448,192,69764,1,0,0:0:0:0:
192,192,69764,1,2,0:0:0:0:
320,192,69764,1,8,0:0:0:0:
64,192,69924,1,2,0:0:0:0:
448,192,69924,1,0,0:0:0:0:
192,192,70084,1,2,0:0:0:0:
64,192,70243,1,0,0:0:0:0:
320,192,70243,1,2,0:0:0:0:
192,192,70323,1,0,0:0:0:0:
448,192,70403,1,2,0:0:0:0:
320,192,70403,1,0,0:0:0:0:
192,192,70562,1,0,0:0:0:0:
64,192,70562,1,2,0:0:0:0:
448,192,70562,1,8,0:0:0:0:
320,192,70722,1,2,0:0:0:0:
448,192,70882,1,2,0:0:0:0:
192,192,70882,1,0,0:0:0:0:
192,192,71041,1,0,0:0:0:0:
320,192,71041,1,2,0:0:0:0:
64,192,71041,1,8,0:0:0:0:
448,192,71201,1,2,0:0:0:0:
64,192,71201,1,0,0:0:0:0:
192,192,71360,1,2,0:0:0:0:
448,192,71520,1,2,0:0:0:0:
320,192,71520,1,0,0:0:0:0:
64,192,71679,1,0,0:0:0:0:
192,192,71679,1,4,0:0:0:0:
320,192,71679,1,2,0:0:0:0:
64,192,71839,1,2,0:0:0:0:
448,192,71999,1,2,0:0:0:0:
192,192,72158,1,0,0:0:0:0:
320,192,72158,1,2,0:0:0:0:
192,192,72318,1,8,0:0:0:0:
448,192,72318,1,2,0:0:0:0:
64,192,72318,1,0,0:0:0:0:
448,192,72477,1,0,0:0:0:0:
320,192,72477,1,2,0:0:0:0:
192,192,72637,1,2,0:0:0:0:
320,192,72796,1,2,0:0:0:0:
64,192,72796,1,8,0:0:0:0:
448,192,72796,1,0,0:0:0:0:
64,192,72956,1,0,0:0:0:0:
192,192,72956,1,2,0:0:0:0:
320,192,73116,1,2,0:0:0:0:
448,192,73116,1,0,0:0:0:0:
192,192,73275,1,10,0:0:0:0:
64,192,73275,1,2,0:0:0:0:
448,192,73275,1,4,0:0:0:0:
320,192,73594,1,8,0:0:0:0:
448,192,73594,1,0,0:0:0:0:
192,192,73674,1,8,0:0:0:0:
64,192,73674,1,0,0:0:0:0:
320,192,73754,1,8,0:0:0:0:
448,192,73754,1,0,0:0:0:0:
192,192,73834,1,8,0:0:0:0:
64,192,73834,1,0,0:0:0:0:
320,192,73913,1,8,0:0:0:0:
448,192,73913,1,0,0:0:0:0:
320,192,74233,1,2,0:0:0:0:
192,192,74233,1,4,0:0:0:0:
64,192,74233,1,0,0:0:0:0:
64,192,74392,1,2,0:0:0:0:
192,192,74552,1,0,0:0:0:0:
320,192,74552,1,2,0:0:0:0:
448,192,74552,1,8,0:0:0:0:
64,192,74711,1,0,0:0:0:0:
320,192,74711,1,2,0:0:0:0:
448,192,74871,1,2,0:0:0:0:
192,192,75030,1,2,0:0:0:0:
320,192,75030,1,0,0:0:0:0:
192,192,75190,1,2,0:0:0:0:
64,192,75190,1,0,0:0:0:0:
448,192,75190,1,8,0:0:0:0:
320,192,75350,1,0,0:0:0:0:
192,192,75509,1,4,0:0:0:0:
448,192,75509,1,0,0:0:0:0:
64,192,75509,128,2,75828:0:0:0:0:
320,192,75828,1,10,0:0:0:0:
192,192,75828,1,4,0:0:0:0:
448,192,75828,128,0,76147:0:0:0:0:
64,192,76147,1,2,0:0:0:0:
320,192,76147,1,0,0:0:0:0:
192,192,76147,128,4,76467:0:0:0:0:
448,192,76467,1,0,0:0:0:0:
64,192,76467,1,10,0:0:0:0:
320,192,76467,128,4,76786:0:0:0:0:
64,192,76786,1,2,0:0:0:0:
448,192,76786,1,0,0:0:0:0:
192,192,76786,1,4,0:0:0:0:
448,192,76945,1,2,0:0:0:0:
320,192,77105,1,0,0:0:0:0:
192,192,77105,1,2,0:0:0:0:
64,192,77105,1,8,0:0:0:0:
448,192,77264,1,0,0:0:0:0:
192,192,77264,1,2,0:0:0:0:
64,192,77424,1,2,0:0:0:0:
320,192,77584,1,2,0:0:0:0:
448,192,77584,1,0,0:0:0:0:
320,192,77743,1,2,0:0:0:0:
64,192,77743,1,0,0:0:0:0:
192,192,77743,1,8,0:0:0:0:
320,192,77903,1,0,0:0:0:0:
192,192,78062,1,4,0:0:0:0:
64,192,78062,1,0,0:0:0:0:
448,192,78062,128,2,78382:0:0:0:0:
192,192,78382,1,10,0:0:0:0:
320,192,78382,1,4,0:0:0:0:
64,192,78382,128,0,78701:0:0:0:0:
448,192,78701,1,2,0:0:0:0:
192,192,78701,1,0,0:0:0:0:
320,192,78701,128,4,79020:0:0:0:0:
64,192,79020,1,0,0:0:0:0:
448,192,79020,1,10,0:0:0:0:
192,192,79020,128,4,79339:0:0:0:0:
448,192,79339,1,2,0:0:0:0:
64,192,79339,1,0,0:0:0:0:
320,192,79339,1,4,0:0:0:0:
192,192,79499,1,2,0:0:0:0:
64,192,79658,1,8,0:0:0:0:
448,192,79658,1,2,0:0:0:0:
320,192,79658,1,0,0:0:0:0:
192,192,79818,1,2,0:0:0:0:
320,192,79818,1,0,0:0:0:0:
448,192,79977,1,2,0:0:0:0:
64,192,80137,1,0,0:0:0:0:
320,192,80137,1,2,0:0:0:0:
448,192,80296,1,8,0:0:0:0:
192,192,80296,1,0,0:0:0:0:
320,192,80296,1,2,0:0:0:0:
64,192,80456,1,0,0:0:0:0:
448,192,80616,128,2,80935:0:0:0:0:
192,192,80616,1,0,0:0:0:0:
320,192,80616,1,4,0:0:0:0:
64,192,80935,128,0,81254:0:0:0:0:
320,192,80935,1,4,0:0:0:0:
192,192,80935,1,10,0:0:0:0:
320,192,81254,128,4,81573:0:0:0:0:
192,192,81254,1,0,0:0:0:0:
448,192,81254,1,2,0:0:0:0:
192,192,81573,128,4,81892:0:0:0:0:
448,192,81573,1,10,0:0:0:0:
64,192,81573,1,0,0:0:0:0:
320,192,81892,1,4,0:0:0:0:
64,192,81892,1,0,0:0:0:0:
448,192,81892,1,2,0:0:0:0:
64,192,82211,1,2,0:0:0:0:
448,192,82211,1,0,0:0:0:0:
320,192,82211,1,8,0:0:0:0:
64,192,82451,1,0,0:0:0:0:
192,192,82451,1,8,0:0:0:0:
320,192,82530,1,8,0:0:0:0:
448,192,82530,1,0,0:0:0:0:
192,192,82690,1,8,0:0:0:0:
320,192,82690,1,0,0:0:0:0:
64,192,82850,1,0,0:0:0:0:
192,192,82850,1,8,0:0:0:0:
320,192,83009,1,8,0:0:0:0:
448,192,83009,1,0,0:0:0:0:
192,192,83169,1,4,0:0:0:0:
448,192,83169,1,0,0:0:0:0:
64,192,83169,128,2,83807:0:0:0:0:
192,192,83807,1,0,0:0:0:0:
320,192,83807,1,2,0:0:0:0:
192,192,84445,1,4,0:0:0:0:
448,192,84445,1,0,0:0:0:0:
64,192,84445,1,2,0:1:0:0:
320,192,84605,1,0,0:0:0:0:
64,192,84764,1,2,0:0:0:0:
192,192,84764,1,0,0:0:0:0:
448,192,84764,128,8,85084:0:0:0:0:
320,192,85084,1,0,0:0:0:0:
64,192,85084,128,2,85403:0:0:0:0:
448,192,85403,1,2,0:0:0:0:
320,192,85403,1,0,0:0:0:0:
192,192,85403,1,8,0:0:0:0:
64,192,85562,1,0,0:0:0:0:
320,192,85722,1,2,0:0:0:0:
448,192,85722,128,0,86041:0:0:0:0:
320,192,86041,1,2,0:0:0:0:
64,192,86041,1,0,0:0:0:0:
192,192,86041,1,8,0:0:0:0:
448,192,86360,1,4,3:0:0:0:
320,192,86360,1,2,0:0:0:0:
64,192,86360,1,0,0:0:0:0:
448,192,86679,1,8,0:0:0:0:
320,192,86679,1,2,0:0:0:0:
64,192,86679,1,0,0:0:0:0:
192,192,86999,1,4,0:0:0:0:
64,192,86999,1,0,0:0:0:0:
448,192,86999,1,2,0:1:0:0:
320,192,87158,1,0,0:0:0:0:
448,192,87318,1,2,0:0:0:0:
192,192,87318,1,0,0:0:0:0:
64,192,87318,128,8,87637:0:0:0:0:
320,192,87637,1,0,0:0:0:0:
448,192,87637,128,2,87956:0:0:0:0:
64,192,87956,1,2,0:0:0:0:
192,192,87956,1,0,0:0:0:0:
320,192,87956,1,8,0:0:0:0:
448,192,88116,1,0,0:0:0:0:
320,192,88275,1,2,0:0:0:0:
192,192,88275,128,0,88594:0:0:0:0:
64,192,88594,1,2,0:0:0:0:
448,192,88594,1,0,0:0:0:0:
320,192,88594,1,8,0:0:0:0:
64,192,88754,1,0,0:0:0:0:
192,192,88913,1,2,0:0:0:0:
448,192,88913,1,0,0:0:0:0:
448,192,89073,1,0,0:0:0:0:
64,192,89233,1,8,0:0:0:0:
192,192,89233,1,2,0:0:0:0:
320,192,89233,1,0,0:0:0:0:
192,192,89392,1,0,0:0:0:0:
448,192,89552,1,2,0:1:0:0:
64,192,89552,1,0,0:0:0:0:
320,192,89552,1,4,0:0:0:0:
192,192,89711,1,0,0:0:0:0:
64,192,89871,128,8,90190:0:0:0:0:
320,192,89871,1,0,0:0:0:0:
448,192,89871,1,2,0:0:0:0:
320,192,90190,128,2,90509:0:0:0:0:
192,192,90190,1,0,0:0:0:0:
448,192,90509,1,8,0:0:0:0:
192,192,90509,1,0,0:0:0:0:
64,192,90509,1,2,0:0:0:0:
320,192,90669,1,0,0:0:0:0:
64,192,90828,128,0,91147:0:0:0:0:
192,192,90828,1,2,0:0:0:0:
320,192,91147,1,8,0:0:0:0:
448,192,91147,1,0,0:0:0:0:
192,192,91147,1,2,0:0:0:0:
320,192,91467,1,0,0:0:0:0:
192,192,91467,1,2,0:0:0:0:
64,192,91467,1,4,3:0:0:0:
320,192,91786,1,0,0:0:0:0:
192,192,91786,1,2,0:0:0:0:
64,192,91786,1,8,0:0:0:0:
320,192,92105,1,4,0:0:0:0:
192,192,92105,1,0,0:0:0:0:
448,192,92105,1,2,0:1:0:0:
64,192,92264,1,0,0:0:0:0:
448,192,92424,1,2,0:0:0:0:
320,192,92424,1,0,0:0:0:0:
192,192,92424,128,8,92743:0:0:0:0:
64,192,92743,1,0,0:0:0:0:
320,192,92743,128,2,93062:0:0:0:0:
64,192,93062,1,2,0:0:0:0:
192,192,93062,1,0,0:0:0:0:
448,192,93062,1,8,0:0:0:0:
320,192,93222,1,2,0:0:0:0:
192,192,93222,1,0,0:0:0:0:
64,192,93302,1,0,0:0:0:0:
320,192,93382,1,2,0:0:0:0:
192,192,93382,1,0,0:0:0:0:
448,192,93382,1,12,0:0:0:0:
64,192,93701,1,0,0:0:0:0:
448,192,93701,1,12,0:0:0:0:
320,192,93701,1,2,0:0:0:0:
320,192,94020,1,2,0:0:0:0:
448,192,94020,1,12,0:0:0:0:
64,192,94020,1,0,0:0:0:0:
320,192,94179,1,0,0:0:0:0:
448,192,94179,1,8,0:0:0:0:
192,192,94339,1,2,0:0:0:0:
64,192,94339,1,0,2:0:0:0:
448,192,94496,1,2,0:0:0:0:
320,192,94536,1,2,0:0:0:0:
192,192,94575,1,2,0:0:0:0:
64,192,94615,1,2,0:0:0:0:
448,192,94654,1,2,0:0:0:0:
320,192,94694,1,2,0:0:0:0:
192,192,94733,1,2,0:0:0:0:
64,192,94773,1,2,0:0:0:0:
64,192,96865,1,10,0:0:0:0:
192,192,96865,1,2,0:0:0:0:
448,192,96865,1,0,0:0:0:0:
64,192,97209,1,4,0:0:0:0:
320,192,97209,1,0,0:0:0:0:
448,192,97209,1,2,0:0:0:0:
64,192,97448,1,0,0:0:0:0:
192,192,97448,1,8,0:0:0:0:
320,192,97528,1,0,0:0:0:0:
448,192,97528,1,2,0:0:0:0:
448,192,97687,1,8,0:0:0:0:
192,192,97687,1,0,0:0:0:0:
64,192,97847,1,0,0:0:0:0:
320,192,97927,1,0,0:0:0:0:
448,192,98006,1,0,0:0:0:0:
192,192,98006,1,8,0:0:0:0:
64,192,98086,1,0,0:0:0:0:
320,192,98166,1,0,0:0:0:0:
448,192,98246,1,0,0:0:0:0:
192,192,98326,1,0,0:0:0:0:
64,192,98326,1,8,0:0:0:0:
320,192,98405,1,0,0:0:0:0:
448,192,98485,1,2,0:0:0:0:
192,192,98485,1,4,0:0:0:0:
64,192,98485,1,0,0:0:0:0:
448,192,98724,1,0,0:0:0:0:
320,192,98724,1,8,0:0:0:0:
192,192,98804,1,0,0:0:0:0:
64,192,98804,1,2,0:0:0:0:
64,192,98964,1,8,0:0:0:0:
320,192,98964,1,0,0:0:0:0:
448,192,99123,1,0,0:0:0:0:
320,192,99203,1,0,0:0:0:0:
192,192,99283,1,8,0:0:0:0:
64,192,99283,1,0,0:0:0:0:
448,192,99363,1,0,0:0:0:0:
320,192,99443,1,0,0:0:0:0:
64,192,99522,1,0,0:0:0:0:
448,192,99602,1,8,0:0:0:0:
192,192,99602,1,0,0:0:0:0:
320,192,99682,1,0,0:0:0:0:
64,192,99762,1,2,0:0:0:0:
448,192,99762,1,0,0:0:0:0:
192,192,99762,1,4,0:0:0:0:
320,192,100001,1,2,0:0:0:0:
64,192,100001,1,0,0:0:0:0:
192,192,100081,1,0,0:0:0:0:
448,192,100240,1,0,0:0:0:0:
320,192,100240,1,2,0:0:0:0:
192,192,100400,1,0,0:0:0:0:
64,192,100480,1,2,0:0:0:0:
448,192,100480,1,0,0:0:0:0:
192,192,100639,1,0,0:0:0:0:
320,192,100639,1,2,0:0:0:0:
448,192,100719,1,0,0:0:0:0:
320,192,100879,1,2,0:0:0:0:
64,192,100879,1,0,0:0:0:0:
192,192,101038,1,0,0:0:0:0:
192,192,101278,1,0,0:0:0:0:
448,192,101278,1,2,0:0:0:0:
320,192,101357,1,0,0:0:0:0:
448,192,101517,1,0,0:0:0:0:
64,192,101517,1,2,0:0:0:0:
192,192,101677,1,0,0:0:0:0:
448,192,101756,1,0,0:0:0:0:
320,192,101756,1,2,0:0:0:0:
192,192,101916,1,2,0:0:0:0:
64,192,101916,1,0,0:0:0:0:
320,192,101996,1,0,0:0:0:0:
448,192,101996,128,0,102315:2:0:0:0:
64,192,102315,1,0,0:0:0:0:
192,192,102315,1,4,0:0:0:0:
320,192,102315,1,2,0:0:0:0:
64,192,102554,1,0,0:0:0:0:
320,192,102554,1,8,0:0:0:0:
448,192,102634,1,0,0:0:0:0:
192,192,102634,1,2,0:0:0:0:
320,192,102794,1,8,0:0:0:0:
64,192,102794,1,0,0:0:0:0:
192,192,102953,1,0,0:0:0:0:
320,192,103033,1,0,0:0:0:0:
192,192,103113,1,0,0:0:0:0:
448,192,103113,1,8,0:0:0:0:
64,192,103193,1,0,0:0:0:0:
320,192,103272,1,0,0:0:0:0:
448,192,103352,1,0,0:0:0:0:
192,192,103432,1,8,0:0:0:0:
64,192,103432,1,0,0:0:0:0:
320,192,103512,1,0,0:0:0:0:
448,192,103591,1,0,0:0:0:0:
64,192,103591,1,4,0:0:0:0:
192,192,103591,1,2,0:0:0:0:
192,192,103831,1,0,0:0:0:0:
320,192,103831,1,8,0:0:0:0:
64,192,103911,1,0,0:0:0:0:
448,192,103911,1,2,0:0:0:0:
448,192,104070,1,8,0:0:0:0:
192,192,104070,1,0,0:0:0:0:
320,192,104230,1,4,0:0:0:0:
192,192,104230,1,2,0:0:0:0:
64,192,104230,128,0,104549:0:0:0:0:
192,192,104549,1,4,0:0:0:0:
320,192,104549,1,0,0:0:0:0:
448,192,104549,128,2,104868:0:0:0:0:
320,192,104868,1,2,0:0:0:0:
192,192,104868,1,4,0:0:0:0:
64,192,104868,1,0,0:0:0:0:
64,192,105028,1,0,0:0:0:0:
192,192,105187,1,2,0:0:0:0:
448,192,105187,1,0,0:0:0:0:
448,192,105347,1,0,0:0:0:0:
192,192,105506,1,2,0:0:0:0:
320,192,105506,1,0,0:0:0:0:
64,192,105506,128,8,105826:0:0:0:0:
320,192,105826,1,0,0:0:0:0:
448,192,105826,128,2,106145:0:0:0:0:
192,192,106145,1,2,0:0:0:0:
64,192,106145,1,0,0:0:0:0:
320,192,106304,1,0,0:0:0:0:
448,192,106464,1,2,0:0:0:0:
320,192,106464,1,0,0:0:0:0:
64,192,106623,1,0,0:0:0:0:
192,192,106623,1,2,0:0:0:0:
64,192,106783,1,2,0:0:0:0:
448,192,106783,1,0,0:0:0:0:
192,192,106783,128,8,107102:0:0:0:0:
448,192,107102,1,0,0:0:0:0:
320,192,107102,128,2,107421:0:0:0:0:
64,192,107421,1,0,0:0:0:0:
192,192,107421,1,4,0:0:0:0:
448,192,107421,1,2,0:0:0:0:
64,192,107581,1,0,0:0:0:0:
448,192,107740,1,0,0:0:0:0:
192,192,107740,1,2,0:0:0:0:
448,192,107900,1,0,0:0:0:0:
192,192,108060,128,8,108379:0:0:0:0:
320,192,108060,1,0,0:0:0:0:
64,192,108060,1,2,0:0:0:0:
448,192,108379,128,2,108698:0:0:0:0:
320,192,108379,1,0,0:0:0:0:
64,192,108538,1,0,0:0:0:0:
320,192,108618,1,0,0:0:0:0:
64,192,108698,1,0,0:0:0:0:
192,192,108698,1,2,0:0:0:0:
320,192,108937,1,0,0:0:0:0:
448,192,109017,1,0,0:0:0:0:
192,192,109017,1,2,0:0:0:0:
64,192,109177,1,0,0:0:0:0:
192,192,109336,1,2,0:0:0:0:
64,192,109336,1,0,0:0:0:0:
320,192,109336,1,8,0:0:0:0:
320,192,109576,1,8,0:0:0:0:
448,192,109576,1,0,0:0:0:0:
64,192,109655,1,0,0:0:0:0:
192,192,109655,1,2,0:0:0:0:
320,192,109815,1,0,0:0:0:0:
448,192,109815,1,8,0:0:0:0:
192,192,109974,1,2,0:0:0:0:
64,192,109974,1,0,0:0:0:0:
448,192,109974,1,4,0:0:0:0:
192,192,110134,1,0,0:0:0:0:
320,192,110294,1,2,0:0:0:0:
64,192,110294,1,0,0:0:0:0:
320,192,110453,1,0,0:0:0:0:
64,192,110613,1,2,0:0:0:0:
192,192,110613,1,0,0:0:0:0:
448,192,110613,128,8,110932:0:0:0:0:
192,192,110932,1,0,0:0:0:0:
64,192,110932,128,2,111251:0:0:0:0:
320,192,111091,1,0,0:0:0:0:
192,192,111171,1,0,0:0:0:0:
320,192,111251,1,2,0:0:0:0:
448,192,111251,1,0,0:0:0:0:
192,192,111411,1,0,0:0:0:0:
64,192,111570,1,2,0:0:0:0:
192,192,111570,1,0,0:0:0:0:
448,192,111730,1,0,0:0:0:0:
320,192,111730,1,2,0:0:0:0:
448,192,111889,1,2,0:0:0:0:
64,192,111889,1,0,0:0:0:0:
320,192,111889,128,8,112209:0:0:0:0:
64,192,112209,1,0,0:0:0:0:
192,192,112209,1,2,0:0:0:0:
448,192,112368,1,0,0:0:0:0:
192,192,112448,1,0,0:0:0:0:
448,192,112528,1,0,0:0:0:0:
320,192,112528,1,4,0:0:0:0:
64,192,112528,1,2,0:0:0:0:
192,192,112687,1,0,0:0:0:0:
64,192,112847,1,0,0:0:0:0:
320,192,112847,1,2,0:0:0:0:
64,192,113006,1,0,0:0:0:0:
320,192,113166,128,8,113485:0:0:0:0:
192,192,113166,1,0,0:0:0:0:
448,192,113166,1,2,0:0:0:0:
192,192,113485,1,0,0:0:0:0:
64,192,113485,128,2,113804:0:0:0:0:
448,192,113645,1,0,0:0:0:0:
192,192,113724,1,0,0:0:0:0:
448,192,113804,1,0,0:0:0:0:
320,192,113804,1,2,0:0:0:0:
192,192,114044,1,0,0:0:0:0:
64,192,114044,1,2,0:0:0:0:
320,192,114123,1,2,0:0:0:0:
448,192,114123,1,0,0:0:0:0:
192,192,114283,1,0,0:0:0:0:
320,192,114283,1,2,0:0:0:0:
64,192,114443,1,2,0:0:0:0:
448,192,114443,1,0,0:0:0:0:
192,192,114443,1,12,0:0:0:0:
192,192,114762,1,0,0:0:0:0:
320,192,114762,1,2,0:0:0:0:
320,192,115081,1,2,0:0:0:0:
448,192,115081,1,0,0:0:0:0:
64,192,115081,128,4,117634:0:0:0:0:
192,192,115560,1,2,0:0:0:0:
320,192,116038,1,2,0:0:0:0:
448,192,116996,1,2,0:0:0:0:
192,192,117634,1,0,0:0:0:0:
320,192,117634,1,2,0:0:0:0:
448,192,117634,1,8,0:0:0:0:
192,192,117794,1,0,0:0:0:0:
320,192,117794,1,2,0:0:0:0:
448,192,117794,1,8,0:0:0:0:
192,192,119549,1,2,0:0:0:0:
320,192,119549,1,0,2:0:0:0:
320,192,120187,1,2,0:0:0:0:
64,192,120187,1,4,0:0:0:0:
448,192,120187,128,0,120666:0:0:0:0:
64,192,120666,1,4,0:0:0:0:
320,192,120666,1,2,0:0:0:0:
192,192,120666,128,0,121145:0:0:0:0:
448,192,121145,1,0,0:0:0:0:
64,192,121145,1,4,0:0:0:0:
320,192,121145,128,2,122740:0:0:0:0:
64,192,122102,1,2,0:0:0:0:
64,192,122740,1,2,0:0:0:0:
192,192,122740,1,0,0:0:0:0:
448,192,122740,1,8,0:0:0:0:
64,192,122900,1,2,0:0:0:0:
192,192,122900,1,0,0:0:0:0:
448,192,122900,1,8,0:0:0:0:
320,192,123857,1,0,0:0:0:0:
448,192,123857,1,0,0:0:0:0:
192,192,123937,1,0,0:0:0:0:
320,192,124017,1,4,0:0:0:0:
448,192,124017,1,10,0:0:0:0:
64,192,124017,128,0,124336:0:0:0:0:
448,192,124336,1,8,0:0:0:0:
320,192,124336,1,2,0:0:0:0:
192,192,124336,1,0,0:0:0:0:
192,192,124496,1,0,0:0:0:0:
320,192,124496,1,2,0:0:0:0:
448,192,124496,1,8,0:0:0:0:
64,192,124655,1,0,0:0:0:0:
192,192,124655,1,2,0:0:0:0:
320,192,124655,1,8,0:0:0:0:
64,192,124815,1,0,0:0:0:0:
192,192,124815,1,2,0:0:0:0:
320,192,124815,1,8,0:0:0:0:
64,192,124974,1,0,0:0:0:0:
320,192,124974,1,2,0:0:0:0:
448,192,124974,1,8,0:0:0:0:
448,192,125134,1,8,0:0:0:0:
320,192,125134,1,2,0:0:0:0:
64,192,125134,1,0,0:0:0:0:
448,192,125294,1,8,0:0:0:0:
320,192,125294,1,2,0:0:0:0:
192,192,125294,1,0,0:0:0:0:
192,192,125453,1,0,0:0:0:0:
64,192,125453,1,8,3:0:0:0:
448,192,125533,1,8,3:0:0:0:
64,192,125613,1,0,0:0:0:0:
320,192,125613,1,8,3:0:0:0:
448,192,125772,1,8,3:0:0:0:
192,192,125772,1,0,0:0:0:0:
192,192,125932,1,8,3:0:0:0:
64,192,125932,1,0,0:0:0:0:
320,192,126091,1,0,0:0:0:0:
448,192,126091,1,8,3:0:0:0:
192,192,126251,1,0,0:0:0:0:
64,192,126251,1,2,0:0:0:0:
448,192,126251,1,8,0:0:0:0:
448,192,126570,1,0,0:0:0:0:
192,192,126570,1,2,0:0:0:0:
64,192,126570,1,4,0:0:0:0:
320,192,126730,1,2,0:0:0:0:
448,192,126889,1,2,0:0:0:0:
192,192,127049,1,0,0:0:0:0:
64,192,127049,1,2,0:0:0:0:
320,192,127209,1,8,0:0:0:0:
192,192,127209,1,2,0:0:0:0:
448,192,127209,1,0,0:0:0:0:
448,192,127368,1,0,0:0:0:0:
64,192,127368,1,2,0:0:0:0:
192,192,127528,1,2,0:0:0:0:
320,192,127687,1,2,0:0:0:0:
64,192,127687,1,0,0:0:0:0:
192,192,127767,1,0,0:0:0:0:
320,192,127847,1,0,0:0:0:0:
448,192,127847,1,2,0:0:0:0:
64,192,128006,1,2,0:0:0:0:
192,192,128006,1,0,0:0:0:0:
320,192,128166,1,2,0:0:0:0:
192,192,128326,1,0,0:0:0:0:
448,192,128326,1,2,0:0:0:0:
64,192,128485,1,0,0:0:0:0:
320,192,128485,1,8,0:0:0:0:
192,192,128485,1,2,0:0:0:0:
64,192,128645,1,0,0:0:0:0:
448,192,128645,1,2,0:0:0:0:
192,192,128804,1,2,0:0:0:0:
320,192,128964,1,0,0:0:0:0:
448,192,128964,1,2,0:0:0:0:
320,192,129123,1,2,0:0:0:0:
192,192,129123,1,4,0:0:0:0:
64,192,129123,1,0,0:0:0:0:
448,192,129283,1,2,0:0:0:0:
64,192,129443,1,2,0:0:0:0:
320,192,129602,1,0,0:0:0:0:
192,192,129602,1,2,0:0:0:0:
192,192,129762,1,8,0:0:0:0:
448,192,129762,1,2,0:0:0:0:
64,192,129762,1,0,0:0:0:0:
320,192,129921,1,0,0:0:0:0:
448,192,129921,1,2,0:0:0:0:
192,192,130081,1,2,0:0:0:0:
64,192,130240,1,2,0:0:0:0:
448,192,130240,1,0,0:0:0:0:
320,192,130320,1,0,0:0:0:0:
192,192,130400,1,0,0:0:0:0:
448,192,130400,1,2,0:0:0:0:
64,192,130560,1,2,0:0:0:0:
320,192,130560,1,0,0:0:0:0:
192,192,130560,1,8,0:0:0:0:
448,192,130719,1,2,0:0:0:0:
320,192,130879,1,0,0:0:0:0:
64,192,130879,1,2,0:0:0:0:
448,192,131038,1,10,0:0:0:0:
192,192,131038,1,0,0:0:0:0:
320,192,131038,1,0,0:0:0:0:
64,192,131198,1,2,0:0:0:0:
448,192,131198,1,0,0:0:0:0:
192,192,131278,1,0,0:0:0:0:
320,192,131357,1,0,0:0:0:0:
64,192,131357,1,2,0:0:0:0:
448,192,131517,1,8,0:0:0:0:
192,192,131517,1,0,0:0:0:0:
320,192,131517,1,2,0:0:0:0:
192,192,131836,1,4,0:0:0:0:
448,192,131836,1,2,0:0:0:0:
64,192,131836,1,0,0:0:0:0:
64,192,131996,1,0,0:0:0:0:
320,192,131996,1,2,0:0:0:0:
448,192,132155,1,2,0:0:0:0:
64,192,132315,1,0,0:0:0:0:
320,192,132315,1,2,0:0:0:0:
192,192,132315,1,8,0:0:0:0:
448,192,132474,1,2,0:0:0:0:
64,192,132474,1,0,0:0:0:0:
320,192,132634,1,2,0:0:0:0:
448,192,132794,1,0,0:0:0:0:
192,192,132794,1,2,0:0:0:0:
320,192,132873,1,0,0:0:0:0:
64,192,132953,1,2,0:0:0:0:
192,192,132953,1,0,0:0:0:0:
320,192,133113,1,0,0:0:0:0:
448,192,133113,1,2,0:0:0:0:
64,192,133113,1,8,0:0:0:0:
192,192,133272,1,2,0:0:0:0:
64,192,133432,1,2,0:0:0:0:
320,192,133432,1,0,0:0:0:0:
320,192,133591,1,2,0:0:0:0:
192,192,133591,1,0,0:0:0:0:
448,192,133591,1,8,0:0:0:0:
64,192,133751,1,2,0:0:0:0:
448,192,133751,1,0,0:0:0:0:
320,192,133911,1,2,0:0:0:0:
64,192,134070,1,2,0:0:0:0:
192,192,134070,1,0,0:0:0:0:
448,192,134230,1,0,0:0:0:0:
320,192,134230,1,4,0:0:0:0:
192,192,134230,1,2,0:0:0:0:
448,192,134389,1,2,0:0:0:0:
64,192,134549,1,2,0:0:0:0:
320,192,134709,1,0,0:0:0:0:
192,192,134709,1,2,0:0:0:0:
320,192,134868,1,8,0:0:0:0:
64,192,134868,1,2,0:0:0:0:
448,192,134868,1,0,0:0:0:0:
64,192,135028,1,0,0:0:0:0:
192,192,135028,1,2,0:0:0:0:
320,192,135187,1,2,0:0:0:0:
192,192,135347,1,2,0:0:0:0:
448,192,135347,1,8,0:0:0:0:
64,192,135347,1,0,0:0:0:0:
448,192,135506,1,0,0:0:0:0:
320,192,135506,1,2,0:0:0:0:
192,192,135666,1,2,0:0:0:0:
64,192,135666,1,0,0:0:0:0:
320,192,135826,1,10,0:0:0:0:
448,192,135826,1,2,0:0:0:0:
64,192,135826,1,4,0:0:0:0:
192,192,135985,1,0,0:0:0:0:
320,192,136145,1,4,3:0:0:0:
448,192,136145,1,0,0:0:0:0:
192,192,136224,1,4,3:0:0:0:
64,192,136224,1,0,0:0:0:0:
448,192,136304,1,0,0:0:0:0:
64,192,136384,1,0,0:0:0:0:
192,192,136464,1,8,0:0:0:0:
448,192,136464,1,0,0:0:0:0:
320,192,136464,1,4,0:0:0:0:
64,192,136623,1,0,0:0:0:0:
192,192,136783,1,2,0:0:0:0:
64,192,136783,1,4,0:0:0:0:
448,192,136783,128,0,139336:0:0:0:0:
320,192,136943,1,0,0:0:0:0:
192,192,136943,1,2,0:0:0:0:
64,192,137262,1,0,0:0:0:0:
320,192,137262,1,2,0:0:0:0:
192,192,137421,1,0,0:0:0:0:
320,192,137421,1,2,0:0:0:0:
64,192,137421,1,8,0:0:0:0:
64,192,137740,1,2,0:0:0:0:
192,192,137740,1,0,0:0:0:0:
64,192,137900,1,0,0:0:0:0:
192,192,138060,1,0,0:0:0:0:
320,192,138060,1,8,0:0:0:0:
64,192,138060,1,2,0:0:0:0:
320,192,138219,1,0,0:0:0:0:
64,192,138379,1,0,0:0:0:0:
192,192,138379,1,2,0:0:0:0:
320,192,138698,1,8,0:0:0:0:
192,192,138698,1,2,0:0:0:0:
64,192,138698,1,0,0:0:0:0:
64,192,139017,1,0,0:0:0:0:
320,192,139017,1,2,0:0:0:0:
320,192,139336,1,2,0:0:0:0:
192,192,139336,1,0,0:0:0:0:
64,192,139336,128,4,141889:0:0:0:0:
448,192,139815,1,2,0:0:0:0:
192,192,139815,1,0,0:0:0:0:
192,192,139974,1,0,0:0:0:0:
320,192,139974,1,2,0:0:0:0:
448,192,139974,1,8,0:0:0:0:
320,192,140294,1,2,0:0:0:0:
192,192,140294,1,0,0:0:0:0:
320,192,140453,1,0,0:0:0:0:
448,192,140453,1,2,0:0:0:0:
448,192,140772,1,8,0:0:0:0:
320,192,140772,1,2,0:0:0:0:
192,192,140772,1,0,0:0:0:0:
192,192,141091,1,0,0:0:0:0:
320,192,141091,1,2,0:0:0:0:
448,192,141251,1,8,0:0:0:0:
320,192,141251,1,2,0:0:0:0:
192,192,141251,1,0,0:0:0:0:
448,192,141570,1,0,0:0:0:0:
320,192,141570,1,2,0:0:0:0:
192,192,141730,1,0,0:0:0:0:
192,192,141889,1,0,0:0:0:0:
320,192,141889,1,2,0:0:0:0:
448,192,141889,128,12,144443:0:0:0:0:
64,192,142049,1,2,0:0:0:0:
320,192,142049,1,0,0:0:0:0:
192,192,142368,1,0,0:0:0:0:
320,192,142368,1,2,0:0:0:0:
64,192,142528,1,8,0:0:0:0:
320,192,142528,1,2,0:0:0:0:
192,192,142528,1,0,0:0:0:0:
192,192,142847,1,0,0:0:0:0:
320,192,142847,1,2,0:0:0:0:
64,192,143006,1,0,0:0:0:0:
192,192,143166,1,0,0:0:0:0:
320,192,143166,1,2,0:0:0:0:
64,192,143166,1,8,0:0:0:0:
192,192,143326,1,0,0:0:0:0:
64,192,143485,1,0,0:0:0:0:
320,192,143485,1,2,0:0:0:0:
64,192,143804,1,8,0:0:0:0:
320,192,143804,1,2,0:0:0:0:
192,192,143804,1,0,0:0:0:0:
64,192,144123,1,0,0:0:0:0:
320,192,144123,1,2,0:0:0:0:
192,192,144443,1,0,0:0:0:0:
320,192,144443,1,2,0:0:0:0:
64,192,144443,128,4,145400:0:0:0:0:
320,192,144921,1,2,0:0:0:0:
192,192,144921,1,0,0:0:0:0:
192,192,145081,1,0,0:0:0:0:
320,192,145081,1,2,0:0:0:0:
448,192,145081,1,8,0:0:0:0:
448,192,145400,1,8,0:0:0:0:
320,192,145400,1,2,0:0:0:0:
192,192,145400,1,0,0:0:0:0:
64,192,145560,1,0,0:0:0:0:
448,192,145560,1,2,0:0:0:0:
64,192,145879,1,8,0:0:0:0:
320,192,145879,1,2,0:0:0:0:
192,192,145879,1,0,0:0:0:0:
192,192,146198,1,0,0:0:0:0:
320,192,146198,1,2,0:0:0:0:
448,192,146357,1,12,0:0:0:0:
64,192,146357,1,2,0:0:0:0:
192,192,146357,1,0,0:0:0:0:
320,192,146437,1,0,0:0:0:0:
448,192,146517,1,2,0:0:0:0:
64,192,146517,1,0,0:0:0:0:
192,192,146597,1,0,0:0:0:0:
64,192,146677,1,2,0:0:0:0:
448,192,146677,1,0,0:0:0:0:
320,192,146756,1,0,0:0:0:0:
192,192,146836,1,2,0:0:0:0:
64,192,146836,1,0,0:0:0:0:
448,192,146916,1,0,0:0:0:0:
320,192,146996,1,2,0:0:0:0:
192,192,146996,1,4,0:0:0:0:
64,192,146996,128,0,149549:0:0:0:0:
192,192,147155,1,0,0:0:0:0:
448,192,147155,1,2,0:0:0:0:
448,192,147474,1,0,0:0:0:0:
192,192,147474,1,2,0:0:0:0:
320,192,147634,1,0,0:0:0:0:
192,192,147634,1,2,0:0:0:0:
448,192,147634,1,8,0:0:0:0:
448,192,147953,1,2,0:0:0:0:
320,192,147953,1,0,0:0:0:0:
448,192,148113,1,0,0:0:0:0:
320,192,148272,1,0,0:0:0:0:
192,192,148272,1,8,0:0:0:0:
448,192,148272,1,2,0:0:0:0:
192,192,148432,1,0,0:0:0:0:
448,192,148591,1,0,0:0:0:0:
320,192,148591,1,2,0:0:0:0:
192,192,148911,1,8,0:0:0:0:
320,192,148911,1,2,0:0:0:0:
448,192,148911,1,0,0:0:0:0:
448,192,149230,1,0,0:0:0:0:
192,192,149230,1,2,0:0:0:0:
192,192,149549,1,2,0:0:0:0:
320,192,149549,1,0,0:0:0:0:
448,192,149549,128,4,152102:0:0:0:0:
64,192,150028,1,2,0:0:0:0:
320,192,150028,1,0,0:0:0:0:
320,192,150187,1,0,0:0:0:0:
192,192,150187,1,2,0:0:0:0:
64,192,150187,1,8,0:0:0:0:
192,192,150506,1,2,0:0:0:0:
320,192,150506,1,0,0:0:0:0:
192,192,150666,1,0,0:0:0:0:
64,192,150666,1,2,0:0:0:0:
64,192,150985,1,8,0:0:0:0:
192,192,150985,1,2,0:0:0:0:
320,192,150985,1,0,0:0:0:0:
320,192,151304,1,0,0:0:0:0:
192,192,151304,1,2,0:0:0:0:
64,192,151464,1,8,0:0:0:0:
192,192,151464,1,2,0:0:0:0:
320,192,151464,1,0,0:0:0:0:
64,192,151783,1,0,0:0:0:0:
192,192,151783,1,2,0:0:0:0:
320,192,151943,1,0,0:0:0:0:
320,192,152102,1,0,0:0:0:0:
192,192,152102,1,2,0:0:0:0:
64,192,152102,128,12,154655:0:0:0:0:
448,192,152262,1,2,0:0:0:0:
192,192,152262,1,0,0:0:0:0:
320,192,152581,1,0,0:0:0:0:
192,192,152581,1,2,0:0:0:0:
448,192,152740,1,8,0:0:0:0:
192,192,152740,1,2,0:0:0:0:
320,192,152740,1,0,0:0:0:0:
320,192,153060,1,0,0:0:0:0:
192,192,153060,1,2,0:0:0:0:
448,192,153219,1,0,0:0:0:0:
320,192,153379,1,0,0:0:0:0:
192,192,153379,1,2,0:0:0:0:
448,192,153379,1,8,0:0:0:0:
320,192,153538,1,0,0:0:0:0:
448,192,153698,1,0,0:0:0:0:
192,192,153698,1,2,0:0:0:0:
448,192,154017,1,8,0:0:0:0:
192,192,154017,1,2,0:0:0:0:
320,192,154017,1,0,0:0:0:0:
448,192,154336,1,0,0:0:0:0:
192,192,154336,1,2,0:0:0:0:
320,192,154655,1,0,0:0:0:0:
192,192,154655,1,2,0:0:0:0:
448,192,154655,128,4,155613:0:0:0:0:
192,192,155134,1,2,0:0:0:0:
320,192,155134,1,0,0:0:0:0:
320,192,155294,1,0,0:0:0:0:
192,192,155294,1,2,0:0:0:0:
64,192,155294,1,8,0:0:0:0:
64,192,155613,1,8,0:0:0:0:
192,192,155613,1,2,0:0:0:0:
320,192,155613,1,0,0:0:0:0:
448,192,155772,1,0,0:0:0:0:
64,192,155772,1,2,0:0:0:0:
448,192,156091,1,8,0:0:0:0:
192,192,156091,1,2,0:0:0:0:
320,192,156091,1,0,0:0:0:0:
320,192,156411,1,0,0:0:0:0:
192,192,156411,1,2,0:0:0:0:
64,192,156570,1,12,0:0:0:0:
448,192,156570,1,2,0:0:0:0:
320,192,156570,1,0,0:0:0:0:
192,192,156730,1,0,0:0:0:0:
64,192,156889,1,2,0:0:0:0:
448,192,156889,1,0,0:0:0:0:
320,192,157049,1,0,0:0:0:0:
192,192,157209,1,2,0:0:0:0:
448,192,157209,1,0,0:0:0:0:
64,192,157209,128,4,157528:0:0:0:0:
320,192,157528,1,2,0:0:0:0:
448,192,157528,1,0,0:0:0:0:
192,192,157687,1,0,0:0:0:0:
448,192,157847,1,0,0:0:0:0:
64,192,157847,1,6,0:0:0:0:
320,192,157847,1,8,0:0:0:0:
192,192,158006,128,2,158326:0:0:0:0:
448,192,158006,1,0,0:0:0:0:
320,192,158326,1,0,0:0:0:0:
64,192,158485,1,6,0:0:0:0:
192,192,158485,1,8,0:0:0:0:
448,192,158485,1,0,0:0:0:0:
320,192,158645,1,0,0:0:0:0:
448,192,158645,128,2,158964:0:0:0:0:
192,192,158964,1,0,0:0:0:0:
448,192,159123,1,0,0:0:0:0:
320,192,159123,1,6,0:0:0:0:
64,192,159123,128,8,159443:0:0:0:0:
192,192,159443,1,2,0:0:0:0:
448,192,159443,1,0,0:0:0:0:
320,192,159762,1,2,0:0:0:0:
64,192,159762,1,0,0:0:0:0:
448,192,159762,128,4,160081:0:0:0:0:
192,192,160081,1,2,0:0:0:0:
64,192,160081,1,0,0:0:0:0:
448,192,160240,1,0,0:0:0:0:
64,192,160400,1,0,0:0:0:0:
320,192,160400,1,6,0:0:0:0:
192,192,160400,1,8,0:0:0:0:
448,192,160560,128,2,160879:0:0:0:0:
192,192,160560,1,0,0:0:0:0:
64,192,160879,1,0,0:0:0:0:
448,192,161038,1,6,0:0:0:0:
320,192,161038,1,8,0:0:0:0:
192,192,161038,1,0,0:0:0:0:
64,192,161198,1,0,0:0:0:0:
320,192,161198,128,2,161517:0:0:0:0:
192,192,161517,1,0,0:0:0:0:
320,192,161677,1,0,0:0:0:0:
448,192,161677,1,6,0:0:0:0:
64,192,161677,128,8,161996:0:0:0:0:
320,192,161996,1,2,0:0:0:0:
192,192,161996,1,0,0:0:0:0:
320,192,162315,128,4,162634:0:0:0:0:
64,192,162315,1,0,0:0:0:0:
192,192,162315,1,2,0:0:0:0:
64,192,162634,1,0,0:0:0:0:
448,192,162634,1,2,0:0:0:0:
320,192,162794,1,0,0:0:0:0:
192,192,162953,1,8,0:0:0:0:
448,192,162953,1,6,0:0:0:0:
64,192,162953,1,0,0:0:0:0:
192,192,163113,1,0,0:0:0:0:
320,192,163113,128,2,163432:0:0:0:0:
448,192,163432,1,0,0:0:0:0:
64,192,163591,1,0,0:0:0:0:
320,192,163591,1,8,0:0:0:0:
192,192,163591,1,6,0:0:0:0:
192,192,163751,128,2,164070:0:0:0:0:
448,192,163751,1,0,0:0:0:0:
320,192,164070,1,0,0:0:0:0:
64,192,164230,128,8,164549:0:0:0:0:
192,192,164230,1,6,0:0:0:0:
448,192,164230,1,0,0:0:0:0:
448,192,164549,1,0,0:0:0:0:
320,192,164549,1,2,0:0:0:0:
320,192,164868,1,2,0:0:0:0:
192,192,164868,1,0,0:0:0:0:
448,192,164868,128,4,165187:0:0:0:0:
320,192,165187,1,2,0:0:0:0:
64,192,165187,1,0,0:0:0:0:
192,192,165347,1,0,0:0:0:0:
64,192,165506,1,0,0:0:0:0:
448,192,165506,1,6,0:0:0:0:
320,192,165506,1,8,0:0:0:0:
448,192,165666,128,2,165985:0:0:0:0:
192,192,165666,1,0,0:0:0:0:
64,192,165985,1,2,0:0:0:0:
320,192,165985,1,0,0:0:0:0:
192,192,166065,1,0,0:0:0:0:
448,192,166145,1,6,0:0:0:0:
320,192,166145,1,8,0:0:0:0:
64,192,166145,128,0,166623:0:0:0:0:
320,192,166623,1,0,0:0:0:0:
192,192,166623,1,2,0:0:0:0:
448,192,166623,128,4,167102:0:0:0:0:
64,192,167102,1,0,0:0:0:0:
192,192,167102,1,6,0:0:0:0:
320,192,167102,1,8,0:0:0:0:
320,192,167421,1,2,0:0:0:0:
64,192,167421,1,0,0:0:0:0:
448,192,167421,128,4,167740:0:0:0:0:
192,192,167740,1,2,0:0:0:0:
64,192,167740,1,0,0:0:0:0:
320,192,167900,1,0,0:0:0:0:
64,192,168060,1,0,0:0:0:0:
448,192,168060,1,6,0:0:0:0:
192,192,168060,1,8,0:0:0:0:
320,192,168219,128,2,168538:0:0:0:0:
64,192,168219,1,0,0:0:0:0:
192,192,168538,1,0,0:0:0:0:
448,192,168698,1,6,0:0:0:0:
320,192,168698,1,8,0:0:0:0:
64,192,168698,1,0,0:0:0:0:
192,192,168857,1,0,0:0:0:0:
64,192,168857,128,2,169177:0:0:0:0:
320,192,169177,1,0,0:0:0:0:
64,192,169336,1,0,0:0:0:0:
192,192,169336,1,6,0:0:0:0:
448,192,169336,128,8,169655:0:0:0:0:
320,192,169655,1,2,0:0:0:0:
64,192,169655,1,0,0:0:0:0:
192,192,169974,1,2,0:0:0:0:
448,192,169974,1,0,0:0:0:0:
64,192,169974,128,4,170294:0:0:0:0:
320,192,170294,1,2,0:0:0:0:
448,192,170294,1,0,0:0:0:0:
64,192,170453,1,0,0:0:0:0:
448,192,170613,1,0,0:0:0:0:
192,192,170613,1,6,0:0:0:0:
320,192,170613,1,8,0:0:0:0:
64,192,170772,128,2,171091:0:0:0:0:
320,192,170772,1,0,0:0:0:0:
448,192,171091,1,0,0:0:0:0:
64,192,171251,1,6,0:0:0:0:
192,192,171251,1,8,0:0:0:0:
320,192,171251,1,0,0:0:0:0:
448,192,171411,1,0,0:0:0:0:
192,192,171411,128,2,171730:0:0:0:0:
320,192,171730,1,0,0:0:0:0:
192,192,171889,1,0,0:0:0:0:
64,192,171889,1,6,0:0:0:0:
448,192,171889,128,8,172209:0:0:0:0:
192,192,172209,1,2,0:0:0:0:
320,192,172209,1,0,0:0:0:0:
192,192,172528,128,4,172847:0:0:0:0:
448,192,172528,1,0,0:0:0:0:
320,192,172528,1,2,0:0:0:0:
448,192,172847,1,0,0:0:0:0:
64,192,172847,1,2,0:0:0:0:
192,192,173006,1,0,0:0:0:0:
320,192,173166,1,8,0:0:0:0:
64,192,173166,1,6,0:0:0:0:
448,192,173166,1,0,0:0:0:0:
320,192,173326,1,0,0:0:0:0:
192,192,173326,128,2,173645:0:0:0:0:
64,192,173645,1,0,0:0:0:0:
448,192,173804,1,0,0:0:0:0:
192,192,173804,1,8,0:0:0:0:
320,192,173804,1,6,0:0:0:0:
320,192,173964,128,2,174283:0:0:0:0:
64,192,173964,1,0,0:0:0:0:
192,192,174283,1,0,0:0:0:0:
448,192,174443,128,8,174762:0:0:0:0:
320,192,174443,1,6,0:0:0:0:
64,192,174443,1,0,0:0:0:0:
64,192,174762,1,0,0:0:0:0:
192,192,174762,1,2,0:0:0:0:
192,192,175081,1,2,0:0:0:0:
320,192,175081,1,0,0:0:0:0:
64,192,175081,128,4,175400:0:0:0:0:
192,192,175400,1,2,0:0:0:0:
448,192,175400,1,0,0:0:0:0:
320,192,175560,1,0,0:0:0:0:
448,192,175719,1,0,0:0:0:0:
64,192,175719,1,6,0:0:0:0:
192,192,175719,1,8,0:0:0:0:
64,192,175879,128,2,176198:0:0:0:0:
320,192,175879,1,0,0:0:0:0:
448,192,176198,1,2,0:0:0:0:
192,192,176198,1,0,0:0:0:0:
320,192,176278,1,0,0:0:0:0:
64,192,176357,1,6,0:0:0:0:
192,192,176357,1,8,0:0:0:0:
448,192,176357,128,0,176836:0:0:0:0:
192,192,176836,1,0,0:0:0:0:
320,192,176836,1,2,0:0:0:0:
64,192,176836,128,4,177315:0:0:0:0:
448,192,177315,1,0,0:0:0:0:
192,192,177315,1,4,3:0:0:0:
64,192,177634,1,2,0:0:0:0:
320,192,177634,1,4,0:0:0:0:
448,192,177634,1,0,0:0:0:0:
448,192,181943,1,0,0:0:0:0:
320,192,181982,1,0,0:0:0:0:
192,192,182022,1,0,0:0:0:0:
64,192,182062,1,0,0:0:0:0:
320,192,182102,1,8,0:0:0:0:
448,192,182102,1,0,0:0:0:0:
320,192,182315,1,0,0:0:0:0:
192,192,182315,1,8,0:0:0:0:
64,192,182528,1,0,0:0:0:0:
192,192,182528,1,8,0:0:0:0:
64,192,182740,1,0,0:0:0:0:
320,192,182740,1,2,0:0:0:0:
448,192,182740,1,4,0:0:0:0:
192,192,183380,1,2,0:0:0:0:
64,192,183380,1,0,0:0:0:0:
448,192,183701,1,2,0:0:0:0:
320,192,184021,1,0,0:0:0:0:
192,192,184021,1,2,0:0:0:0:
64,192,184342,1,2,0:0:0:0:
448,192,184502,1,8,3:0:0:0:
320,192,184582,1,8,3:0:0:0:
192,192,184662,1,8,3:0:0:0:
64,192,184662,1,0,0:0:0:0:
448,192,184822,1,8,3:0:0:0:
320,192,184982,1,8,3:0:0:0:
64,192,184982,1,0,0:0:0:0:
192,192,185303,1,8,3:0:0:0:
320,192,185303,1,6,0:0:0:0:
448,192,185303,1,0,0:0:0:0:
64,192,185622,1,0,0:0:0:0:
320,192,185781,1,8,0:0:0:0:
448,192,185781,128,2,185941:0:0:0:0:
192,192,185941,1,2,0:0:0:0:
64,192,185941,1,0,0:0:0:0:
448,192,186240,1,0,0:0:0:0:
192,192,186260,1,0,0:0:0:0:
320,192,186260,1,8,3:0:0:0:
64,192,186579,1,0,0:0:0:0:
192,192,186579,1,8,3:0:0:0:
320,192,186898,1,8,3:0:0:0:
448,192,186898,1,10,0:0:0:0:
64,192,186898,1,0,0:0:0:0:
192,192,186898,1,4,0:0:0:0:
320,192,187217,1,8,3:0:0:0:
448,192,187217,1,0,0:0:0:0:
192,192,187324,1,8,3:0:0:0:
320,192,187430,1,8,3:0:0:0:
64,192,187430,1,0,0:0:0:0:
448,192,187537,1,8,3:0:0:0:
192,192,187643,1,8,3:0:0:0:
64,192,187643,1,0,0:0:0:0:
320,192,187749,1,8,3:0:0:0:
192,192,187856,1,2,0:0:0:0:
64,192,187856,1,0,0:0:0:0:
448,192,187856,1,4,0:0:0:0:
320,192,188015,1,0,0:0:0:0:
448,192,188175,1,0,0:0:0:0:
192,192,188175,1,2,0:0:0:0:
64,192,188334,1,0,0:0:0:0:
448,192,188494,1,2,0:0:0:0:
320,192,188494,1,0,0:0:0:0:
64,192,188813,1,0,0:0:0:0:
192,192,188813,1,2,0:0:0:0:
448,192,189132,1,2,0:0:0:0:
64,192,189132,1,0,0:0:0:0:
320,192,189292,1,0,0:0:0:0:
64,192,189451,1,0,0:0:0:0:
192,192,189451,1,2,0:0:0:0:
448,192,189611,1,0,0:0:0:0:
192,192,189771,1,2,0:0:0:0:
320,192,189771,1,0,0:0:0:0:
64,192,189930,1,0,0:0:0:0:
448,192,190090,1,0,0:0:0:0:
192,192,190090,1,2,0:0:0:0:
320,192,190409,1,2,0:0:0:0:
64,192,190409,1,0,0:0:0:0:
448,192,190568,1,0,0:0:0:0:
192,192,190728,1,0,0:0:0:0:
320,192,190728,1,2,0:0:0:0:
64,192,190888,1,0,0:0:0:0:
192,192,191047,1,2,0:0:0:0:
448,192,191047,1,0,0:0:0:0:
64,192,191366,1,0,0:0:0:0:
448,192,191366,1,2,0:0:0:0:
192,192,191685,1,2,0:0:0:0:
320,192,191685,1,0,0:0:0:0:
448,192,191845,1,0,0:0:0:0:
320,192,192005,1,0,0:0:0:0:
64,192,192005,1,2,0:0:0:0:
192,192,192164,1,0,0:0:0:0:
320,192,192324,1,2,0:0:0:0:
64,192,192324,1,0,0:0:0:0:
448,192,192483,1,0,0:0:0:0:
64,192,192643,1,0,0:0:0:0:
192,192,192643,1,2,0:0:0:0:
320,192,192803,1,0,0:0:0:0:
192,192,192962,1,2,0:0:0:0:
448,192,192962,1,0,0:0:0:0:
64,192,193122,1,0,0:0:0:0:
192,192,193281,1,0,0:0:0:0:
320,192,193281,1,2,0:0:0:0:
448,192,193441,1,0,0:0:0:0:
64,192,193600,1,2,0:0:0:0:
192,192,193600,1,0,0:0:0:0:
448,192,193920,1,0,0:0:0:0:
320,192,193920,1,2,0:0:0:0:
64,192,194239,1,2,0:0:0:0:
448,192,194239,1,0,0:0:0:0:
192,192,194398,1,0,0:0:0:0:
448,192,194558,1,0,0:0:0:0:
320,192,194558,1,2,0:0:0:0:
64,192,194717,1,0,0:0:0:0:
320,192,194877,1,2,0:0:0:0:
192,192,194877,1,0,0:0:0:0:
448,192,195037,1,0,0:0:0:0:
64,192,195196,1,0,0:0:0:0:
320,192,195196,1,2,0:0:0:0:
192,192,195515,1,2,0:0:0:0:
448,192,195515,1,0,0:0:0:0:
64,192,195675,1,0,0:0:0:0:
320,192,195834,1,0,0:0:0:0:
192,192,195834,1,2,0:0:0:0:
448,192,195994,1,0,0:0:0:0:
320,192,196154,1,2,0:0:0:0:
64,192,196154,1,0,0:0:0:0:
192,192,196313,1,0,0:0:0:0:
448,192,196473,1,0,0:0:0:0:
64,192,196473,1,2,0:0:0:0:
320,192,196632,1,0,0:0:0:0:
320,192,196792,1,2,0:0:0:0:
64,192,196792,1,0,0:0:0:0:
64,192,196951,1,0,0:0:0:0:
192,192,197111,1,0,0:0:0:0:
448,192,197111,1,2,0:0:0:0:
320,192,197271,1,0,0:0:0:0:
192,192,197430,1,2,0:0:0:0:
448,192,197430,1,0,0:0:0:0:
64,192,197590,1,0,0:0:0:0:
448,192,197749,1,8,0:0:0:0:
320,192,197749,1,6,0:0:0:0:
192,192,197749,1,0,0:0:0:0:
320,192,197909,1,0,0:0:0:0:
192,192,198068,1,2,0:0:0:0:
64,192,198068,1,0,0:0:0:0:
448,192,198068,1,4,0:0:0:0:
320,192,198228,1,0,0:0:0:0:
448,192,198388,1,0,0:0:0:0:
64,192,198388,1,2,0:0:0:0:
192,192,198547,1,0,0:0:0:0:
448,192,198707,1,2,0:0:0:0:
320,192,198707,1,0,0:0:0:0:
192,192,198866,1,0,0:0:0:0:
64,192,199026,1,0,0:0:0:0:
320,192,199026,1,2,0:0:0:0:
320,192,199185,1,0,0:0:0:0:
448,192,199345,1,2,0:0:0:0:
64,192,199345,1,0,0:0:0:0:
320,192,199505,1,0,0:0:0:0:
64,192,199664,1,0,0:0:0:0:
192,192,199664,1,2,0:0:0:0:
448,192,199824,1,0,0:0:0:0:
192,192,199983,1,2,0:0:0:0:
320,192,199983,1,0,0:0:0:0:
64,192,200143,1,0,0:0:0:0:
320,192,200223,1,0,0:0:0:0:
448,192,200303,1,0,0:0:0:0:
192,192,200303,1,2,0:0:0:0:
64,192,200462,1,0,0:0:0:0:
320,192,200622,1,2,0:0:0:0:
64,192,200622,1,0,0:0:0:0:
448,192,200781,1,0,0:0:0:0:
192,192,200941,1,0,0:0:0:0:
320,192,200941,1,2,0:0:0:0:
64,192,201100,1,0,0:0:0:0:
192,192,201260,1,2,0:0:0:0:
448,192,201260,1,0,0:0:0:0:
320,192,201420,1,0,0:0:0:0:
64,192,201579,1,0,0:0:0:0:
448,192,201579,1,2,0:0:0:0:
192,192,201739,1,0,0:0:0:0:
192,192,201898,1,2,0:0:0:0:
320,192,201898,1,0,0:0:0:0:
448,192,202058,1,0,0:0:0:0:
320,192,202217,1,0,0:0:0:0:
64,192,202217,1,2,0:0:0:0:
192,192,202377,1,0,0:0:0:0:
320,192,202537,1,2,0:0:0:0:
64,192,202537,1,0,0:0:0:0:
448,192,202696,1,0,0:0:0:0:
320,192,202776,1,0,0:0:0:0:
64,192,202856,1,0,0:0:0:0:
192,192,202856,1,2,0:0:0:0:
320,192,203015,1,0,0:0:0:0:
192,192,203175,1,2,0:0:0:0:
448,192,203175,1,0,0:0:0:0:
64,192,203334,1,0,0:0:0:0:
192,192,203494,1,0,0:0:0:0:
320,192,203494,1,2,0:0:0:0:
448,192,203654,1,0,0:0:0:0:
64,192,203813,1,2,0:0:0:0:
192,192,203813,1,0,0:0:0:0:
320,192,203973,1,0,0:0:0:0:
448,192,204132,1,0,0:0:0:0:
320,192,204132,1,2,0:0:0:0:
192,192,204292,1,0,0:0:0:0:
64,192,204451,1,2,0:0:0:0:
448,192,204451,1,0,0:0:0:0:
192,192,204611,1,0,0:0:0:0:
448,192,204771,1,0,0:0:0:0:
320,192,204771,1,2,0:0:0:0:
64,192,204930,1,0,0:0:0:0:
320,192,205090,1,2,0:0:0:0:
192,192,205090,1,0,0:0:0:0:
448,192,205249,1,0,0:0:0:0:
192,192,205329,1,0,0:0:0:0:
64,192,205409,1,0,0:0:0:0:
320,192,205409,1,2,0:0:0:0:
320,192,205568,1,0,0:0:0:0:
192,192,205728,1,2,0:0:0:0:
448,192,205728,1,0,0:0:0:0:
64,192,205728,128,4,207005:0:0:0:0:
320,192,206047,1,8,3:0:0:0:
448,192,206047,1,0,0:0:0:0:
192,192,206207,1,0,0:0:0:0:
320,192,206366,1,8,3:0:0:0:
192,192,206366,1,0,0:0:0:0:
448,192,206526,1,0,0:0:0:0:
192,192,206685,1,8,3:0:0:0:
320,192,206685,1,0,0:0:0:0:
320,192,207005,1,2,0:0:0:0:
192,192,207005,1,4,0:0:0:0:
448,192,207005,128,0,208281:0:0:0:0:
192,192,207324,1,2,0:0:0:0:
64,192,207324,1,0,0:0:0:0:
192,192,207643,1,2,0:0:0:0:
320,192,207643,1,0,0:0:0:0:
320,192,207962,1,2,0:0:0:0:
64,192,207962,1,0,0:0:0:0:
192,192,208281,1,2,0:0:0:0:
64,192,208281,128,2,210455:0:0:0:0:
448,192,210834,1,0,0:0:0:0:
192,192,210834,1,2,0:0:0:0:
64,192,210834,1,4,0:0:0:0:
320,192,210994,1,2,0:0:0:0:
448,192,211154,1,2,0:0:0:0:
192,192,211313,1,0,0:0:0:0:
64,192,211313,1,2,0:0:0:0:
320,192,211473,1,8,0:0:0:0:
192,192,211473,1,2,0:0:0:0:
448,192,211473,1,0,0:0:0:0:
448,192,211632,1,0,0:0:0:0:
64,192,211632,1,2,0:0:0:0:
192,192,211792,1,2,0:0:0:0:
320,192,211951,1,2,0:0:0:0:
64,192,211951,1,0,0:0:0:0:
192,192,212031,1,0,0:0:0:0:
320,192,212111,1,0,0:0:0:0:
448,192,212111,1,2,0:0:0:0:
64,192,212271,1,2,0:0:0:0:
192,192,212271,1,0,0:0:0:0:
320,192,212430,1,2,0:0:0:0:
192,192,212590,1,0,0:0:0:0:
448,192,212590,1,2,0:0:0:0:
64,192,212749,1,8,0:0:0:0:
320,192,212749,1,0,0:0:0:0:
192,192,212749,1,2,0:0:0:0:
64,192,212909,1,0,0:0:0:0:
448,192,212909,1,2,0:0:0:0:
192,192,213068,1,2,0:0:0:0:
320,192,213228,1,0,0:0:0:0:
448,192,213228,1,2,0:0:0:0:
320,192,213388,1,2,0:0:0:0:
192,192,213388,1,4,0:0:0:0:
64,192,213388,1,0,0:0:0:0:
448,192,213547,1,2,0:0:0:0:
64,192,213707,1,2,0:0:0:0:
320,192,213866,1,0,0:0:0:0:
192,192,213866,1,2,0:0:0:0:
192,192,214026,1,8,0:0:0:0:
448,192,214026,1,2,0:0:0:0:
64,192,214026,1,0,0:0:0:0:
320,192,214185,1,0,0:0:0:0:
448,192,214185,1,2,0:0:0:0:
192,192,214345,1,2,0:0:0:0:
64,192,214505,1,2,0:0:0:0:
448,192,214505,1,0,0:0:0:0:
320,192,214584,1,0,0:0:0:0:
192,192,214664,1,0,0:0:0:0:
448,192,214664,1,2,0:0:0:0:
64,192,214824,1,2,0:0:0:0:
320,192,214824,1,0,0:0:0:0:
192,192,214824,1,8,0:0:0:0:
448,192,214983,1,2,0:0:0:0:
320,192,215143,1,0,0:0:0:0:
64,192,215143,1,2,0:0:0:0:
448,192,215303,1,10,0:0:0:0:
192,192,215303,1,0,0:0:0:0:
320,192,215303,1,0,0:0:0:0:
64,192,215462,1,2,0:0:0:0:
448,192,215462,1,0,0:0:0:0:
192,192,215542,1,0,0:0:0:0:
320,192,215622,1,0,0:0:0:0:
64,192,215622,1,2,0:0:0:0:
448,192,215781,1,8,0:0:0:0:
192,192,215781,1,0,0:0:0:0:
320,192,215781,1,2,0:0:0:0:
192,192,216100,1,4,0:0:0:0:
448,192,216100,1,2,0:0:0:0:
64,192,216100,1,0,0:0:0:0:
64,192,216260,1,0,0:0:0:0:
320,192,216260,1,2,0:0:0:0:
448,192,216420,1,2,0:0:0:0:
64,192,216579,1,0,0:0:0:0:
320,192,216579,1,2,0:0:0:0:
192,192,216579,1,8,0:0:0:0:
448,192,216739,1,2,0:0:0:0:
64,192,216739,1,0,0:0:0:0:
320,192,216898,1,2,0:0:0:0:
448,192,217058,1,0,0:0:0:0:
192,192,217058,1,2,0:0:0:0:
320,192,217138,1,0,0:0:0:0:
64,192,217217,1,2,0:0:0:0:
192,192,217217,1,0,0:0:0:0:
320,192,217377,1,0,0:0:0:0:
448,192,217377,1,2,0:0:0:0:
64,192,217377,1,8,0:0:0:0:
192,192,217537,1,2,0:0:0:0:
64,192,217696,1,2,0:0:0:0:
320,192,217696,1,0,0:0:0:0:
320,192,217856,1,0,0:0:0:0:
192,192,217856,1,2,0:0:0:0:
448,192,217856,1,8,0:0:0:0:
64,192,218015,1,2,0:0:0:0:
448,192,218015,1,0,0:0:0:0:
320,192,218175,1,2,0:0:0:0:
64,192,218334,1,2,0:0:0:0:
192,192,218334,1,0,0:0:0:0:
448,192,218494,1,0,0:0:0:0:
320,192,218494,1,4,0:0:0:0:
192,192,218494,1,2,0:0:0:0:
448,192,218654,1,2,0:0:0:0:
64,192,218813,1,2,0:0:0:0:
320,192,218973,1,0,0:0:0:0:
192,192,218973,1,2,0:0:0:0:
320,192,219132,1,8,0:0:0:0:
64,192,219132,1,2,0:0:0:0:
448,192,219132,1,0,0:0:0:0:
64,192,219292,1,0,0:0:0:0:
192,192,219292,1,2,0:0:0:0:
320,192,219451,1,2,0:0:0:0:
192,192,219611,1,2,0:0:0:0:
448,192,219611,1,8,0:0:0:0:
64,192,219611,1,0,0:0:0:0:
448,192,219771,1,0,0:0:0:0:
320,192,219771,1,2,0:0:0:0:
192,192,219930,1,2,0:0:0:0:
64,192,219930,1,0,0:0:0:0:
320,192,220090,1,10,0:0:0:0:
448,192,220090,1,2,0:0:0:0:
64,192,220090,1,4,0:0:0:0:
192,192,220409,1,8,0:0:0:0:
64,192,220409,1,0,0:0:0:0:
320,192,220489,1,8,0:0:0:0:
448,192,220489,1,0,0:0:0:0:
192,192,220568,1,8,0:0:0:0:
64,192,220568,1,0,0:0:0:0:
320,192,220648,1,8,0:0:0:0:
448,192,220648,1,0,0:0:0:0:
192,192,220728,1,8,0:0:0:0:
64,192,220728,1,0,0:0:0:0:
192,192,221047,1,2,0:0:0:0:
320,192,221047,1,4,0:0:0:0:
448,192,221047,1,0,0:0:0:0:
448,192,221207,1,2,0:0:0:0:
320,192,221366,1,0,0:0:0:0:
192,192,221366,1,2,0:0:0:0:
64,192,221366,1,8,0:0:0:0:
448,192,221526,1,0,0:0:0:0:
192,192,221526,1,2,0:0:0:0:
64,192,221685,1,2,0:0:0:0:
320,192,221845,1,2,0:0:0:0:
192,192,221845,1,0,0:0:0:0:
320,192,222005,1,2,0:0:0:0:
448,192,222005,1,0,0:0:0:0:
64,192,222005,1,8,0:0:0:0:
192,192,222164,1,0,0:0:0:0:
320,192,222324,1,4,0:0:0:0:
64,192,222324,1,0,0:0:0:0:
448,192,222324,128,2,222643:0:0:0:0:
192,192,222643,1,10,0:0:0:0:
320,192,222643,1,4,0:0:0:0:
64,192,222643,128,0,222962:0:0:0:0:
448,192,222962,1,2,0:0:0:0:
192,192,222962,1,0,0:0:0:0:
320,192,222962,128,4,223281:0:0:0:0:
64,192,223281,1,0,0:0:0:0:
448,192,223281,1,10,0:0:0:0:
192,192,223281,128,4,223600:0:0:0:0:
448,192,223600,1,2,0:0:0:0:
64,192,223600,1,0,0:0:0:0:
320,192,223600,1,4,0:0:0:0:
64,192,223760,1,2,0:0:0:0:
192,192,223920,1,0,0:0:0:0:
320,192,223920,1,2,0:0:0:0:
448,192,223920,1,8,0:0:0:0:
64,192,224079,1,0,0:0:0:0:
320,192,224079,1,2,0:0:0:0:
448,192,224239,1,2,0:0:0:0:
192,192,224398,1,2,0:0:0:0:
64,192,224398,1,0,0:0:0:0:
192,192,224558,1,2,0:0:0:0:
448,192,224558,1,0,0:0:0:0:
320,192,224558,1,8,0:0:0:0:
320,192,224717,1,0,0:0:0:0:
192,192,224877,1,4,0:0:0:0:
448,192,224877,1,0,0:0:0:0:
64,192,224877,128,2,225196:0:0:0:0:
320,192,225196,1,10,0:0:0:0:
192,192,225196,1,4,0:0:0:0:
448,192,225196,128,0,225515:0:0:0:0:
64,192,225515,1,2,0:0:0:0:
320,192,225515,1,0,0:0:0:0:
192,192,225515,128,4,225834:0:0:0:0:
448,192,225834,1,0,0:0:0:0:
64,192,225834,1,10,0:0:0:0:
320,192,225834,128,4,226154:0:0:0:0:
64,192,226154,1,2,0:0:0:0:
448,192,226154,1,0,0:0:0:0:
192,192,226154,1,4,0:0:0:0:
320,192,226313,1,2,0:0:0:0:
448,192,226473,1,8,0:0:0:0:
64,192,226473,1,2,0:0:0:0:
192,192,226473,1,0,0:0:0:0:
320,192,226632,1,2,0:0:0:0:
192,192,226632,1,0,0:0:0:0:
64,192,226792,1,2,0:0:0:0:
448,192,226951,1,0,0:0:0:0:
192,192,226951,1,2,0:0:0:0:
64,192,227111,1,8,0:0:0:0:
320,192,227111,1,0,0:0:0:0:
192,192,227111,1,2,0:0:0:0:
448,192,227271,1,0,0:0:0:0:
64,192,227430,128,2,227749:0:0:0:0:
320,192,227430,1,0,0:0:0:0:
192,192,227430,1,4,0:0:0:0:
448,192,227749,128,0,228068:0:0:0:0:
192,192,227749,1,4,0:0:0:0:
320,192,227749,1,10,0:0:0:0:
192,192,228068,128,4,228388:0:0:0:0:
320,192,228068,1,0,0:0:0:0:
64,192,228068,1,2,0:0:0:0:
320,192,228388,128,4,228707:0:0:0:0:
64,192,228388,1,10,0:0:0:0:
448,192,228388,1,0,0:0:0:0:
192,192,228707,1,4,0:0:0:0:
448,192,228707,1,0,0:0:0:0:
64,192,228707,1,2,0:0:0:0:
448,192,229026,1,2,0:0:0:0:
64,192,229026,1,0,0:0:0:0:
192,192,229026,1,8,0:0:0:0:
448,192,229265,1,0,0:0:0:0:
320,192,229265,1,8,0:0:0:0:
192,192,229345,1,8,0:0:0:0:
64,192,229345,1,0,0:0:0:0:
192,192,229505,1,8,0:0:0:0:
64,192,229505,1,0,0:0:0:0:
448,192,229664,1,0,0:0:0:0:
320,192,229664,1,8,0:0:0:0:
448,192,229824,1,8,0:0:0:0:
320,192,229824,1,0,0:0:0:0:
320,192,229983,1,4,0:0:0:0:
192,192,229983,1,0,0:0:0:0:
64,192,229983,128,2,230622:0:0:0:0:
320,192,230622,1,0,0:0:0:0:
448,192,230622,1,2,0:0:0:0:
320,192,231260,1,4,0:0:0:0:
64,192,231260,1,0,0:0:0:0:
448,192,231260,1,2,0:1:0:0:
192,192,231420,1,0,0:0:0:0:
448,192,231579,1,2,0:0:0:0:
320,192,231579,1,0,0:0:0:0:
64,192,231579,128,8,231898:0:0:0:0:
192,192,231898,1,0,0:0:0:0:
448,192,231898,128,2,232217:0:0:0:0:
64,192,232217,1,2,0:0:0:0:
192,192,232217,1,0,0:0:0:0:
320,192,232217,1,8,0:0:0:0:
448,192,232377,1,0,0:0:0:0:
192,192,232537,1,2,0:0:0:0:
64,192,232537,128,0,232856:0:0:0:0:
192,192,232856,1,2,0:0:0:0:
448,192,232856,1,0,0:0:0:0:
320,192,232856,1,8,0:0:0:0:
64,192,233175,1,4,3:0:0:0:
192,192,233175,1,2,0:0:0:0:
448,192,233175,1,0,0:0:0:0:
64,192,233494,1,8,0:0:0:0:
192,192,233494,1,2,0:0:0:0:
448,192,233494,1,0,0:0:0:0:
320,192,233813,1,4,0:0:0:0:
448,192,233813,1,0,0:0:0:0:
64,192,233813,1,2,0:1:0:0:
192,192,233973,1,0,0:0:0:0:
64,192,234132,1,2,0:0:0:0:
320,192,234132,1,0,0:0:0:0:
448,192,234132,128,8,234451:0:0:0:0:
192,192,234451,1,0,0:0:0:0:
64,192,234451,128,2,234771:0:0:0:0:
448,192,234771,1,2,0:0:0:0:
320,192,234771,1,0,0:0:0:0:
192,192,234771,1,8,0:0:0:0:
64,192,234930,1,0,0:0:0:0:
192,192,235090,1,2,0:0:0:0:
320,192,235090,128,0,235409:0:0:0:0:
448,192,235409,1,2,0:0:0:0:
64,192,235409,1,0,0:0:0:0:
192,192,235409,1,8,0:0:0:0:
448,192,235568,1,0,0:0:0:0:
320,192,235728,1,2,0:0:0:0:
64,192,235728,1,0,0:0:0:0:
64,192,235888,1,0,0:0:0:0:
448,192,236047,1,8,0:0:0:0:
320,192,236047,1,2,0:0:0:0:
192,192,236047,1,0,0:0:0:0:
320,192,236207,1,0,0:0:0:0:
64,192,236366,1,2,0:1:0:0:
448,192,236366,1,0,0:0:0:0:
192,192,236366,1,4,0:0:0:0:
320,192,236526,1,0,0:0:0:0:
448,192,236685,128,8,237005:0:0:0:0:
192,192,236685,1,0,0:0:0:0:
64,192,236685,1,2,0:0:0:0:
192,192,237005,128,2,237324:0:0:0:0:
320,192,237005,1,0,0:0:0:0:
64,192,237324,1,8,0:0:0:0:
320,192,237324,1,0,0:0:0:0:
448,192,237324,1,2,0:0:0:0:
192,192,237483,1,0,0:0:0:0:
448,192,237643,128,0,237962:0:0:0:0:
320,192,237643,1,2,0:0:0:0:
192,192,237962,1,8,0:0:0:0:
64,192,237962,1,0,0:0:0:0:
320,192,237962,1,2,0:0:0:0:
192,192,238281,1,0,0:0:0:0:
320,192,238281,1,2,0:0:0:0:
448,192,238281,1,4,3:0:0:0:
192,192,238600,1,0,0:0:0:0:
320,192,238600,1,2,0:0:0:0:
448,192,238600,1,8,0:0:0:0:
192,192,238920,1,4,0:0:0:0:
320,192,238920,1,0,0:0:0:0:
64,192,238920,1,2,0:1:0:0:
320,192,239079,1,8,0:0:0:0:
448,192,239079,1,0,0:0:0:0:
192,192,239239,1,8,0:0:0:0:
64,192,239239,1,0,0:0:0:0:
448,192,239398,1,2,0:0:0:0:
320,192,239398,1,0,0:0:0:0:
192,192,239478,1,0,0:0:0:0:
320,192,239558,1,0,0:0:0:0:
448,192,239558,1,8,3:0:0:0:
64,192,239558,1,4,3:0:0:0:
448,192,239902,1,8,3:0:0:0:
64,192,239902,1,4,3:0:0:0:
192,192,239902,1,0,0:0:0:0:
192,192,240089,1,0,0:0:0:0:
64,192,240089,1,4,3:0:0:0:
448,192,240089,1,8,3:0:0:0:
