osu file format v14

[General]
AudioFilename: audio.mp3
AudioLeadIn: 0
PreviewTime: 64155
Countdown: 0
SampleSet: Drum
StackLeniency: 0.7
Mode: 0
LetterboxInBreaks: 0
WidescreenStoryboard: 0

[Editor]
Bookmarks: 10615,20828,30722,33614,36157,43816,54028,64234,84659
DistanceSpacing: 1
BeatDivisor: 4
GridSize: 4
TimelineZoom: 1.7

[Metadata]
Title:EXiSTENCE (TV Size)
TitleUnicode:EXiSTENCE (TV Size)
Artist:SiM
ArtistUnicode:SiM
Creator:Seto Kousuke
Version:Normal
Source:神撃のバハムート GENESIS
Tags:shingeki no bahamut sin reggae punk rock metal hardcore screamo opening japanese anime silence iz mine
BeatmapID:3899015
BeatmapSetID:1892275

[Difficulty]
HPDrainRate:2
CircleSize:3
OverallDifficulty:5
ApproachRate:5
SliderMultiplier:1.1
SliderTickRate:1

[Events]
//Background and Video events
0,0,"bg.png",0,0
//Break Periods
//Storyboard Layer 0 (Background)
//Storyboard Layer 1 (Fail)
//Storyboard Layer 2 (Pass)
//Storyboard Layer 3 (Foreground)
//Storyboard Layer 4 (Overlay)
//Storyboard Sound Samples

[TimingPoints]
403,319.148936170213,4,3,10,75,1,0
8062,-100,4,3,10,66,0,0
9339,-100,4,3,10,70,0,0
10296,-100,4,3,10,80,0,0
31041,321.71581769437,4,3,10,60,1,0
33614,317.880794701987,4,3,10,60,1,0
36157,319.148936170213,4,3,10,70,1,0
38710,-100,4,3,10,65,0,0
41263,-100,4,3,10,70,0,0
45093,333.333333333333,4,3,10,70,1,0
45343,319.148936170213,4,3,10,70,1,8
45422,319.148936170213,4,3,10,70,1,8
46379,319.148936170213,4,3,10,70,1,0
48294,314.13612565445,4,3,10,70,1,8
48922,319.148936170213,4,3,10,70,1,0
54028,-100,4,3,10,65,0,0
62965,317.460317460317,4,3,10,70,1,0
64234,319.148936170213,4,3,10,80,1,0
64234,-100,4,3,10,80,0,1
84659,-100,4,3,10,80,0,0

[Colours]
Combo1 : 185,104,121
Combo2 : 129,26,48
Combo3 : 99,18,63
Combo4 : 234,172,121

[HitObjects]
107,76,403,6,0,P|134:122|101:174,1,110,8|0,1:2|0:2,0:0:0:0:
61,192,881,1,8,1:2:0:0:
61,192,1041,1,0,0:0:0:0:
59,301,1360,1,8,1:2:0:0:
158,347,1679,6,0,B|219:367|219:367|308:360,1,110,8|0,1:2|0:0,0:0:0:0:
309,331,2158,1,8,1:2:0:0:
309,331,2317,1,0,0:0:0:0:
414,364,2637,1,8,1:2:0:0:
426,254,2956,6,0,L|425:131,1,110,8|0,1:2|0:0,0:0:0:0:
454,97,3434,1,8,1:2:0:0:
454,97,3594,1,0,0:0:0:0:
357,43,3913,1,8,1:2:0:0:
254,81,4232,2,0,P|180:93|81:61,2,165,12|12|0,1:2|1:2|1:2,0:0:0:0:
357,43,5509,6,0,L|350:154,1,110,8|0,1:2|0:0,0:0:0:0:
398,190,5988,1,8,1:2:0:0:
398,190,6147,1,0,0:0:0:0:
389,299,6466,1,8,1:2:0:0:
288,344,6785,6,0,B|227:370|226:324|172:345,1,110,8|0,1:2|0:0,0:0:0:0:
141,312,7264,1,8,1:2:0:0:
141,312,7424,1,0,0:0:0:0:
112,205,7743,1,8,1:2:0:0:
256,192,8062,12,0,9977,3:0:0:0:
106,107,10615,6,0,P|73:108|54:125,1,55,6|2,3:2|0:2,0:0:0:0:
60,177,10934,2,0,B|89:179|114:191|114:191|141:180|176:185,1,110,10|0,0:2|3:2,0:0:0:0:
260,121,11573,2,0,P|294:135|311:151,1,55,10|2,0:2|0:2,0:0:0:0:
333,195,11892,1,2,3:2:0:0:
429,141,12211,2,0,L|433:29,2,110,8|0|8,0:2|3:0|0:2,0:0:0:0:
466,244,13168,6,0,L|467:315,1,55,2|2,3:2|0:2,0:0:0:0:
487,350,13488,2,0,B|449:344|430:332|430:332|399:347|358:334,1,110,10|0,0:2|0:0,0:0:0:0:
289,271,14126,1,10,0:2:0:0:
289,271,14285,1,2,0:2:0:0:
289,271,14445,6,0,P|235:299|160:293,1,110,2|8,0:2|0:2,0:0:0:0:
135,279,14924,1,0,0:0:0:0:
135,279,15083,2,0,P|137:234|128:204,1,55
97,185,15403,1,8,0:2:0:0:
159,94,15722,5,6,3:2:0:0:
159,94,15881,1,2,0:2:0:0:
159,94,16041,2,0,P|225:98|292:88,1,110,10|0,0:2|3:0,0:0:0:0:
366,143,16679,2,0,P|383:113|389:79,1,55,10|2,0:2|0:2,0:0:0:0:
380,38,16998,1,2,3:2:0:0:
489,50,17317,2,0,P|494:115|484:185,2,110,8|0|8,0:2|3:0|0:2,0:0:0:0:
379,37,18275,6,0,L|297:42,1,55,2|2,3:2|0:2,0:0:0:0:
284,79,18594,2,0,L|153:74,1,110,10|0,0:2|0:0,0:0:0:0:
71,34,19232,1,10,0:2:0:0:
71,34,19392,1,2,0:2:0:0:
71,34,19551,5,10,0:2:0:0:
40,196,20030,2,0,P|18:232|13:268,2,55,0|0|2,0:0|1:2|3:0,0:0:0:0:
138,244,20668,1,0,3:0:0:0:
138,244,20828,6,0,B|232:195|268:284|357:238,1,220,4|0,0:2|1:0,0:0:0:0:
459,294,21785,1,0,0:0:0:0:
459,294,21945,1,0,0:0:0:0:
459,294,22105,6,0,B|508:200|419:164|465:75,1,220,4|0,0:0|1:2,0:0:0:0:
499,40,22903,2,0,B|460:53|460:53|363:30,1,110,0|0,0:0|1:0,0:0:0:0:
295,88,23541,2,0,P|304:116|301:155,2,55
203,27,24179,2,0,P|170:21|136:33,2,55
182,138,24817,1,2,0:2:0:0:
182,138,24977,2,0,L|181:278,1,110,2|0,0:2|1:0,0:0:0:0:
157,297,25456,1,2,0:2:0:0:
317,334,25934,6,0,P|375:248|489:286,1,220,4|0,0:2|1:0,0:0:0:0:
427,372,26892,1,0,0:0:0:0:
427,372,27051,1,0,0:0:0:0:
427,372,27211,2,0,L|339:168,1,220,4|0,0:0|1:2,0:0:0:0:
361,119,28009,2,0,P|327:59|265:52,1,110,0|0,0:0|1:0,0:0:0:0:
180,47,28647,6,0,P|153:30|119:21,2,55
189,101,29126,2,0,P|181:158|183:223,1,110,0|0,1:0|0:0,0:0:0:0:
73,227,29764,2,0,P|126:240|135:353,2,165,2|2|4,1:2|1:2|1:2,0:0:0:0:
256,192,31041,12,0,33614,1:0:0:0:
254,193,35839,5,4,1:2:0:0:
303,96,36157,2,0,P|251:82|199:98,1,110,4|4,3:0|0:0,0:0:0:0:
144,89,36635,1,0,1:0:0:0:
144,89,36795,1,4,0:0:0:0:
47,36,37114,1,4,0:0:0:0:
23,143,37433,6,0,L|27:264,1,110,4|4,3:0|0:0,0:0:0:0:
63,293,37912,1,0,1:0:0:0:
63,293,38071,1,4,0:0:0:0:
155,233,38391,1,4,0:0:0:0:
231,312,38710,6,0,P|282:330|360:294,1,110,2|0,0:0|0:0,0:0:0:0:
402,230,39348,2,0,P|420:179|384:101,1,110,2|0,0:0|0:0,0:0:0:0:
334,43,39986,2,0,P|283:25|205:61,1,110,2|0,0:0|0:0,0:0:0:0:
159,129,40625,6,0,B|163:162|163:162|141:180,2,55,2|2|2,0:0|0:0|0:0,0:0:0:0:
51,153,41263,6,0,L|67:281,1,110,4|4,3:0|0:0,0:0:0:0:
32,306,41742,1,0,1:0:0:0:
32,306,41901,1,4,0:0:0:0:
127,360,42220,1,4,0:0:0:0:
206,283,42539,2,0,B|268:281|268:281|288:330,1,110,4|4,3:0|0:0,0:0:0:0:
299,378,43018,1,0,1:0:0:0:
299,378,43178,1,4,0:0:0:0:
407,361,43497,1,4,0:0:0:0:
399,251,43816,6,0,L|390:113,1,110,4|4,3:0|0:0,0:0:0:0:
415,91,44295,1,0,1:0:0:0:
415,91,44454,2,0,P|360:111|293:83,1,110,4|4,0:0|0:0,0:0:0:0:
226,36,45093,5,4,3:0:0:0:
126,93,45422,1,4,0:0:0:0:
126,93,45581,1,0,1:0:0:0:
126,93,45741,2,0,P|141:154|115:214,1,110,4|4,0:0|0:0,0:0:0:0:
31,252,46379,1,4,3:0:0:0:
121,314,46698,2,0,L|122:369,2,55,4|0|4,0:0|1:0|0:0,0:0:0:0:
220,267,47336,1,4,0:0:0:0:
299,342,47655,6,0,P|368:327|481:360,1,165,4|0,0:0|0:0,0:0:0:0:
505,379,48294,2,0,P|472:286|503:201,1,165,4|0,0:0|0:0,0:0:0:0:
492,170,48922,5,4,3:0:0:0:
374,54,49400,1,0,1:0:0:0:
374,54,49560,2,0,P|306:68|244:46,1,110,4|4,0:0|0:0,0:0:0:0:
166,17,50198,5,4,3:0:0:0:
61,145,50677,1,0,1:0:0:0:
61,145,50836,2,0,L|62:275,1,110,4|4,0:0|0:0,0:0:0:0:
132,339,51475,1,4,3:0:0:0:
240,214,51954,1,0,1:0:0:0:
240,214,52113,2,0,L|239:84,1,110,4|4,0:0|0:0,0:0:0:0:
324,34,52751,6,0,P|387:16|451:86,1,165,4|0,0:0|0:0,0:0:0:0:
439,135,53390,1,0,1:0:0:0:
496,228,53709,1,0,1:0:0:0:
447,326,54028,6,0,P|389:319|271:338,1,165,6|0,0:0|0:0,0:0:0:0:
239,300,54666,2,0,B|246:242|220:212,2,82.5,2|0|4,0:0|0:0|0:0,0:0:0:0:
201,340,55304,1,0,0:0:0:0:
49,348,55783,1,0,0:0:0:0:
49,348,55943,2,0,L|56:281,1,55,0|4,1:0|0:0,0:0:0:0:
41,128,56581,5,6,0:0:0:0:
109,41,56900,1,2,0:0:0:0:
109,41,57060,1,0,0:0:0:0:
109,41,57219,2,0,P|170:54|241:30,1,110,2|0,0:0|0:0,0:0:0:0:
321,76,57858,2,0,P|314:142|401:209,1,165,4|0,0:0|0:0,0:0:0:0:
435,212,58496,2,0,L|503:213,2,55,0|4|0,1:0|0:0|1:0,0:0:0:0:
414,320,59134,6,0,P|321:326|202:308,1,165,6|0,0:0|0:0,0:0:0:0:
199,295,59773,1,2,0:0:0:0:
101,334,60092,1,0,0:0:0:0:
101,334,60251,1,2,0:0:0:0:
101,334,60411,2,0,L|77:149,1,165,4|0,0:0|0:0,0:0:0:0:
39,141,61049,1,0,1:0:0:0:
39,141,61209,1,4,0:0:0:0:
197,94,61687,6,0,L|314:93,1,110,6|2,0:0|0:0,0:0:0:0:
397,30,62326,1,6,0:0:0:0:
460,117,62645,1,0,0:0:0:0:
383,196,62965,2,0,P|346:228|338:285,2,82.5,2|2|2,0:0|0:0|0:0,0:0:0:0:
436,207,63599,1,2,0:0:0:0:
268,347,64234,6,0,P|183:359|128:330,1,110,6|0,0:2|0:0,0:0:0:0:
112,328,64712,1,2,0:2:0:0:
112,328,64872,2,0,P|102:265|124:202,1,110,8|0,0:2|0:0,0:0:0:0:
192,144,65510,1,2,0:2:0:0:
147,49,65829,1,0,0:0:0:0:
147,49,65989,2,0,P|233:55|328:46,1,165,2|2,0:2|0:2,0:0:0:0:
414,10,66787,6,0,L|445:134,1,110,6|0,0:2|0:0,0:0:0:0:
480,153,67265,1,2,0:2:0:0:
480,153,67425,2,0,L|467:276,1,110,8|0,0:2|0:0,0:0:0:0:
361,287,68063,2,0,P|307:266|187:289,2,165,2|2|2,0:2|0:2|0:2,0:0:0:0:
436,206,69340,6,0,P|442:149|406:106,1,110,0|2,0:0|0:2,0:0:0:0:
361,86,69819,2,0,B|289:104|289:104|233:89,1,110,0|2,0:0|0:2,0:0:0:0:
203,74,70297,2,0,L|191:209,1,110,2|2,0:2|0:2,0:0:0:0:
199,238,70776,2,0,P|133:204|75:236,1,110,2|2,0:2|0:2,0:0:0:0:
54,239,71255,1,8,0:2:0:0:
64,348,71574,1,0,0:0:0:0:
172,363,71893,6,0,L|308:365,1,110,4|2,0:2|0:2,0:0:0:0:
314,320,72372,2,0,L|450:322,1,110,2|2,0:2|0:2,0:0:0:0:
474,343,72851,2,0,L|479:233,1,110,2|2,0:2|0:2,0:0:0:0:
441,193,73329,2,0,L|446:83,1,110
478,38,73808,2,0,L|415:16,1,55,0|0,1:0|1:0,0:0:0:0:
371,11,74127,1,0,1:0:0:0:
315,106,74446,6,0,P|238:107|212:78,1,110,4|8,0:2|0:2,0:0:0:0:
194,36,74925,2,0,P|146:15|83:37,1,110,2|2,0:2|0:2,0:0:0:0:
50,65,75404,1,10,0:2:0:0:
102,161,75723,2,0,P|111:220|84:277,1,110,2|10,0:2|0:2,0:0:0:0:
20,340,76361,1,2,0:2:0:0:
127,364,76680,1,10,0:2:0:0:
199,281,76999,6,0,P|263:270|321:297,1,110,4|8,0:2|0:2,0:0:0:0:
343,323,77478,2,0,P|406:328|443:285,1,110,2|2,0:2|0:2,0:0:0:0:
446,243,77957,1,10,0:2:0:0:
352,171,78276,2,0,L|242:168,2,110,2|10|2,0:2|0:2|0:2,0:0:0:0:
434,97,79234,1,10,0:2:0:0:
342,35,79553,6,0,L|232:32,1,110,4|8,0:2|0:2,0:0:0:0:
178,20,80031,2,0,P|197:89|176:130,1,110,2|2,0:2|0:2,0:0:0:0:
137,152,80510,1,10,0:2:0:0:
52,81,80829,1,2,0:2:0:0:
8,175,81148,1,8,0:2:0:0:
89,248,81468,2,0,L|215:249,1,110,2|8,0:2|0:2,0:0:0:0:
284,179,82106,5,2,0:2:0:0:
344,270,82425,1,8,0:2:0:0:
439,215,82744,1,0,1:0:0:0:
439,215,82904,1,0,1:0:0:0:
439,215,83063,2,0,L|431:142,2,55,0|0|4,1:0|1:0|3:2,0:0:0:0:
251,99,84021,1,4,3:2:0:0:
54,198,84659,6,0,P|59:163|81:151,1,55,6|2,3:2|0:2,0:0:0:0:
129,160,84978,2,0,P|141:229|131:300,1,110,10|0,0:2|3:2,0:0:0:0:
58,343,85616,1,10,0:2:0:0:
58,343,85776,1,2,0:2:0:0:
58,343,85936,1,2,3:2:0:0:
165,364,86255,2,0,L|313:361,2,110,8|0|8,0:2|3:0|0:2,0:0:0:0:
58,343,87212,6,0,L|50:269,1,55,0|0,1:1|1:0,0:0:0:0:
70,236,87531,1,0,1:0:0:0:
17,139,87851,1,4,0:0:0:0:
85,53,88170,1,4,0:0:0:0:
85,53,88329,1,4,0:0:0:0:
