osu file format v14

[General]
AudioFilename: audio.mp3
AudioLeadIn: 0
PreviewTime: 64155
Countdown: 0
SampleSet: Drum
StackLeniency: 0.7
Mode: 0
LetterboxInBreaks: 0
WidescreenStoryboard: 1

[Editor]
Bookmarks: 10615,20828,30722,33614,36157,43816,54028,64234,74446,84659
DistanceSpacing: 1.1
BeatDivisor: 4
GridSize: 4
TimelineZoom: 2.699999

[Metadata]
Title:EXiSTENCE (TV Size)
TitleUnicode:EXiSTENCE (TV Size)
Artist:SiM
ArtistUnicode:SiM
Creator:Seto Kousuke
Version:Hard
Source:神撃のバハムート GENESIS
Tags:shingeki no bahamut sin reggae punk rock metal hardcore screamo opening japanese anime silence iz mine
BeatmapID:3899017
BeatmapSetID:1892275

[Difficulty]
HPDrainRate:3
CircleSize:4
OverallDifficulty:7
ApproachRate:8
SliderMultiplier:1.6
SliderTickRate:1

[Events]
//Background and Video events
0,0,"bg.png",0,0
//Break Periods
//Storyboard Layer 0 (Background)
//Storyboard Layer 1 (Fail)
//Storyboard Layer 2 (Pass)
//Storyboard Layer 3 (Foreground)
//Storyboard Layer 4 (Overlay)
//Storyboard Sound Samples

[TimingPoints]
403,319.148936170213,4,3,10,75,1,0
8062,-100,4,3,10,66,0,0
9339,-100,4,3,10,70,0,0
10296,-100,4,3,10,80,0,0
20828,-117.647058823529,4,3,10,80,0,0
31041,321.71581769437,4,3,10,60,1,0
33614,317.880794701987,4,3,10,60,1,0
36157,319.148936170213,4,3,10,70,1,0
38710,-133.333333333333,4,3,10,65,0,0
41263,-100,4,3,10,70,0,0
45093,333.333333333333,4,3,10,70,1,0
45343,319.148936170213,4,3,10,70,1,8
45422,319.148936170213,4,3,10,70,1,8
46379,319.148936170213,4,3,10,70,1,0
48294,314.13612565445,4,3,10,70,1,8
48922,319.148936170213,4,3,10,70,1,0
54028,-117.647058823529,4,3,10,65,0,0
62965,317.460317460317,4,3,10,70,1,0
64234,319.148936170213,4,3,10,80,1,0
64234,-100,4,3,10,80,0,1
84659,-100,4,3,10,80,0,0

[Colours]
Combo1 : 185,104,121
Combo2 : 129,26,48
Combo3 : 99,18,63
Combo4 : 234,172,121

[HitObjects]
154,203,403,6,0,P|113:211|68:229,2,80,8|0|0,1:2|0:2|0:2,0:0:0:0:
178,118,881,2,0,P|143:95|99:76,2,80,8|0|0,1:2|0:0|0:0,0:0:0:0:
264,100,1360,1,8,1:2:0:0:
264,100,1679,6,0,P|255:59|237:14,2,80,8|0|0,1:2|0:0|0:0,0:0:0:0:
348,124,2157,2,0,P|370:89|389:45,2,80,8|0|0,1:2|0:0|0:0,0:0:0:0:
366,209,2636,1,8,1:2:0:0:
366,209,2956,6,0,P|406:200|451:182,2,80,8|0|0,1:2|0:0|0:0,0:0:0:0:
342,293,3434,2,0,P|376:315|421:334,2,80,8|0|0,1:2|0:0|0:0,0:0:0:0:
257,311,3913,1,8,1:2:0:0:
257,311,4232,6,0,L|156:312,1,80,12|0,1:2|0:0,0:0:0:0:
64,232,4551,1,0,0:0:0:0:
64,232,4711,2,0,L|144:230,1,80,12|0,1:2|0:0,0:0:0:0:
215,178,5030,1,0,0:0:0:0:
293,218,5190,1,0,1:2:0:0:
293,218,5270,1,0,3:0:0:0:
293,218,5349,1,0,3:0:0:0:
215,178,5509,6,0,P|181:153|151:121,2,80,8|0|0,1:2|0:0|0:0,0:0:0:0:
281,119,5988,2,0,P|274:78|276:34,2,80,8|0|0,1:2|0:0|0:0,0:0:0:0:
365,143,6466,1,8,1:2:0:0:
365,143,6785,6,0,P|389:109|421:79,2,80,8|0|0,1:2|0:0|0:0,0:0:0:0:
424,209,7264,2,0,P|464:202|508:204,2,80,8|0|0,1:2|0:0|0:0,0:0:0:0:
400,293,7742,1,8,1:2:0:0:
325,265,7903,1,0,3:0:0:0:
325,265,7982,1,0,3:0:0:0:
325,265,8062,6,0,L|220:255,1,80,0|0,1:0|3:0,0:0:0:0:
278,175,8381,2,0,L|173:165,1,80,0|0,3:0|3:0,0:0:0:0:
231,85,8700,2,0,L|126:75,1,80,0|0,3:0|3:0,0:0:0:0:
71,38,9020,1,0,3:0:0:0:
46,122,9179,1,0,3:0:0:0:
21,206,9339,2,0,L|14:268,3,40,2|0|0|0,3:2|3:0|3:0|3:0,0:0:0:0:
42,281,9658,2,0,L|35:343,3,40,2|0|0|0,3:2|3:0|3:0|3:0,0:0:0:0:
14,358,9977,1,2,3:2:0:0:
257,358,10296,5,8,3:0:0:0:
257,358,10615,6,0,P|254:305|209:266,1,80,6|2,3:2|0:2,0:0:0:0:
308,229,10934,2,0,P|236:192|166:233,1,160,10|0,0:2|3:2,0:0:0:0:
333,306,11573,1,10,0:2:0:0:
399,249,11732,1,2,0:2:0:0:
372,164,11892,1,2,3:2:0:0:
486,310,12211,5,8,0:2:0:0:
486,310,12530,1,0,3:0:0:0:
486,310,12849,1,8,0:2:0:0:
372,164,13168,6,0,P|320:153|270:186,1,80,2|2,3:2|0:2,0:0:0:0:
238,95,13487,2,0,P|207:169|254:236,1,160,10|0,0:2|0:0,0:0:0:0:
340,82,14126,1,10,0:2:0:0:
282,15,14285,1,2,0:2:0:0:
241,98,14445,2,0,B|197:109|197:109|160:88|104:97,1,120,2|0,0:2|0:0,0:0:0:0:
125,95,14764,6,0,L|134:191,1,80,8|0,0:2|0:0,0:0:0:0:
52,193,15083,2,0,L|44:113,1,80
125,95,15403,2,0,L|134:191,1,80,8|0,0:2|0:0,0:0:0:0:
190,239,15722,6,0,P|147:263|94:249,1,80,6|2,3:2|0:2,0:0:0:0:
61,330,16041,2,0,P|21:263|52:193,1,160,10|0,0:2|3:0,0:0:0:0:
269,188,16679,1,10,0:2:0:0:
276,275,16838,1,2,0:2:0:0:
190,239,16998,1,2,3:2:0:0:
372,233,17317,5,8,0:2:0:0:
372,233,17636,1,0,3:0:0:0:
372,233,17955,1,8,0:2:0:0:
190,239,18275,6,0,L|102:238,1,80,2|2,3:2|0:2,0:0:0:0:
37,187,18594,2,0,B|70:157|70:157|188:158,1,160,10|0,0:2|0:0,0:0:0:0:
352,102,19232,1,10,0:2:0:0:
279,147,19392,1,2,0:2:0:0:
279,147,19472,1,0,0:0:0:0:
279,147,19551,1,10,0:2:0:0:
423,49,20030,6,0,L|427:0,2,40,0|0|0,0:0|0:0|1:2,0:0:0:0:
474,120,20349,1,2,3:0:0:0:
474,120,20668,1,0,3:0:0:0:
452,205,20828,6,0,L|465:292,1,68.0000012969971,4|0,0:2|0:0,0:0:0:0:
389,323,21147,2,0,L|365:164,2,136.000002593994,0|0|0,0:0|1:0|0:0,0:0:0:0:
389,323,22105,2,0,P|314:305|242:330,1,136.000002593994,4|0,0:0|0:0,0:0:0:0:
177,329,22583,1,0,0:0:0:0:
177,329,22663,1,0,0:0:0:0:
177,329,22743,2,0,P|131:356|101:246,1,204.000003890991,0|0,1:2|1:0,0:0:0:0:
36,182,23381,6,0,P|66:163|124:166,1,68.0000012969971
93,70,23700,1,0,0:0:0:0:
93,70,23860,1,0,0:0:0:0:
172,108,24020,2,0,P|184:141|177:191,2,68.0000012969971,0|0|0,1:0|0:0|0:0,0:0:0:0:
205,27,24498,1,0,0:0:0:0:
383,17,24817,1,2,0:2:0:0:
383,17,24977,2,0,P|366:89|399:167,1,136.000002593994,2|0,0:2|1:0,0:0:0:0:
459,194,25456,2,0,P|480:257|423:325,1,136.000002593994,2|0,0:2|0:0,0:0:0:0:
367,351,25934,6,0,L|277:329,1,68.0000012969971,4|0,0:2|0:0,0:0:0:0:
211,332,26254,2,0,L|75:365,2,136.000002593994,0|0|0,0:0|1:0|0:0,0:0:0:0:
191,193,27211,2,0,L|55:160,1,136.000002593994,4|0,0:0|0:0,0:0:0:0:
14,83,27690,1,0,0:0:0:0:
76,20,27849,1,0,1:2:0:0:
76,20,28009,6,0,L|212:28,1,136.000002593994,0|0,0:0|1:0,0:0:0:0:
291,66,28488,1,0,0:0:0:0:
368,24,28647,2,0,L|433:7,2,68.0000012969971
291,66,29126,2,0,P|288:113|294:160,1,68.0000012969971,0|0,1:0|0:0,0:0:0:0:
358,189,29445,2,0,P|361:236|355:283,1,68.0000012969971
306,328,29764,5,2,1:2:0:0:
306,328,29924,1,0,0:0:0:0:
306,328,30083,1,0,0:0:0:0:
222,297,30243,2,0,P|168:285|137:285,1,68.0000012969971,2|0,1:2|0:0,0:0:0:0:
86,340,30562,1,0,0:0:0:0:
13,288,30722,1,4,1:2:0:0:
256,192,30881,12,0,33614,1:0:0:0:
46,110,35839,5,4,1:2:0:0:
46,301,36157,2,0,P|126:313|208:318,1,160,4|4,3:0|0:0,0:0:0:0:
266,234,36635,1,0,1:0:0:0:
266,234,36795,2,0,L|259:144,1,80,4|0,0:0|0:0,0:0:0:0:
155,152,37114,2,0,L|148:231,1,80,4|0,0:0|0:0,0:0:0:0:
206,317,37433,6,0,P|273:334|382:319,1,160,4|4,3:0|0:0,0:0:0:0:
407,253,37912,1,0,1:0:0:0:
407,253,38071,2,0,L|400:170,1,80,4|0,0:0|0:0,0:0:0:0:
403,76,38391,1,4,0:0:0:0:
310,38,38550,1,0,0:0:0:0:
310,38,38710,6,0,L|179:43,1,120.000004577637,2|2,0:0|0:0,0:0:0:0:
12,131,39348,2,0,L|132:127,1,120.000004577637,2|0,0:0|0:0,0:0:0:0:
310,38,39986,2,0,L|179:43,1,120.000004577637,0|2,0:0|0:0,0:0:0:0:
12,131,40625,2,0,L|65:129,4,30.0000011444092,2|0|2|0|2,0:0|0:0|0:0|0:0|0:0,0:0:0:0:
12,131,41263,6,0,P|22:184|-2:318,1,160,4|4,3:0|0:0,0:0:0:0:
91,319,41742,1,0,1:0:0:0:
91,319,41901,2,0,P|139:317|178:323,1,80,4|0,0:0|0:0,0:0:0:0:
345,318,42220,2,0,P|305:316|266:321,1,80,4|0,0:0|0:0,0:0:0:0:
214,239,42539,6,0,L|178:70,1,160,4|4,3:0|0:0,0:0:0:0:
266,46,43018,1,0,1:0:0:0:
266,46,43178,2,0,P|305:58|347:47,1,80,4|0,0:0|0:0,0:0:0:0:
431,13,43497,2,0,L|420:108,1,80,4|0,0:0|0:0,0:0:0:0:
474,172,43816,6,0,P|453:228|460:310,1,120,4|0,3:0|1:0,0:0:0:0:
453,287,44135,2,0,P|395:276|353:286,1,80,4|0,0:0|1:0,0:0:0:0:
314,347,44454,2,0,P|253:344|220:252,1,160,4|4,0:0|0:0,0:0:0:0:
270,182,44933,1,0,0:0:0:0:
201,120,45093,6,0,P|143:129|110:180,1,120,4|0,3:0|1:0,0:0:0:0:
101,221,45422,2,0,L|95:318,1,80,4|0,0:0|1:0,0:0:0:0:
176,354,45741,2,0,L|187:170,1,160,4|4,0:0|0:0,0:0:0:0:
119,125,46219,1,0,0:0:0:0:
194,65,46379,6,0,L|361:62,1,160,4|4,3:0|0:0,0:0:0:0:
440,103,46857,1,0,1:0:0:0:
373,172,47017,2,0,P|371:220|385:257,2,80,4|0|4,0:0|0:0|0:0,0:0:0:0:
440,103,47496,1,0,0:0:0:0:
353,62,47655,6,0,L|218:64,1,120,4|0,0:0|0:0,0:0:0:0:
233,64,47974,1,8,0:2:0:0:
253,174,48134,1,0,0:0:0:0:
253,174,48294,2,0,L|372:171,1,120,4|0,0:0|0:0,0:0:0:0:
372,171,48608,1,8,0:2:0:0:
440,103,48765,1,0,0:0:0:0:
468,193,48922,6,0,P|472:260|464:370,1,160,4|4,3:0|0:0,0:0:0:0:
373,356,49400,1,0,1:0:0:0:
312,281,49560,2,0,P|268:272|198:273,1,80,4|0,0:0|0:0,0:0:0:0:
201,361,49879,2,0,P|240:369|280:371,1,80,4|0,0:0|0:0,0:0:0:0:
312,281,50198,6,0,L|311:153,1,120,4|0,3:0|1:0,0:0:0:0:
311,161,50517,1,4,0:0:0:0:
379,92,50677,1,0,1:0:0:0:
299,38,50836,2,0,L|126:35,1,160,4|4,0:0|0:0,0:0:0:0:
31,194,51475,6,0,P|22:258|34:321,1,120,4|0,3:0|1:0,0:0:0:0:
31,312,51794,1,4,0:0:0:0:
116,355,51953,1,0,1:0:0:0:
166,273,52113,2,0,L|169:175,1,80,4|0,0:0|0:0,0:0:0:0:
101,124,52432,2,0,L|104:26,1,80,4|0,0:0|0:0,0:0:0:0:
198,30,52751,6,0,P|239:25|333:36,1,120,4|0,0:0|1:0,0:0:0:0:
317,31,53070,2,0,L|317:133,1,80,0|0,1:0|0:0,0:0:0:0:
379,185,53390,1,0,1:0:0:0:
263,338,53709,1,0,1:0:0:0:
107,182,54028,6,0,P|53:170|-1:179,2,102.000001945496,6|0|0,0:0|0:0|0:0,0:0:0:0:
164,260,54666,2,0,P|176:314|167:368,2,102.000001945496,2|2|2,0:0|0:0|0:0,0:0:0:0:
207,175,55304,2,0,P|247:169|353:181,1,136.000002593994,4|0,0:0|0:0,0:0:0:0:
434,216,55783,1,0,0:0:0:0:
498,145,55943,1,0,1:0:0:0:
434,216,56102,2,0,L|393:74,1,136.000002593994,4|0,0:0|0:0,0:0:0:0:
319,27,56581,6,0,P|280:37|216:19,2,102.000001945496,6|0|0,0:0|0:0|0:0,0:0:0:0:
316,125,57219,2,0,P|277:115|213:133,2,102.000001945496,2|2|2,0:0|0:0|0:0,0:0:0:0:
396,73,57858,1,4,0:0:0:0:
294,343,58336,2,0,L|249:341,2,34.0000006484985,0|0|0,0:0|3:0|1:0,0:0:0:0:
352,267,58656,1,4,0:0:0:0:
274,211,58815,1,0,1:0:0:0:
274,211,59134,6,0,P|216:208|162:214,2,102.000001945496,6|0|0,0:0|0:0|0:0,0:0:0:0:
343,277,59773,2,0,L|415:281,1,68.0000012969971,2|0,0:0|0:0,0:0:0:0:
425,186,60092,2,0,L|357:182,1,68.0000012969971,0|2,0:0|0:0,0:0:0:0:
274,211,60411,2,0,P|205:213|133:202,1,136.000002593994,4|0,0:0|0:0,0:0:0:0:
79,128,60890,1,0,0:0:0:0:
14,197,61049,2,0,L|21:282,1,68.0000012969971,0|4,1:0|0:0,0:0:0:0:
47,31,61687,5,6,0:0:0:0:
131,76,61847,1,0,0:0:0:0:
131,76,62007,2,0,L|220:77,1,68.0000012969971,2|0,0:0|0:0,0:0:0:0:
278,24,62326,2,0,P|332:22|380:-1,2,102.000001945496,6|2|2,0:0|0:0|0:0,0:0:0:0:
353,108,62965,2,0,P|384:147|385:234,2,120,2|2|2,0:0|0:0|0:0,0:0:0:0:
283,195,63599,1,2,0:0:0:0:
283,195,64234,6,0,P|214:200|106:182,1,160,6|0,0:2|0:0,0:0:0:0:
93,96,64712,1,2,0:2:0:0:
21,160,64872,1,8,0:2:0:0:
21,160,65031,2,0,P|25:223|18:326,1,160,2|0,0:2|0:0,0:0:0:0:
18,319,65430,1,0,0:0:0:0:
18,319,65510,6,0,B|101:360|98:304|174:331,1,160,2|0,0:2|0:0,0:0:0:0:
245,266,65989,1,2,0:2:0:0:
308,337,66148,1,8,0:2:0:0:
308,337,66308,2,0,P|348:331|392:337,1,80,2|2,0:2|0:2,0:0:0:0:
458,271,66627,1,0,0:0:0:0:
458,271,66787,6,0,L|440:98,1,160,6|0,0:2|0:0,0:0:0:0:
376,41,67265,1,2,0:2:0:0:
319,119,67425,2,0,P|250:156|219:95,1,160,8|0,0:2|0:0,0:0:0:0:
163,25,67904,1,0,0:0:0:0:
93,90,68063,5,2,0:2:0:0:
93,90,68223,2,0,L|112:186,1,80,2|0,0:2|0:0,0:0:0:0:
174,238,68542,1,2,0:2:0:0:
94,292,68702,1,8,0:2:0:0:
180,352,68861,1,2,0:2:0:0:
180,352,68941,1,0,0:0:0:0:
180,352,69021,2,0,L|261:350,1,80,2|2,0:2|0:2,0:0:0:0:
365,358,69340,6,0,P|337:303|419:313,1,160,0|2,0:0|0:2,0:0:0:0:
428,197,69819,2,0,P|351:186|273:229,1,160,0|2,0:0|0:2,0:0:0:0:
194,264,70297,2,0,P|204:207|210:154,1,80,2|0,0:2|0:0,0:0:0:0:
258,104,70616,1,2,0:2:0:0:
173,57,70776,2,0,L|87:64,2,80,2|0|2,0:2|0:0|0:2,0:0:0:0:
260,17,71255,2,0,P|314:16|338:114,1,160,8|0,0:2|0:0,0:0:0:0:
438,270,71893,6,0,P|377:243|281:262,1,160,4|2,0:2|0:2,0:0:0:0:
253,167,72372,2,0,P|204:210|211:314,1,160,2|2,0:2|0:2,0:0:0:0:
272,365,72851,2,0,P|193:340|121:358,1,160,2|2,0:2|0:2,0:0:0:0:
25,368,73329,2,0,P|45:329|35:212,1,160
13,123,73808,2,0,L|11:76,4,40,0|0|0|0|0,1:0|1:0|1:0|1:0|1:0,0:0:0:0:
13,123,74446,6,0,P|75:112|114:121,1,80,4|0,0:2|0:0,0:0:0:0:
120,22,74765,1,8,0:2:0:0:
120,22,74925,2,0,P|187:48|213:148,1,160,2|2,0:2|0:2,0:0:0:0:
286,193,75404,2,0,P|238:225|207:233,1,80,10|0,0:2|0:0,0:0:0:0:
237,325,75723,2,0,P|295:327|392:362,2,160,2|10|2,0:2|0:2|0:2,0:0:0:0:
48,360,76680,1,10,0:2:0:0:
48,360,76999,6,0,P|21:322|14:278,2,80,4|0|8,0:2|0:0|0:2,0:0:0:0:
144,365,77478,2,0,P|165:323|162:204,1,160,2|2,0:2|0:2,0:0:0:0:
261,216,77957,2,0,P|247:253|257:291,1,80,10|0,0:2|0:0,0:0:0:0:
353,293,78276,2,0,P|365:214|340:139,2,160,2|10|2,0:2|0:2|0:2,0:0:0:0:
172,360,79234,1,10,0:2:0:0:
172,360,79553,6,0,L|167:273,1,80,4|0,0:2|0:0,0:0:0:0:
239,216,79872,1,8,0:2:0:0:
239,216,80031,2,0,P|185:240|76:200,1,160,2|2,0:2|0:2,0:0:0:0:
21,147,80510,2,0,P|25:68|39:51,1,80,10|0,0:2|0:0,0:0:0:0:
98,9,80829,5,2,0:2:0:0:
98,9,80989,1,0,0:0:0:0:
160,81,81148,2,0,P|167:125|163:160,1,80,8|0,0:2|0:0,0:0:0:0:
259,159,81468,2,0,P|255:119|262:80,1,80,2|0,0:2|0:0,0:0:0:0:
358,82,81787,2,0,P|365:126|361:161,1,80,8|0,0:2|0:0,0:0:0:0:
308,241,82106,6,0,P|210:238|139:243,1,160,2|8,0:2|0:2,0:0:0:0:
35,86,82744,1,0,1:0:0:0:
35,86,82904,1,0,1:0:0:0:
29,181,83063,1,0,1:0:0:0:
29,181,83223,1,0,1:0:0:0:
24,276,83382,5,4,3:2:0:0:
408,272,84021,1,4,3:2:0:0:
230,32,84659,6,0,P|219:83|252:133,1,80,6|2,3:2|0:2,0:0:0:0:
171,175,84978,2,0,P|248:198|310:146,1,160,10|0,0:2|3:2,0:0:0:0:
143,87,85616,1,10,0:2:0:0:
80,147,85775,1,2,0:2:0:0:
99,232,85936,1,2,3:2:0:0:
231,115,86255,5,8,0:2:0:0:
231,115,86574,1,0,3:0:0:0:
231,115,86893,1,8,0:2:0:0:
367,225,87212,5,0,1:1:0:0:
369,313,87372,1,0,1:0:0:0:
449,347,87531,1,0,1:0:0:0:
456,266,87691,1,0,0:0:0:0:
456,266,87771,1,0,0:0:0:0:
456,266,87851,1,4,0:0:0:0:
283,272,88170,1,4,0:0:0:0:
283,272,88329,1,4,0:0:0:0:
