osu file format v14

[General]
AudioFilename: audio.mp3
AudioLeadIn: 0
PreviewTime: 56792
Countdown: 1
SampleSet: Normal
StackLeniency: 0.2
Mode: 0
LetterboxInBreaks: 0
WidescreenStoryboard: 0

[Editor]
DistanceSpacing: 1.5
BeatDivisor: 12
GridSize: 8
TimelineZoom: 1

[Metadata]
Title:Main Theme - e
TitleUnicode:Main Theme - e
Artist:SiIvagunner
ArtistUnicode:SiIvagunner
Creator:Izzz
Version:2.71828182845904523536028747135266249775724709369995
Source:
Tags:
BeatmapID:1429922
BeatmapSetID:676033

[Difficulty]
HPDrainRate:0
CircleSize:6.9
OverallDifficulty:8
ApproachRate:2.7
SliderMultiplier:1.4
SliderTickRate:1

[Events]
//Background and Video events
0,0,"letter-with-arms-and-legs-posing-isolated-on-white-3d-illustration-G0X479.jpg",0,0
//Break Periods
2,64332,77856
//Storyboard Layer 0 (Background)
//Storyboard Layer 1 (Fail)
//Storyboard Layer 2 (Pass)
//Storyboard Layer 3 (Foreground)
//Storyboard Layer 4 (Overlay)
//Storyboard Sound Samples

[TimingPoints]
560,504.201680672269,4,1,0,100,1,0
2576,538.116591928251,4,1,0,100,1,0
2576,-37,4,1,0,100,0,0
2710,-50,4,1,0,5,0,0
3652,467.53246753248,4,1,0,100,1,0
3652,-55.5555555555556,4,1,0,100,0,0
3885,-100,4,1,0,5,0,0
5522,500,4,1,0,100,1,0
5522,-55.5555555555556,4,1,0,100,0,0
5772,-55.5555555555556,4,1,0,5,0,0
7522,517.241379310345,4,1,0,100,1,0
7522,-41.6666666666667,4,1,0,100,0,0
7715,-100,4,1,0,5,0,0
9590,461.538461538462,4,1,0,100,1,0
9590,-111.111111111111,4,1,0,20,0,0
9820,-111.111111111111,4,1,0,5,0,0
11436,659.340659340659,4,1,0,100,1,0
11436,-74.0740740740741,4,1,0,50,0,0
11655,-74.0740740740741,4,1,0,5,0,0
14073,512.820512820513,4,1,0,100,1,0
14073,-20.9333333333333,4,1,0,100,0,0
14265,-20.9333333333333,4,1,0,5,0,0
16124,618.556701030928,4,1,0,100,1,0
16124,-71.4285714285714,4,1,0,100,0,0
16510,-71.4285714285714,4,1,0,5,0,0
18598,759.493670886076,4,1,0,100,1,0
18598,-18.5960019,4,1,0,100,0,0
18851,-18.5960019,4,1,0,5,0,0
20116,560.747663551402,4,1,0,100,1,0
20116,-166.666666666667,4,1,0,51,0,0
20536,-166.666666666667,4,1,0,5,0,0
22358,645.161290322581,4,1,0,100,1,0
22358,-37.037037037037,4,1,0,100,0,0
22788,-37.037037037037,4,1,0,5,0,0
24938,652.173913043478,4,1,0,100,1,0
24938,-111.111111111111,4,1,0,100,0,0
25264,-111.111111111111,4,1,0,5,0,0
27546,674.157303370787,4,1,0,100,1,0
27546,-71.4285714285714,4,1,0,100,0,0
27967,-147.058823529412,4,1,0,5,0,0
30242,588.235294117647,4,1,0,100,1,0
30242,-37.037037037037,4,1,0,100,0,0
30634,-37.037037037037,4,1,0,5,0,0
32594,594.059405940594,4,1,0,100,1,0
32594,-185.185185185185,4,1,0,100,0,0
33089,-185.185185185185,4,1,0,5,0,0
36158,6,4,1,0,100,1,0
36158,-0.1,4,1,0,100,0,0
36675,517.241379310345,4,1,0,65,1,0
37192,-1E+23,4,1,0,65,0,0
38226,518.134715025907,4,1,0,65,1,0
38226,-100,4,1,0,65,0,0
39002,-1E+23,4,1,0,65,0,0
40036,-0.2,4,1,0,100,0,0
40230,-185.185185185185,4,1,0,5,0,0
40294,-111.111111111111,4,1,0,65,0,0
41329,-1E+23,4,1,0,65,0,0
42371,-100,4,1,0,65,0,0
43018,-185.185185185185,4,1,0,5,0,0
43148,-100,4,1,0,65,0,0
43795,-185.185185185185,4,1,0,5,0,0
43925,-100,4,1,0,65,0,0
44184,-0.2,4,1,0,100,0,0
44400,-185.185185185185,4,1,0,5,0,0
44443,-100,4,1,0,65,0,0
47293,-1E+23,4,1,0,65,0,0
49106,-200,4,1,0,65,0,0
49581,-185.185185185185,4,1,0,5,0,0
49624,-90.9090909090909,4,1,0,65,0,0
50877,-54.6448087431694,4,1,0,65,0,0
51179,-200,4,1,0,65,0,0
51654,-185.185185185185,4,1,0,5,0,0
51697,-200,4,1,0,65,0,0
52733,-200,4,1,0,65,0,1
56878,-373.28,4,1,0,65,0,0
58174,-48.6884839631,4,1,0,65,0,0
58346,-48.6884839631,4,1,0,5,0,0
58433,-48.6884839631,4,1,0,65,0,0
58649,259.067357512953,4,1,0,65,1,0
58649,-36.8052999631947,4,1,0,65,0,0
60721,518.134715025907,4,1,0,65,1,0
61023,-373.28,4,1,0,65,0,0
62793,-48.6884839631,4,1,0,5,0,0
62879,-48.6884839631,4,1,0,65,0,0
63052,-48.6884839631,4,1,0,5,0,0
63095,-48.6884839631,4,1,0,65,0,0
63570,-48.6884839631,4,1,0,5,0,0
63613,-48.6884839631,4,1,0,65,0,0
64088,-48.6884839631,4,1,0,5,0,0
64132,-48.6884839631,4,1,0,65,0,0
64391,-48.6884839631,4,1,0,65,0,0
66464,-373.28,4,1,0,65,0,0
66939,-373.28,4,1,0,65,0,0
69314,-373.28,4,1,0,65,0,0
72422,-373.28,4,1,0,65,0,0
73459,-373.28,4,1,0,65,0,0
80194,-100,4,1,0,49,0,0
80713,-100,4,1,0,29,0,0
81706,-100,4,1,0,11,0,0

[HitObjects]
289,158,560,5,0,0:0:0:0:
298,251,686,1,0,0:0:0:0:
279,64,1064,1,0,0:0:0:0:
113,78,1568,5,0,0:0:0:0:
131,216,1736,2,0,P|155:208|178:193,1,46.6666666666667
206,75,2072,2,0,P|223:100|252:131,1,70
173,196,2576,6,0,L|212:55,1,126.126126126126
206,74,3652,6,0,L|172:197,1,125.999996154785
172,195,5522,6,0,L|206:74,1,125.999996154785
172,195,7522,6,0,L|206:74,1,125.999996154785
189,134,9590,6,0,L|206:74,1,62.9999980773926
172,195,11436,6,0,L|188:134,1,62.9999980773926
206,74,14073,6,0,L|135:322,1,250.796189007931
137,315,16124,6,0,L|170:197,1,122.5
136,315,18598,6,0,L|206:74,1,250.796189007931
205,74,20116,6,0,L|189:135,1,62.9999980773926
136,315,22358,6,0,L|206:74,1,250.796189007931
136,315,24938,6,0,L|152:254,1,62.9999980773926
137,315,27546,6,0,L|170:197,1,122.5
206,74,30242,6,0,L|136:315,1,250.796189007931
189,134,32594,6,0,L|206:74,1,62.9999980773926
231,187,36158,2,0,B|372:212|372:212|383:93|238:61|163:182|184:281|299:334|362:262,1,585.9000143042
231,187,36675,6,0,L|305:200,1,70
299,199,37192,2,0,L|286:196,1,14
372,212,37968,1,0,0:0:0:0:
298,128,38226,6,0,L|285:197,1,70
310,59,38743,1,0,0:0:0:0:
298,128,39002,2,0,L|301:114,1,14
285,196,39778,1,0,0:0:0:0:
285,196,40036,6,0,B|426:221|426:221|437:102|292:70|217:191|238:290|353:343|416:271,1,585.9000143042
426,220,40298,6,0,L|357:209,1,62.9999980773926
222,186,40816,2,0,L|284:195,1,62.9999980773926
240,189,41329,2,0,L|227:186,1,14
136,169,42112,1,0,0:0:0:0:
146,99,42371,6,0,L|136:168,1,70
151,64,42889,2,0,L|144:108,1,35
151,64,43148,1,0,0:0:0:0:
145,98,43666,2,0,L|151:64,1,35
145,98,43925,1,0,0:0:0:0:
153,61,44184,6,0,B|294:86|294:86|305:-33|160:-65|85:56|106:155|221:208|284:136,1,585.9000143042
162,134,44443,6,0,P|145:98|146:69,1,70
220,73,44961,6,0,L|152:61,1,70
152,61,45393,2,0,L|271:82,1,116.666666666667
220,73,45998,2,0,L|149:61,1,70
208,142,46516,6,0,L|220:71,1,70
208,142,47034,1,0,0:0:0:0:
205,155,47293,2,0,L|207:142,1,14
219,72,48070,1,0,0:0:0:0:
196,211,48329,1,0,0:0:0:0:
335,234,48588,5,0,0:0:0:0:
387,269,49106,2,0,P|397:239|392:207,1,64.1666666666667
387,269,49624,6,0,P|397:239|392:207,1,64.1666666666667
392,206,50143,6,0,P|372:181|342:169,1,64.1666666666667
392,204,50661,1,0,0:0:0:0:
342,168,50877,6,0,P|310:170|284:189,1,64.1666666666667
283,189,51179,6,0,P|269:217|271:249,1,64.1666666666667
272,251,51697,1,0,0:0:0:0:
387,269,51956,1,0,0:0:0:0:
413,98,52215,1,0,0:0:0:0:
207,67,52733,5,0,0:0:0:0:
413,98,52992,1,0,0:0:0:0:
400,184,53251,1,0,0:0:0:0:
194,153,53510,1,0,0:0:0:0:
413,98,53770,1,0,0:0:0:0:
207,67,54029,5,0,0:0:0:0:
203,88,54158,1,0,0:0:0:0:
196,131,54288,1,0,0:0:0:0:
200,110,54417,1,0,0:0:0:0:
193,153,54547,1,0,0:0:0:0:
200,110,54806,1,0,0:0:0:0:
207,67,55065,1,0,0:0:0:0:
194,153,55324,5,0,0:0:0:0:
207,67,55453,1,0,0:0:0:0:
194,153,55842,1,0,0:0:0:0:
207,67,55972,1,0,0:0:0:0:
207,67,56360,1,0,0:0:0:0:
194,153,56490,1,0,0:0:0:0:
178,239,56878,6,0,L|264:253,1,87.5125020721535
265,253,58174,2,0,B|153:234|154:234,1,95.8474420414089
265,253,58433,1,0,0:0:0:0:
265,253,58649,6,0,B|171:237|171:237|190:138|190:138|289:154|289:154|190:138|190:138|206:49|206:49|310:69|310:69|206:49|206:49|188:138|188:138|171:237|171:237|179:238|179:238|171:237|171:237|183:169|183:169|176:210|176:210|199:88|199:88|189:138|189:138|241:146|241:146|219:143|219:143|265:150|265:150|189:138|189:138|206:49|206:49|296:66|296:66|227:53|227:53|263:60|263:60|206:49|206:49|179:194|179:194|193:117|193:117|171:237|171:237|235:248|235:248|192:241|192:241|265:253|265:253|171:237|171:237|251:251|251:251|177:238|177:238|184:239|184:239|245:250|245:250|210:244|210:244|265:253,1,2662.65987679266
265,253,60484,6,0,L|310:66,1,190.189991199476
309,68,60721,2,0,L|300:111,1,35
301,102,60893,2,0,L|305:89,1,11.6666666666667
350,115,61023,6,0,L|477:132,1,128.143306605653
452,46,62879,2,0,P|410:43|355:71,1,95.8474420414089
340,162,63095,1,0,0:0:0:0:
473,190,63311,2,0,P|408:196|334:155,1,143.771163062113
334,114,63613,1,0,0:0:0:0:
477,133,63829,2,0,L|326:113,1,143.771163062113
361,64,64132,1,0,0:0:0:0:
256,192,79331,12,0,81706,0:0:0:0:
