osu file format v14

[General]
AudioFilename: audio.mp3
AudioLeadIn: 0
PreviewTime: 7744
Countdown: 0
SampleSet: Soft
StackLeniency: 0.7
Mode: 0
LetterboxInBreaks: 0
WidescreenStoryboard: 0

[Editor]
Bookmarks: 7744,15486,23228
DistanceSpacing: 1
BeatDivisor: 16
GridSize: 4
TimelineZoom: 2.3

[Metadata]
Title:Your Best Friend (JP Version)
TitleUnicode:Your Best Friend (JP Version)
Artist:SiIvaGunner
ArtistUnicode:SiIvaGunner
Creator:FruityEnLoops
Version:Advanced
Source:UNDERTALE
Tags:howdy it's me flowey the flower toby fox
BeatmapID:1457064
BeatmapSetID:688534

[Difficulty]
HPDrainRate:5.5
CircleSize:5.5
OverallDifficulty:5.5
ApproachRate:5.5
SliderMultiplier:1.4
SliderTickRate:1

[Events]
//Background and Video events
0,0,"bg.png",0,0
//Break Periods
//Storyboard Layer 0 (Background)
//Storyboard Layer 1 (Fail)
//Storyboard Layer 2 (Pass)
//Storyboard Layer 3 (Foreground)
//Storyboard Sound Samples

[TimingPoints]
3,483.870967741935,4,2,1,80,1,0
30426,-100,4,2,1,60,0,0

[Colours]
Combo1 : 156,243,143
Combo2 : 231,236,19
Combo3 : 22,238,17
Combo4 : 196,211,141

[HitObjects]
168,192,3,6,0,L|231:322,1,140,2|0,0:0|0:0,0:0:0:0:
344,192,970,2,0,L|280:322,1,140,2|0,0:0|0:0,0:0:0:0:
168,192,1938,6,0,L|231:62,1,140,2|0,0:0|0:0,0:0:0:0:
344,192,2906,2,0,L|280:62,1,140,2|0,0:0|0:0,0:0:0:0:
124,208,3873,6,0,B|44:232|44:232|44:288,1,140,2|0,0:0|0:0,0:0:0:0:
124,176,4841,2,0,B|44:152|44:152|44:96,1,140,2|0,0:0|0:0,0:0:0:0:
388,176,5809,6,0,B|468:152|468:152|468:96,1,140,2|0,0:0|0:0,0:0:0:0:
388,208,6777,2,0,B|468:232|468:232|468:288,1,140,2|0,0:0|0:0,0:0:0:0:
256,192,7744,5,2,0:0:0:0:
256,192,8228,2,0,P|252:168|256:112,2,70,0|0|2,0:0|0:0|0:0,0:0:0:0:
392,152,9196,1,0,0:0:0:0:
392,224,9438,2,0,L|392:268,2,35,0|0|2,0:0|0:0|0:0,0:0:0:0:
316,248,9922,2,0,L|277:269,2,35
220,296,10406,1,0,0:0:0:0:
156,324,10648,2,0,P|164:252|236:228,1,140,2|0,0:0|0:0,0:0:0:0:
268,176,11373,1,0,0:0:0:0:
300,112,11615,6,0,P|320:68|344:48,1,70
369,119,12099,2,0,P|329:179|261:171,1,140,2|0,0:0|0:0,0:0:0:0:
335,53,13067,1,0,0:0:0:0:
436,148,13551,6,0,B|412:211|412:211|344:246,1,140,2|0,0:0|0:0,0:0:0:0:
280,252,14277,2,0,L|280:300,1,35
208,288,14640,2,0,L|208:240,1,35
140,276,15002,2,0,P|140:312|180:352,1,70,0|0,0:0|0:0,0:0:0:0:
228,356,15486,5,2,0:0:0:0:
228,356,15970,2,0,L|320:356,1,70,0|0,0:0|0:0,0:0:0:0:
280,287,16454,2,0,P|200:256|196:184,1,140,2|0,0:0|0:0,0:0:0:0:
188,140,17180,2,0,L|188:92,2,35,0|0|2,0:0|0:0|0:0,0:0:0:0:
256,148,17664,2,0,L|286:130,2,35
260,220,18148,1,0,0:0:0:0:
188,209,18390,2,0,P|188:265|240:341,1,140,2|0,0:0|0:0,0:0:0:0:
296,356,19115,1,0,0:0:0:0:
345,305,19357,6,0,P|313:289|265:289,1,70,2|0,0:0|0:0,0:0:0:0:
256,224,19841,2,0,P|240:160|168:140,1,140,0|2,0:0|0:0,0:0:0:0:
116,268,20809,1,0,0:0:0:0:
231,334,21293,2,0,P|191:277|187:208,1,140,2|0,0:0|0:0,0:0:0:0:
190,140,22019,2,0,L|190:92,1,35
118,104,22382,2,0,L|118:139,1,35
66,188,22744,2,0,P|47:158|47:124,1,70
46,54,23228,5,2,0:0:0:0:
46,54,23712,2,0,L|114:26,1,70
180,28,24196,2,0,P|240:64|248:128,1,140,2|0,0:0|0:0,0:0:0:0:
180,100,24922,2,0,L|140:132,2,35,0|0|2,0:0|0:0|0:0,0:0:0:0:
196,168,25406,2,0,L|203:218,2,35
132,208,25890,2,0,P|152:253|175:269,1,70,0|2,0:0|0:0,0:0:0:0:
292,236,26615,6,0,P|252:256|224:288,1,70
296,308,27099,2,0,P|336:288|364:256,1,70,2|0,0:0|0:0,0:0:0:0:
389,210,27583,2,0,P|389:162|301:242,1,280
152,254,29035,5,2,0:0:0:0:
152,254,29519,1,0,0:0:0:0:
140,186,29761,2,0,L|92:186,1,35
104,116,30123,2,0,L|140:116,1,35
200,116,30365,2,0,L|228:116,2,17.5,2|2|4,0:0|0:0|0:0,0:0:0:0:
