osu file format v14

[General]
AudioFilename: audio.mp3
AudioLeadIn: 0
PreviewTime: 39
Countdown: 0
SampleSet: Soft
StackLeniency: 0.7
Mode: 0
LetterboxInBreaks: 0
WidescreenStoryboard: 1

[Editor]
DistanceSpacing: 1
BeatDivisor: 4
GridSize: 32
TimelineZoom: 2.699999

[Metadata]
Title:We No Speak Americano (Alpha Mix)
TitleUnicode:We No Speak Americano (Alpha Mix)
Artist:SiIvaGunner
ArtistUnicode:SiIvaGunner
Creator:bite you death
Version:dumb doubles
Source:
Tags:Yolanda Be Cool & DCUP DJ Hero 2 silvagunner gilvasunner byd
BeatmapID:1802155
BeatmapSetID:861403

[Difficulty]
HPDrainRate:5.6
CircleSize:3.6
OverallDifficulty:8.6
ApproachRate:9.6
SliderMultiplier:1.84
SliderTickRate:1

[Events]
//Background and Video events
//Break Periods
//Storyboard Layer 0 (Background)
//Storyboard Layer 1 (Fail)
//Storyboard Layer 2 (Pass)
//Storyboard Layer 3 (Foreground)
//Storyboard Sound Samples

[TimingPoints]
999,480,4,2,1,40,1,0
999,-83.3333333333333,4,2,1,40,0,0
6759,333.333333333333,4,2,1,40,1,0
36758,-100,4,2,1,5,0,0

[Colours]
Combo1 : 176,0,88
Combo2 : 255,255,183
Combo3 : 255,187,119

[HitObjects]
105,153,999,6,0,P|151:146|211:204,1,110.399996630859,2|0,0:0|0:0,0:0:0:0:
251,291,1399,1,0,0:0:0:0:
251,291,1479,2,0,P|285:266|334:268,1,73.5999977539063,2|0,0:0|0:0,0:0:0:0:
324,227,1719,2,0,P|362:243|385:287,1,73.5999977539063,0|0,0:0|0:0,0:0:0:0:
387,304,1959,6,0,L|509:289,1,110.399996630859,2|0,0:0|0:0,0:0:0:0:
511,75,2439,2,0,L|389:90,1,110.399996630859,2|0,0:0|0:0,0:0:0:0:
504,183,2919,5,2,0:0:0:0:
313,105,3159,5,0,0:0:0:0:
383,177,3319,1,0,0:0:0:0:
407,171,3399,1,0,0:0:0:0:
243,33,3559,1,0,0:0:0:0:
219,39,3639,1,0,0:0:0:0:
401,88,3799,1,0,0:0:0:0:
425,82,3879,1,0,0:0:0:0:
225,122,4039,5,0,0:0:0:0:
254,258,4279,1,0,0:0:0:0:
260,282,4359,1,0,0:0:0:0:
144,109,4519,1,0,0:0:0:0:
150,85,4599,1,0,0:0:0:0:
34,258,4759,1,0,0:0:0:0:
40,282,4839,5,0,0:0:0:0:
313,105,5319,1,0,0:0:0:0:
313,105,6279,5,2,0:0:0:0:
206,162,6439,1,2,0:0:0:0:
206,162,6519,1,2,0:0:0:0:
206,162,6599,2,0,L|220:106,1,36.7999988769532,2|0,0:0|0:0,0:0:0:0:
241,34,6759,5,6,3:2:0:0:
179,254,6926,1,0,0:0:0:0:
313,105,7092,1,8,0:0:0:0:
313,105,7175,1,0,0:0:0:0:
313,105,7258,1,0,0:0:0:0:
79,255,7425,1,0,3:0:0:0:
364,235,7592,1,0,0:0:0:0:
122,100,7758,1,8,0:0:0:0:
76,101,7841,1,0,0:0:0:0:
36,122,7924,1,0,0:0:0:0:
9,159,8007,1,0,0:0:0:0:
3,204,8091,5,0,3:0:0:0:
156,378,8258,1,0,0:0:0:0:
258,213,8425,1,8,0:0:0:0:
214,224,8508,1,0,0:0:0:0:
169,234,8591,1,0,0:0:0:0:
124,245,8675,1,0,0:0:0:0:
79,255,8758,5,0,3:0:0:0:
334,339,8925,1,0,0:0:0:0:
83,338,9092,5,8,0:0:0:0:
338,254,9259,1,0,0:0:0:0:
83,172,9425,5,0,3:0:0:0:
334,339,9592,1,0,0:0:0:0:
194,100,9758,1,8,0:0:0:0:
194,100,9842,1,0,0:0:0:0:
194,100,9925,1,0,0:0:0:0:
262,293,10092,1,0,3:0:0:0:
331,71,10258,1,0,0:0:0:0:
169,272,10425,1,8,0:0:0:0:
167,306,10508,1,0,0:0:0:0:
178,338,10591,1,0,0:0:0:0:
201,364,10675,1,0,0:0:0:0:
231,379,10758,5,0,3:0:0:0:
442,303,10925,1,0,0:0:0:0:
224,112,11092,1,8,0:0:0:0:
234,157,11175,1,0,0:0:0:0:
243,202,11258,1,0,0:0:0:0:
252,247,11342,1,0,0:0:0:0:
262,293,11425,5,0,3:0:0:0:
344,42,11592,1,0,0:0:0:0:
384,360,11758,1,8,0:0:0:0:
302,109,11925,1,0,0:0:0:0:
114,356,12092,5,4,3:2:0:0:
234,157,12258,1,0,0:0:0:0:
33,269,12425,1,8,0:0:0:0:
33,269,12508,1,0,0:0:0:0:
33,269,12592,1,0,0:0:0:0:
305,265,12758,1,0,3:0:0:0:
8,177,12925,1,0,0:0:0:0:
306,370,13092,1,8,0:0:0:0:
341,341,13175,1,0,0:0:0:0:
382,320,13258,1,0,0:0:0:0:
427,308,13342,1,0,0:0:0:0:
472,307,13425,5,0,3:0:0:0:
203,236,13592,1,0,0:0:0:0:
433,54,13758,1,8,0:0:0:0:
420,98,13841,1,0,0:0:0:0:
408,142,13924,1,0,0:0:0:0:
396,187,14008,1,0,0:0:0:0:
384,231,14092,5,0,3:0:0:0:
105,331,14258,1,0,0:0:0:0:
483,180,14425,1,8,0:0:0:0:
203,80,14591,1,0,0:0:0:0:
306,370,14758,6,0,P|325:330|300:258,1,92,4|0,3:2|0:0,0:0:0:0:
246,195,15008,1,0,0:0:0:0:
246,195,15092,1,8,0:0:0:0:
437,336,15258,1,0,0:0:0:0:
294,70,15425,6,0,L|184:82,1,92,4|0,3:2|0:0,0:0:0:0:
64,92,15675,1,0,0:0:0:0:
64,92,15759,1,8,0:0:0:0:
359,139,15925,1,0,0:0:0:0:
43,239,16092,5,4,3:2:0:0:
451,336,16258,1,0,0:0:0:0:
20,346,16425,5,4,3:2:0:0:
386,249,16592,1,0,0:0:0:0:
20,132,16758,5,4,3:2:0:0:
494,235,16925,1,2,0:0:0:0:
138,338,17092,1,2,0:0:0:0:
122,285,17175,1,2,0:0:0:0:
130,231,17258,1,2,0:0:0:0:
163,187,17341,1,0,0:0:0:0:
210,162,17425,5,6,3:2:0:0:
344,370,17592,1,0,0:0:0:0:
322,115,17758,1,8,0:0:0:0:
322,115,17842,1,0,0:0:0:0:
322,115,17925,1,0,0:0:0:0:
245,342,18092,1,0,3:0:0:0:
123,106,18258,1,0,0:0:0:0:
381,289,18425,1,8,0:0:0:0:
425,288,18508,1,0,0:0:0:0:
465,264,18591,1,0,0:0:0:0:
487,225,18674,1,0,0:0:0:0:
487,179,18758,5,0,3:0:0:0:
248,251,18925,1,0,0:0:0:0:
450,31,19092,1,8,0:0:0:0:
421,66,19175,1,0,0:0:0:0:
402,108,19258,1,0,0:0:0:0:
395,153,19341,1,0,0:0:0:0:
398,199,19425,5,0,3:0:0:0:
146,367,19592,1,0,0:0:0:0:
425,288,19758,1,8,0:0:0:0:
120,279,19925,1,0,0:0:0:0:
402,108,20092,5,0,3:0:0:0:
308,357,20258,1,0,0:0:0:0:
206,126,20425,1,8,0:0:0:0:
206,126,20508,1,0,0:0:0:0:
206,126,20592,1,0,0:0:0:0:
424,287,20758,1,0,3:0:0:0:
153,264,20925,1,0,0:0:0:0:
437,186,21092,1,8,0:0:0:0:
478,205,21175,1,0,0:0:0:0:
507,239,21258,1,0,0:0:0:0:
512,283,21341,1,0,0:0:0:0:
512,328,21425,5,0,3:0:0:0:
282,214,21592,1,0,0:0:0:0:
471,31,21758,1,8,0:0:0:0:
492,71,21841,1,0,0:0:0:0:
492,116,21924,1,0,0:0:0:0:
472,157,22007,1,0,0:0:0:0:
436,185,22091,5,0,3:0:0:0:
171,112,22258,1,0,0:0:0:0:
471,31,22425,1,8,0:0:0:0:
233,270,22592,1,0,0:0:0:0:
127,18,22758,5,4,3:2:0:0:
296,180,22925,1,0,0:0:0:0:
57,98,23092,1,8,0:0:0:0:
57,98,23175,1,0,0:0:0:0:
57,98,23258,1,0,0:0:0:0:
337,66,23425,1,0,3:0:0:0:
97,216,23592,1,0,0:0:0:0:
341,302,23758,1,8,0:0:0:0:
343,256,23841,1,0,0:0:0:0:
327,213,23924,1,0,0:0:0:0:
296,180,24007,1,0,0:0:0:0:
254,162,24091,5,4,3:2:0:0:
31,284,24258,1,0,0:0:0:0:
154,40,24425,1,8,0:0:0:0:
199,46,24508,1,0,0:0:0:0:
245,52,24591,1,0,0:0:0:0:
290,58,24674,1,0,0:0:0:0:
336,65,24758,5,0,3:0:0:0:
236,324,24925,1,0,0:0:0:0:
433,58,25092,1,8,0:0:0:0:
501,344,25258,1,0,0:0:0:0:
223,210,25425,6,0,L|100:237,1,92,4|0,3:2|0:0,0:0:0:0:
1,260,25675,1,0,0:0:0:0:
1,260,25758,2,0,L|11:205,1,46,8|0,0:0|0:0,0:0:0:0:
37,68,25925,1,0,0:0:0:0:
248,306,26092,6,0,P|294:281|315:232,1,92,4|0,3:2|0:0,0:0:0:0:
341,129,26342,1,0,0:0:0:0:
341,129,26425,2,0,L|332:80,1,46,8|0,0:0|0:0,0:0:0:0:
417,282,26592,2,0,L|408:331,1,46
448,81,26758,5,4,3:2:0:0:
133,229,26925,1,0,0:0:0:0:
507,183,27092,5,4,3:2:0:0:
105,102,27258,1,0,0:0:0:0:
505,12,27425,5,4,3:2:0:0:
21,175,27592,1,0,0:0:0:0:
500,343,27758,5,4,3:2:0:0:
243,4,27925,1,0,0:0:0:0:
166,294,28092,5,4,3:2:0:0:
243,139,28258,1,0,0:0:0:0:
66,278,28425,1,8,0:0:0:0:
70,300,28508,1,0,0:0:0:0:
75,322,28591,1,0,0:0:0:0:
110,135,28758,1,0,3:0:0:0:
245,323,28925,1,0,0:0:0:0:
365,143,29092,1,8,0:0:0:0:
338,122,29175,1,0,0:0:0:0:
305,114,29258,1,0,0:0:0:0:
271,120,29341,1,0,0:0:0:0:
243,139,29425,5,0,3:0:0:0:
314,304,29592,1,0,0:0:0:0:
365,143,29758,1,8,0:0:0:0:
360,108,29841,1,0,0:0:0:0:
355,74,29924,1,0,0:0:0:0:
351,40,30007,1,0,0:0:0:0:
346,6,30091,5,0,3:0:0:0:
302,218,30258,1,0,0:0:0:0:
130,63,30425,1,8,0:0:0:0:
174,275,30592,1,0,0:0:0:0:
231,39,30758,5,0,3:0:0:0:
64,201,30925,1,0,0:0:0:0:
281,120,31092,1,8,0:0:0:0:
281,120,31175,1,0,0:0:0:0:
281,120,31258,1,0,0:0:0:0:
14,120,31425,1,0,3:0:0:0:
305,209,31592,1,0,0:0:0:0:
163,344,31758,1,8,0:0:0:0:
168,309,31841,1,0,0:0:0:0:
174,275,31924,1,0,0:0:0:0:
179,241,32007,1,0,0:0:0:0:
185,207,32091,5,0,3:0:0:0:
356,298,32258,1,0,0:0:0:0:
228,124,32425,1,8,0:0:0:0:
197,109,32508,1,0,0:0:0:0:
163,110,32591,1,0,0:0:0:0:
133,126,32674,1,0,0:0:0:0:
113,154,32758,5,0,3:0:0:0:
383,87,32925,1,0,0:0:0:0:
179,241,33092,1,8,0:0:0:0:
317,0,33258,1,0,0:0:0:0:
256,192,33425,5,4,3:2:0:0:
256,192,33508,12,0,36758,0:0:0:0:
