osu file format v14

[General]
AudioFilename: audio.mp3
AudioLeadIn: 0
PreviewTime: 3983
Countdown: 0
SampleSet: Normal
StackLeniency: 0.7
Mode: 0
LetterboxInBreaks: 0
WidescreenStoryboard: 1

[Editor]
DistanceSpacing: 0.4
BeatDivisor: 4
GridSize: 16
TimelineZoom: 1

[Metadata]
Title:Horse Race
TitleUnicode:Horse Race
Artist:SiIvaGunner
ArtistUnicode:SiIvaGunner
Creator:Nitroz
Version:Hard
Source:ゼルダの伝説 ムジュラの仮面
Tags:競馬 Zelda no Densetsu: Mujura no Kamen The Legend of Zelda: Majora's Mask Toru Minegishi 峰岸透 Koji Kondo 近藤浩治 Silvagunner GiIvaSunner GilvaSunner Nintendo EAD Rudolph Red Nosed Reindeer Santa Claus Christmas Winter Holiday xmas Robert L. May Johnny Marks Gene Autry Rainfall
BeatmapID:1830911
BeatmapSetID:875655

[Difficulty]
HPDrainRate:5
CircleSize:4
OverallDifficulty:6
ApproachRate:7
SliderMultiplier:1.9
SliderTickRate:1

[Events]
//Background and Video events
0,0,"MM Rudolph.png",0,0
//Break Periods
//Storyboard Layer 0 (Background)
//Storyboard Layer 1 (Fail)
//Storyboard Layer 2 (Pass)
//Storyboard Layer 3 (Foreground)
//Storyboard Sound Samples

[TimingPoints]
244,387.096774193548,4,1,0,50,1,0
3983,387.096774193548,4,1,0,50,1,0
3983,-96.1538461538461,4,1,0,50,0,0
5531,-96.6183574879227,4,1,0,50,0,0
9402,-96.1538461538461,4,1,0,50,0,0
11724,-96.6183574879227,4,1,0,50,0,0
14047,-96.1538461538461,4,1,0,50,0,0
16370,-102.040816326531,4,1,0,50,0,0
17531,-102.040816326531,4,1,0,50,0,0
17918,-102.040816326531,4,1,0,50,0,0
20241,-86.2068965517241,4,1,0,50,0,0
28757,-101.522842639594,4,1,0,50,0,0
30305,-96.1538461538461,4,1,0,50,0,0
31853,-96.6183574879227,4,1,0,50,0,0
33208,-96.1538461538461,4,1,0,50,0,0

[Colours]
Combo1 : 128,0,255
Combo2 : 0,202,0
Combo3 : 255,0,0

[HitObjects]
368,208,244,6,0,B|368:272|368:272|288:272,1,142.5,4|0,0:0|0:0,0:0:0:0:
256,272,631,2,0,L|160:272,1,95,8|8,0:0|0:0,0:0:0:0:
144,176,1018,2,0,B|144:112|144:112|224:112,1,142.5,4|0,0:0|0:0,0:0:0:0:
256,112,1405,2,0,L|352:112,1,95,8|8,0:0|0:0,0:0:0:0:
256,192,1792,6,4,L|256:288,2,95,4|0|4,0:0|0:0|0:0,0:0:0:0:
256,192,2372,12,0,3437,0:0:0:0:
112,320,3983,6,0,B|112:288|112:288|192:288,1,98.7999993969726,4|0,0:0|0:0,0:0:0:0:
272,288,4369,1,8,0:0:0:0:
368,288,4562,1,0,0:0:0:0:
368,192,4756,2,0,B|368:160|368:160|288:160,1,98.7999993969726
208,160,5143,2,0,B|128:160|128:160|128:128,1,98.7999993969726,8|0,0:0|0:0,0:0:0:0:
208,80,5531,6,0,B|256:89|256:89|304:80,1,98.3250027380848,4|0,0:0|0:0,0:0:0:0:
352,160,5918,2,0,B|256:179|256:179|160:160,1,196.65000547617,8|0,0:0|0:0,0:0:0:0:
160,64,6499,2,0,L|96:64,2,49.1625013690424
256,64,6886,2,0,L|256:0,2,49.1625013690424
352,80,7272,1,0,0:0:0:0:
448,112,7466,1,8,0:0:0:0:
400,192,7659,1,0,0:0:0:0:
400,288,7853,2,0,B|336:288|336:288|304:256,1,98.3250027380848
112,288,8241,2,0,B|176:288|176:288|208:256,1,98.3250027380848
192,144,8627,5,12,0:0:0:0:
192,48,8820,1,8,0:0:0:0:
288,48,9014,1,8,0:0:0:0:
288,144,9208,1,8,0:0:0:0:
384,144,9402,2,0,B|451:144|451:144|451:208|451:208|384:208,1,197.599998793945,8|8,0:0|0:0,0:0:0:0:
112,64,10176,6,0,B|112:96|112:96|192:96,1,98.7999993969726,4|0,0:0|0:0,0:0:0:0:
272,96,10562,1,8,0:0:0:0:
368,96,10757,1,0,0:0:0:0:
368,192,10950,2,0,B|368:224|368:224|288:224,1,98.7999993969726
208,224,11337,2,0,B|128:224|128:224|128:256,1,98.7999993969727,8|0,0:0|0:0,0:0:0:0:
208,304,11724,6,0,B|256:295|256:295|304:304,1,98.3250027380848,4|0,0:0|0:0,0:0:0:0:
352,224,12111,2,0,B|256:205|256:205|160:224,1,196.65000547617,8|0,0:0|0:0,0:0:0:0:
160,320,12692,2,0,L|96:320,2,49.1625013690424
256,320,13079,2,0,L|256:384,2,49.1625013690424
352,304,13465,1,0,0:0:0:0:
448,272,13659,1,8,0:0:0:0:
400,192,13852,1,0,0:0:0:0:
400,96,14047,2,0,B|336:96|336:96|304:128,1,98.7999993969727
112,96,14434,2,0,B|176:96|176:96|208:128,1,98.7999993969727
224,192,14820,5,12,0:0:0:0:
256,272,15015,2,0,L|256:336,2,49.3999996984863,8|0|8,0:0|0:0|0:0,0:0:0:0:
304,192,15401,1,8,0:0:0:0:
384,240,15595,2,0,B|451:240|451:240|451:176|451:176|384:176,1,197.599998793945,8|8,0:0|0:0,0:0:0:0:
256,256,16370,6,0,B|224:288|224:288|160:288,1,93.099999147644,4|0,0:0|0:0,0:0:0:0:
96,224,16756,2,0,B|128:192|128:192|192:192,1,93.099999147644,8|0,0:0|0:0,0:0:0:0:
176,96,17143,1,0,0:0:0:0:
256,48,17337,1,0,0:0:0:0:
336,96,17531,1,8,0:0:0:0:
256,144,17724,1,0,0:0:0:0:
336,192,17918,6,0,B|384:192|384:192|416:224,1,93.099999147644,8|0,0:0|0:0,0:0:0:0:
336,288,18305,2,0,B|288:288|288:288|256:256,1,93.0999991476441,4|0,0:0|0:0,0:0:0:0:
176,192,18692,2,0,B|176:144|176:144|208:112,1,93.099999147644
304,112,19079,2,0,B|336:144|336:144|336:192,1,93.099999147644
336,288,19466,5,4,0:0:0:0:
240,288,19660,1,0,0:0:0:0:
240,192,19853,1,8,0:0:0:0:
144,192,20047,1,0,0:0:0:0:
144,96,20241,2,0,B|208:96|208:96|240:48,1,110.200003363037
368,96,20628,2,0,B|304:96|304:96|272:48,1,110.200003363037
128,48,21015,5,4,0:0:0:0:
128,144,21208,2,0,L|128:208,2,55.1000016815186,8|8|8,0:0|0:0|0:0,0:0:0:0:
224,144,21595,2,0,L|288:144,2,55.1000016815186,8|8|8,0:0|0:0|0:0,0:0:0:0:
224,240,21982,2,0,L|224:304,2,55.1000016815186,8|8|8,0:0|0:0|0:0,0:0:0:0:
320,240,22370,1,8,0:0:0:0:
352,144,22563,5,4,0:0:0:0:
432,96,22757,1,0,0:0:0:0:
352,48,22950,1,8,0:0:0:0:
272,96,23144,1,0,0:0:0:0:
352,144,23337,2,0,B|352:208|352:208|304:240,1,110.200003363037
198,233,23724,2,0,B|160:208|160:208|160:144,1,110.200003363037
80,96,24112,5,4,0:0:0:0:
160,48,24305,1,0,0:0:0:0:
240,96,24499,2,0,L|352:96,1,110.200003363037,8|0,0:0|0:0,0:0:0:0:
368,192,24886,1,0,0:0:0:0:
384,288,25079,1,0,0:0:0:0:
304,240,25273,2,0,B|256:213|256:213|208:240,1,110.200003363037,8|0,0:0|0:0,0:0:0:0:
112,160,25660,6,0,B|160:128|160:128|224:128,1,110.200003363037,4|0,0:0|0:0,0:0:0:0:
299,128,26047,2,0,B|352:128|352:128|400:160,1,110.200003363037,4|0,0:0|0:0,0:0:0:0:
400,256,26434,2,0,B|352:288|352:288|288:288,1,110.200003363037,4|0,0:0|0:0,0:0:0:0:
212,288,26821,2,0,B|159:288|159:288|111:256,1,110.200003363037,4|0,0:0|0:0,0:0:0:0:
256,192,27208,12,0,28370,0:0:0:0:
352,192,28757,6,0,L|256:96,1,93.5750002141761,4|0,0:0|0:0,0:0:0:0:
160,192,29144,2,0,L|240:112,1,93.5750002141761,8|0,0:0|0:0,0:0:0:0:
160,0,29531,6,0,L|256:96,1,93.5750002141761,4|0,0:0|0:0,0:0:0:0:
352,0,29918,2,0,L|272:80,1,93.5750002141761,8|0,0:0|0:0,0:0:0:0:
256,224,30305,6,0,B|248:216|245:213|241:209|237:205|234:202|230:198|226:194|306:194|306:194|306:274|306:274|258:274,1,197.599998793945,4|8,0:0|0:0,0:0:0:0:
256,224,30886,2,0,B|176:224|176:224|176:304|176:304|224:304,1,197.599998793945,4|8,0:0|0:0,0:0:0:0:
304,352,31466,1,8,0:0:0:0:
384,304,31660,1,0,0:0:0:0:
432,240,31853,6,0,B|384:224|384:224|336:240,1,98.3250027380848,4|0,0:0|0:0,0:0:0:0:
208,160,32241,2,0,B|256:144|256:144|304:160,1,98.3250027380848,4|0,0:0|0:0,0:0:0:0:
173,239,32628,6,0,B|128:224|128:224|80:240,1,98.3250027380848,4|0,0:0|0:0,0:0:0:0:
80,336,33015,1,8,0:0:0:0:
192,320,33208,6,0,B|256:272|256:272|256:144,1,197.599998793945,4|0,0:0|0:0,0:0:0:0:
384,192,33789,2,0,B|336:176|336:176|336:128,1,98.7999993969726,8|0,0:0|0:0,0:0:0:0:
128,192,34176,2,0,B|176:176|176:176|176:128,1,98.7999993969726,8|0,0:0|0:0,0:0:0:0:
304,272,34563,2,0,B|256:256|256:256|256:208,1,98.7999993969726,8|0,0:0|0:0,0:0:0:0:
256,80,34950,5,4,0:0:0:0:
336,128,35144,2,0,L|368:176,2,49.3999996984863,8|0|8,0:0|0:0|0:0,0:0:0:0:
256,192,35531,1,8,0:0:0:0:
256,192,35628,1,0,0:0:0:0:
256,192,35724,5,8,0:0:0:0:
176,256,35918,2,0,L|144:208,2,49.3999996984863,8|0|8,0:0|0:0|0:0,0:0:0:0:
96,320,36305,1,0,0:0:0:0:
112,144,36499,6,0,B|112:48|112:48|224:48,1,197.599998793945,4|8,0:0|0:0,0:0:0:0:
400,144,37079,2,0,B|400:48|400:48|288:48,1,197.599998793945,4|8,0:0|0:0,0:0:0:0:
256,176,37660,2,0,B|256:288,1,98.7999993969726,8|0,0:0|0:0,0:0:0:0:
256,192,38047,12,0,41144,0:0:0:0:
